<?xml version="1.0" standalone="no"?>
<!DOCTYPE svg PUBLIC "-//W3C//DTD SVG 1.1//EN" "http://www.w3.org/Graphics/SVG/1.1/DTD/svg11.dtd" >
<svg xmlns="http://www.w3.org/2000/svg">
<metadata>
This is a custom SVG webfont generated by Fontspring.
Designer    : FontSite.com
Foundry URL : http://www.fontsite.com
</metadata>
<defs>
<font id="webfont" horiz-adv-x="587" >
<font-face units-per-em="1000" ascent="827" descent="-173" />
<missing-glyph horiz-adv-x="250" />
<glyph unicode=" "  horiz-adv-x="250" />
<glyph unicode="&#x09;" horiz-adv-x="250" />
<glyph unicode="&#xa0;" horiz-adv-x="250" />
<glyph unicode="!" horiz-adv-x="247" d="M84 185l17 482h141l-107 -482h-51zM22 0l21 123h120l-21 -123h-120z" />
<glyph unicode="&#x22;" horiz-adv-x="375" d="M258 402l28 265h106l-60 -265h-74zM94 402l28 265h106l-61 -265h-73z" />
<glyph unicode="#" d="M95 0l44 196h-100l21 93h101l23 102h-101l21 94h101l40 182h91l-40 -182h95l40 182h91l-41 -182h99l-21 -94h-98l-22 -102h97l-21 -94h-98l-43 -195h-91l44 195h-96l-44 -195h-92zM252 289h95l23 102h-95z" />
<glyph unicode="$" d="M26 185l92 32q11 -45 40 -75.5t68 -36.5l32 197q-69 20 -98 42q-66 50 -66 132q0 79 58 131.5t146 52.5q11 0 20 -1l12 71h65l-13 -79q55 -9 99 -45t61 -86l-90 -32q-11 31 -35 53t-49 26l-29 -172l13 -4q54 -16 77.5 -29.5t44.5 -39.5q42 -50 42 -112q0 -85 -63 -142.5 t-157 -57.5q-12 0 -21 2l-15 -87h-64l15 94q-65 10 -116 56t-69 110zM276 408l28 166q-50 1 -80 -22t-30 -62q0 -61 82 -82zM289 95l15 -1q46 -3 78.5 26t32.5 71q0 45 -38 72q-17 12 -57 21z" />
<glyph unicode="%" horiz-adv-x="748" d="M206 309q-59 0 -97 46t-38 117q0 47 19 94.5t50 75.5q40 38 96 38q60 0 97.5 -44.5t37.5 -115.5q0 -54 -22 -103t-60 -80q-34 -28 -83 -28zM108 0l487 667h73l-486 -667h-74zM210 377q39 0 58 48q19 49 19 109q0 77 -54 77q-35 0 -56.5 -44.5t-21.5 -114.5q0 -75 55 -75z M407 150q0 86 49 149t116 63q58 0 96.5 -47.5t38.5 -118.5q0 -85 -49 -146t-117 -61q-60 0 -97 45t-37 116zM490 140q0 -82 55 -82q41 0 62 60q16 48 16 94q0 81 -56 81q-34 0 -51 -33q-26 -52 -26 -120z" />
<glyph unicode="&#x26;" horiz-adv-x="693" d="M23 184q0 91 65 147q44 37 129 65q-41 62 -41 126q0 70 48.5 117.5t120.5 47.5q78 0 127.5 -43.5t49.5 -111.5q0 -87 -80 -136q-23 -15 -77 -34l118 -167q49 55 76.5 103.5t44.5 108.5l92 -25q-53 -161 -159 -256q18 -28 38.5 -37.5t60.5 -9.5h9l-16 -96q-15 -2 -32 -2 q-49 0 -74.5 13t-63.5 58q-84 -76 -203 -76q-102 0 -167.5 58.5t-65.5 149.5zM323 432l5 2l3 1l2 2l30 13q60 27 60 78q0 28 -20 46t-51 18t-51 -20t-20 -50q0 -42 42 -90zM140 188q0 -48 36 -81t88 -33q69 0 141 52l-139 198q-126 -46 -126 -136z" />
<glyph unicode="'" horiz-adv-x="210" d="M94 402l28 265h106l-61 -265h-73z" />
<glyph unicode="(" horiz-adv-x="293" d="M30 184q0 158 92 312q61 101 139 171h75q-83 -95 -130 -189q-86 -169 -86 -332q0 -162 75 -319h-62q-103 183 -103 357z" />
<glyph unicode=")" horiz-adv-x="293" d="M171 -2q-62 -104 -139 -171h-75q217 248 217 521q0 160 -76 319h62q104 -183 104 -357q0 -158 -93 -312z" />
<glyph unicode="*" d="M202 275l-55 56l126 114l-154 72l36 70l148 -85l21 169l77 -13l-35 -167l168 32l11 -77l-169 -18l82 -150l-70 -35l-70 156z" />
<glyph unicode="+" d="M262 83v207h-201v93h201v208h93v-208h200v-93h-200v-207h-93z" />
<glyph unicode="," horiz-adv-x="241" d="M21 0l20 121h117l-19 -111l-104 -154h-42l83 144h-55z" />
<glyph unicode="-" horiz-adv-x="241" d="M-7 202l15 89h239l-15 -89h-239z" />
<glyph unicode="." horiz-adv-x="241" d="M21 0l20 122h117l-20 -122h-117z" />
<glyph unicode="/" horiz-adv-x="435" d="M-46 -173h-73l518 840h76z" />
<glyph unicode="0" d="M139 27q-44 39 -68.5 104t-24.5 142q0 165 92 300q77 111 209 111q99 0 164 -81q59 -75 59 -206q0 -71 -19 -144.5t-51 -128.5q-85 -143 -224 -143q-85 0 -137 46zM162 234q0 -77 30 -119.5t85 -42.5q44 0 75 27t57 86q19 45 33 119t14 127q0 77 -31.5 119.5t-87.5 42.5 q-70 0 -115 -83q-24 -45 -42 -127.5t-18 -148.5z" />
<glyph unicode="1" d="M39 0l17 104h194l71 424q-28 -26 -83 -44.5t-105 -18.5h-16l17 102q172 16 249 124h78l-99 -587h196l-17 -104h-502z" />
<glyph unicode="2" d="M5 0l16 122q167 93 290 184q124 91 124 179q0 44 -30 73t-76 29q-53 0 -92.5 -37t-55.5 -104l-104 45q37 97 102.5 148t154.5 51q95 0 159 -59.5t64 -147.5q0 -76 -41.5 -133t-139.5 -118q-121 -74 -240 -125h381l-18 -107h-494z" />
<glyph unicode="3" d="M18 166l106 27q11 -51 49.5 -81.5t94.5 -30.5q58 0 96.5 33t38.5 83q0 40 -22 65t-61 30q-24 2 -106 2l15 95q14 -1 30 -1q92 0 133 29q43 30 43 80q0 39 -30.5 64t-77.5 25t-86 -26t-61 -72l-100 47q91 148 250 148q97 0 160.5 -49.5t63.5 -126.5q0 -61 -39.5 -103.5 t-109.5 -56.5q117 -36 117 -155q0 -41 -20 -82.5t-54 -69.5q-70 -56 -183 -56q-96 0 -160 47t-87 135z" />
<glyph unicode="4" d="M27 151l17 108l356 430h122l-73 -437h103l-17 -101h-103l-25 -151h-115l25 151h-290zM142 250q38 2 46 2h150l48 282l7 26q-25 -37 -49 -67z" />
<glyph unicode="5" d="M37 148l104 28q11 -44 46 -71t82 -27q61 0 102.5 42.5t41.5 105.5q0 52 -33.5 86.5t-83.5 34.5q-71 0 -123 -73l-94 41l94 353h393l-27 -103h-296l-53 -190q59 73 143 73q86 0 145 -61.5t59 -149.5q0 -107 -76.5 -181t-186.5 -74q-86 0 -151.5 46t-85.5 120z" />
<glyph unicode="6" d="M54 275q0 70 22.5 146.5t60.5 134.5q85 128 225 128q88 0 145.5 -46t73.5 -129l-108 -18q-21 102 -117 102q-94 0 -144 -118q-32 -74 -38 -140q56 97 170 97q83 0 140.5 -62.5t57.5 -152.5q0 -98 -69.5 -166t-169.5 -68q-113 0 -181 79.5t-68 212.5zM174 203 q0 -54 36 -92t87 -38q55 0 93 39.5t38 95.5q0 55 -36 91.5t-89 36.5q-54 0 -91.5 -38.5t-37.5 -94.5z" />
<glyph unicode="7" d="M138 0q24 111 46 173.5t63 130.5q86 143 219 257h-372l32 106h458l-15 -94q-15 -8 -58 -58.5t-84 -108.5q-136 -193 -153 -406h-136z" />
<glyph unicode="8" d="M27 155q0 44 21.5 84t58.5 63q36 22 84 33q-52 30 -75 65t-23 84q0 41 21 80.5t57 67.5q66 52 173 52q98 0 160.5 -46t62.5 -118q0 -55 -37 -97.5t-104 -65.5q55 -24 85 -65t30 -92q0 -93 -75.5 -154.5t-189.5 -61.5q-116 0 -182.5 45.5t-66.5 125.5zM354 394 q45 16 76.5 49.5t31.5 66.5q0 40 -34.5 64t-90.5 24q-54 0 -87.5 -25t-33.5 -65q0 -37 32 -63.5t106 -50.5zM139 168q0 -43 37 -69t99 -26q64 0 105 28t41 72t-50 77q-23 15 -97 43q-135 -37 -135 -125z" />
<glyph unicode="9" d="M36 119l100 34q37 -78 115 -78q74 0 123 70t67 200q-56 -108 -170 -108q-86 0 -141.5 58t-55.5 147q0 105 69.5 174t174.5 69q93 0 159 -61q82 -77 82 -223q0 -165 -88 -293q-87 -124 -225 -124q-75 0 -131 36t-79 99zM307 332q53 0 91.5 41t38.5 97q0 52 -35 87.5 t-85 35.5q-54 0 -92 -40.5t-38 -97.5q0 -52 34.5 -87.5t85.5 -35.5z" />
<glyph unicode=":" horiz-adv-x="241" d="M73 311l21 122h116l-20 -122h-117zM21 0l20 122h117l-20 -122h-117z" />
<glyph unicode=";" horiz-adv-x="241" d="M73 311l21 122h116l-20 -122h-117zM21 0l20 121h117l-19 -111l-104 -154h-42l83 144h-55z" />
<glyph unicode="&#x3c;" d="M91 285v96l433 215v-112l-313 -151l312 -152l1 -112z" />
<glyph unicode="=" d="M60 358v93h494v-93h-494zM60 212v93h494v-93h-494z" />
<glyph unicode="&#x3e;" d="M91 69v113l313 151l-312 152l-1 111l433 -216v-95z" />
<glyph unicode="?" horiz-adv-x="484" d="M178 186q3 12 3 17q10 74 28.5 103.5t81.5 69.5q85 55 85 119q0 38 -26 63t-66 25q-45 0 -77.5 -31.5t-48.5 -90.5l-99 38q32 87 93.5 135t139.5 48q88 0 145 -52t57 -131q0 -64 -37 -115q-30 -43 -102 -78q-49 -25 -63.5 -45.5t-20.5 -74.5h-93zM138 0l21 124h120 l-21 -124h-120z" />
<glyph unicode="@" horiz-adv-x="733" d="M203 -47q-77 45 -121 124t-44 171q0 149 106 251t260 102q140 0 234.5 -86t94.5 -213q0 -100 -56.5 -174.5t-133.5 -74.5q-29 0 -52.5 14t-34.5 37q-42 -53 -103 -53q-62 0 -102 51.5t-40 131.5q0 89 47.5 146t121.5 57q67 0 100 -44l6 34h84l-37 -227q-5 -28 -5 -48 q0 -31 30 -31q40 0 73 54t33 121q0 104 -74.5 172t-188.5 68q-120 0 -201.5 -82t-81.5 -203q0 -76 34.5 -139.5t95.5 -99.5q65 -38 158 -38q58 0 102 12t110 45l26 -66q-118 -61 -240 -61q-115 0 -201 49zM298 231q0 -45 19 -72.5t50 -27.5q40 0 71 41.5t31 95.5 q0 41 -21.5 64.5t-59.5 23.5q-42 0 -66 -33.5t-24 -91.5z" />
<glyph unicode="A" horiz-adv-x="603" d="M-28 0l320 667h147l122 -667h-133l-28 161h-241l-74 -161h-113zM200 254h189l-52 296z" />
<glyph unicode="B" horiz-adv-x="611" d="M32 0l112 667h233q86 0 132 -27q76 -46 76 -139q0 -118 -125 -158q104 -45 104 -154q0 -50 -25.5 -95t-66.5 -67q-49 -27 -143 -27h-297zM217 391h118q41 0 62 5.5t38 21.5q30 27 30 69q0 87 -112 87h-106zM168 98h135q45 0 66.5 4.5t38.5 18.5q35 29 35 82q0 46 -34 74 q-28 22 -87 22h-121z" />
<glyph unicode="C" horiz-adv-x="591" d="M50 276q0 173 89.5 290.5t222.5 117.5q106 0 169 -61t72 -172l-109 -20q-6 54 -23 89q-15 30 -44.5 47t-66.5 17q-90 0 -138 -109q-18 -42 -31.5 -108.5t-13.5 -115.5q0 -77 34 -120.5t93 -43.5q48 0 90 36.5t67 99.5l98 -40q-86 -200 -264 -200q-112 0 -178.5 79.5 t-66.5 213.5z" />
<glyph unicode="D" horiz-adv-x="640" d="M32 0l112 667h195q70 0 111.5 -13t78.5 -47q87 -79 87 -236q0 -179 -115 -294q-49 -49 -113 -67q-37 -10 -126 -10h-230zM171 101h106q54 0 87.5 14.5t59.5 47.5q66 89 66 220q0 110 -55 154q-36 31 -114 31h-72z" />
<glyph unicode="E" horiz-adv-x="537" d="M32 0l112 667h421l-18 -105h-302l-29 -173h250l-16 -99h-250l-31 -185h314l-18 -105h-433z" />
<glyph unicode="F" horiz-adv-x="497" d="M32 0l112 667h410l-18 -105h-288l-30 -180h239l-16 -99h-240l-47 -283h-122z" />
<glyph unicode="G" horiz-adv-x="647" d="M142 37q-92 75 -92 239q0 177 91.5 293.5t230.5 116.5q195 0 246 -198l-106 -26q-33 121 -140 121q-62 0 -111 -53q-37 -39 -59.5 -110.5t-22.5 -147.5q0 -89 36.5 -136.5t103.5 -47.5q55 0 95.5 41.5t56.5 114.5h-145l17 101h257l-58 -345h-51l-20 90 q-54 -102 -182 -102q-87 0 -147 49z" />
<glyph unicode="H" horiz-adv-x="646" d="M32 0l112 667h119l-46 -274h261l46 274h119l-112 -667h-119l48 288h-260l-49 -288h-119z" />
<glyph unicode="I" horiz-adv-x="270" d="M32 0l112 667h123l-112 -667h-123z" />
<glyph unicode="J" horiz-adv-x="375" d="M-42 -2l19 100q39 -4 68 -4q69 0 96.5 26.5t40.5 105.5l74 441h122l-71 -422q-16 -94 -34.5 -137.5t-54.5 -73.5q-56 -46 -158 -46q-41 0 -102 10z" />
<glyph unicode="K" horiz-adv-x="617" d="M32 0l112 667h119l-49 -291l-8 -40l-7 -30q14 21 38 49l281 312h128l-219 -238l132 -429h-126l-99 334l-155 -169l-28 -165h-119z" />
<glyph unicode="L" horiz-adv-x="488" d="M32 0l112 667h126l-94 -562h274l-18 -105h-400z" />
<glyph unicode="M" horiz-adv-x="797" d="M32 0l112 667h182l70 -448l203 448h195l-111 -667h-120l102 607l-284 -607h-65l-90 602l-101 -602h-93z" />
<glyph unicode="N" horiz-adv-x="649" d="M32 0l112 667h123l207 -458l77 458h95l-111 -667h-96l-227 501l-84 -501h-96z" />
<glyph unicode="O" horiz-adv-x="647" d="M51 284q0 129 59 236q91 166 257 166q119 0 188.5 -81t69.5 -221q0 -148 -76 -264q-43 -67 -105.5 -102.5t-137.5 -35.5q-112 0 -183.5 85t-71.5 217zM209 132q15 -22 43 -36t58 -14q95 0 140 102q48 108 48 231q0 83 -35.5 127t-102.5 44q-79 0 -127 -88 q-24 -45 -40 -111.5t-16 -123.5q0 -86 32 -131z" />
<glyph unicode="P" horiz-adv-x="597" d="M32 0l112 667h178q102 0 135.5 -4.5t67.5 -23.5q40 -23 63.5 -66.5t23.5 -94.5q0 -50 -22 -95.5t-59 -73.5q-30 -23 -67.5 -32.5t-101.5 -9.5h-161l-44 -267h-125zM218 365h118q57 0 77 4.5t38 20.5q35 32 35 84q0 46 -26 70q-17 17 -37.5 21.5t-77.5 4.5h-93z" />
<glyph unicode="Q" horiz-adv-x="641" d="M50 281q0 75 23 149.5t64 131.5q88 122 228 122q118 0 185 -79.5t67 -220.5q0 -132 -56.5 -233t-152.5 -141q2 -28 20.5 -39.5t62.5 -11.5q30 0 55 6l-11 -101q-31 -5 -70 -5q-125 0 -144 73q-5 16 -5 54q-22 -2 -23 -2q-111 0 -177 80.5t-66 216.5zM177 255 q0 -82 32.5 -126.5t92.5 -44.5q84 0 132 83q58 99 58 233q0 187 -131 187q-96 0 -149 -137q-35 -89 -35 -195z" />
<glyph unicode="R" horiz-adv-x="639" d="M32 0l112 667h250q69 0 107 -10.5t67 -37.5q59 -54 59 -136q0 -46 -20 -88.5t-54 -68.5q-34 -27 -84 -38l82 -288h-127l-71 274h-156l-46 -274h-119zM213 371h166q65 0 92 26q32 30 32 79q0 43 -29 69q-28 25 -96 25h-131z" />
<glyph unicode="S" horiz-adv-x="553" d="M74 38q-29 21 -47.5 46.5t-34.5 67.5l109 39q42 -105 159 -105q60 0 97.5 28.5t37.5 74.5q0 38 -35 60q-21 13 -131 44q-162 47 -162 182q0 93 67 150.5t176 57.5q171 0 234 -143l-109 -40q-35 83 -128 83q-52 0 -84.5 -25.5t-32.5 -65.5q0 -29 21.5 -48t68.5 -33 q100 -29 126.5 -39.5t54.5 -33.5q57 -46 57 -128q0 -46 -21.5 -92t-56.5 -75q-68 -57 -189 -57q-106 0 -177 52z" />
<glyph unicode="T" horiz-adv-x="461" d="M128 0l94 562h-169l18 105h461l-18 -105h-169l-94 -562h-123z" />
<glyph unicode="U" horiz-adv-x="605" d="M63 183q0 47 9 98l65 386h123l-66 -392q-11 -65 -11 -86q0 -47 31 -74t84 -27q55 0 91 29q22 19 34 50t23 98l67 402h95l-72 -431q-13 -82 -32 -123t-58 -73q-66 -55 -164 -55q-100 0 -159.5 53.5t-59.5 144.5z" />
<glyph unicode="V" horiz-adv-x="543" d="M176 0l-112 667h126l84 -527l231 527h106l-302 -667h-133z" />
<glyph unicode="W" horiz-adv-x="870" d="M150 -5l-78 672h129l44 -504l205 504h119l53 -504l202 504h106l-280 -672h-120l-58 502l-206 -502h-116z" />
<glyph unicode="X" horiz-adv-x="552" d="M-41 0l268 347l-139 320h132l93 -223l167 223h119l-241 -311l153 -356h-131l-107 255l-192 -255h-122z" />
<glyph unicode="Y" horiz-adv-x="518" d="M164 0l47 281l-170 386h137l118 -288l190 288h115l-266 -392l-46 -275h-125z" />
<glyph unicode="Z" horiz-adv-x="526" d="M-21 0l16 98l402 464h-314l18 105h467l-13 -84l-416 -478h347l-18 -105h-489z" />
<glyph unicode="[" horiz-adv-x="293" d="M88 -118h106l-9 -55h-188l141 840h188l-10 -55h-106z" />
<glyph unicode="\" horiz-adv-x="435" d="M339 -173l-239 840h68l237 -840h-66z" />
<glyph unicode="]" horiz-adv-x="293" d="M-24 -118h107l122 730h-107l10 55h188l-141 -840h-188z" />
<glyph unicode="^" horiz-adv-x="500" d="M25 343l165 327h149l165 -327h-119l-121 237l-120 -237h-119z" />
<glyph unicode="_" horiz-adv-x="500" d="M0 -52h500v-102h-500v102z" />
<glyph unicode="`" horiz-adv-x="500" d="M358 567l-182 96l38 63l168 -107z" />
<glyph unicode="a" horiz-adv-x="535" d="M16 130q0 88 78.5 135.5t224.5 47.5q10 0 52 -2q4 24 4 36q0 37 -26 58.5t-70 21.5q-41 0 -67.5 -15.5t-47.5 -52.5l-98 31q30 58 86 89t131 31q92 0 146.5 -42t54.5 -112q0 -29 -23 -157q-25 -134 -25 -171q0 -14 1 -28h-108v21q0 32 8 86q-55 -120 -170 -120 q-66 0 -108.5 40.5t-42.5 102.5zM135 142q0 -31 20.5 -49.5t54.5 -18.5q71 0 120 82q15 26 32 98q-27 0 -90 -9q-72 -11 -104.5 -35.5t-32.5 -67.5z" />
<glyph unicode="b" horiz-adv-x="530" d="M25 0l112 667h109l-43 -255q36 56 71 80.5t80 24.5q67 0 107 -55t40 -147q0 -111 -56 -210q-62 -114 -177 -114q-103 0 -146 94l-47 -85h-50zM170 187q0 -44 26 -73.5t66 -29.5q48 0 79 47q49 73 49 181q0 113 -78 113q-69 0 -111 -94q-31 -65 -31 -144z" />
<glyph unicode="c" horiz-adv-x="478" d="M35 214q0 125 69.5 211.5t169.5 86.5q79 0 129 -45t65 -129l-93 -18q-20 98 -97 98q-67 0 -105 -87q-25 -58 -25 -130q0 -56 24.5 -87.5t68.5 -31.5q71 0 111 99l92 -34q-37 -82 -88 -120t-123 -38q-92 0 -145 60.5t-53 164.5z" />
<glyph unicode="d" horiz-adv-x="535" d="M181 -11q-69 0 -109 55t-40 149q0 136 63.5 228.5t156.5 92.5q103 0 135 -99l42 252h110l-112 -667h-107l18 103q-62 -114 -157 -114zM144 184q0 -106 81 -106q53 0 86 47q53 74 53 181q0 52 -25.5 84t-66.5 32q-77 0 -110 -113q-18 -64 -18 -125z" />
<glyph unicode="e" horiz-adv-x="521" d="M34 207q0 131 71.5 217t180.5 86q97 0 149.5 -61.5t52.5 -174.5q0 -23 -2 -39h-341q-4 -23 -4 -37q0 -57 28 -90.5t77 -33.5q74 0 117 92l97 -26q-69 -152 -217 -152q-97 0 -153 59t-56 160zM156 306h228q-2 127 -97 127q-102 0 -131 -127z" />
<glyph unicode="f" horiz-adv-x="315" d="M40 0l68 406h-68l15 91h68q18 81 42 115q52 78 163 78q39 0 69 -6l-10 -92q-22 6 -50 6q-50 0 -73.5 -23t-29.5 -78h107l-16 -91h-108l-68 -406h-109z" />
<glyph unicode="g" horiz-adv-x="507" d="M-14 -60q0 36 16 58t62 49q-23 18 -32 34.5t-9 41.5q0 41 21 67t76 54q-56 43 -56 103q0 76 59 119t163 43q34 0 61 -7q24 69 56 96t90 27q18 0 33 -2v-85q-24 2 -37 2q-51 0 -72 -21q-7 -6 -21 -35q77 -38 77 -119q0 -74 -57 -117.5t-155 -43.5q-38 0 -96 15 q-44 -26 -44 -61q0 -25 18 -35t61 -10h60q103 0 147 -24q29 -16 47 -44t18 -59q0 -37 -22.5 -72.5t-59.5 -55.5q-65 -35 -190 -35q-122 0 -172 38q-42 32 -42 79zM261 269q48 0 74.5 25.5t26.5 71.5q0 35 -21 54t-60 19q-46 0 -74 -25.5t-28 -68.5q0 -76 82 -76zM82 -30 q0 -35 38 -55t106 -20q58 0 88 11q52 18 52 65q0 28 -26 36q-17 6 -105 6q-86 0 -121 9l-6 -6q-26 -22 -26 -46z" />
<glyph unicode="h" horiz-adv-x="538" d="M25 0l112 667h109l-43 -256q34 54 69.5 77.5t82.5 23.5q62 0 98.5 -35.5t36.5 -96.5q0 -20 -11 -86l-49 -294h-110l49 294q9 53 9 64q0 31 -17 48t-46 17q-57 0 -96 -53q-30 -42 -44 -125l-41 -245h-109z" />
<glyph unicode="i" horiz-adv-x="248" d="M118 554l20 119h114l-20 -119h-114zM25 0l83 497h115l-83 -497h-115z" />
<glyph unicode="j" horiz-adv-x="248" d="M119 556l19 117h115l-20 -117h-114zM30 26l79 471h114l-75 -453q-14 -85 -29.5 -124.5t-44.5 -64.5q-51 -42 -136 -42q-36 0 -71 6l6 93q35 -6 55 -6q52 0 74 28q15 19 28 92z" />
<glyph unicode="k" horiz-adv-x="542" d="M25 0l112 667h109l-67 -402l250 232h117l-169 -157l117 -340h-118l-87 265l-131 -121l-24 -144h-109z" />
<glyph unicode="l" horiz-adv-x="248" d="M25 0l112 667h114l-111 -667h-115z" />
<glyph unicode="m" horiz-adv-x="853" d="M25 0l83 497h109l-18 -111q25 61 67 94t94 33q110 0 129 -118q42 64 82 90.5t95 26.5q61 0 99 -37.5t38 -97.5q0 -21 -12 -95l-47 -282h-114l50 301q6 36 6 52q0 65 -69 65q-111 0 -144 -200l-37 -218h-109l48 289q9 55 9 70q0 29 -16.5 45t-45.5 16q-64 0 -106 -72 q-29 -50 -51 -176l-29 -172h-111z" />
<glyph unicode="n" horiz-adv-x="537" d="M25 0l83 497h101l-19 -116q30 53 42.5 69.5t30.5 29.5q39 30 90 30q59 0 96.5 -39t37.5 -100q0 -22 -10 -83l-48 -288h-110l51 298q6 33 6 58q0 30 -16.5 47.5t-45.5 17.5q-52 0 -89 -51.5t-53 -145.5l-38 -224h-109z" />
<glyph unicode="o" horiz-adv-x="525" d="M90 49q-55 61 -55 167q0 125 72 208.5t180 83.5q92 0 148 -61.5t56 -163.5q0 -104 -54 -187q-71 -109 -190 -109q-46 0 -88.5 16.5t-68.5 45.5zM148 197q0 -56 27 -88t74 -32q81 0 112 109q16 53 16 109q0 60 -25.5 92t-73.5 32q-75 0 -107 -90q-23 -62 -23 -132z" />
<glyph unicode="p" horiz-adv-x="528" d="M149 88l-44 -261h-109l112 670h98l-17 -103q60 120 155 120q71 0 113.5 -57.5t42.5 -152.5q0 -134 -68 -234q-58 -84 -144 -84q-102 0 -139 102zM170 199q0 -57 26.5 -90.5t70.5 -33.5q49 0 79 55q40 75 40 167q0 128 -78 128q-58 0 -97 -68q-41 -72 -41 -158z" />
<glyph unicode="q" horiz-adv-x="530" d="M183 -14q-71 0 -111 53.5t-40 150.5q0 134 67 227t163 93q47 0 81.5 -21t65.5 -68l43 76h56l-2 -9l-6 -24q0 -2 -5 -28.5l-7 -37.5l-95 -571h-110l44 259q-58 -100 -144 -100zM143 181q0 -51 20 -78.5t57 -27.5q42 0 73 35q29 32 47.5 89.5t18.5 113.5q0 50 -23 77.5 t-65 27.5q-52 0 -81 -48q-47 -75 -47 -189z" />
<glyph unicode="r" horiz-adv-x="347" d="M25 0l83 497h101l-23 -135q36 82 78.5 116t106.5 32l-14 -122q-14 1 -25 1q-37 0 -71 -19t-54 -50q-25 -37 -41 -130l-32 -190h-109z" />
<glyph unicode="s" horiz-adv-x="458" d="M-18 120l105 26q13 -35 38 -51q34 -23 79 -23q43 0 69.5 18t26.5 47q0 20 -16.5 32.5t-59.5 24.5q-88 25 -117 45q-59 40 -59 111t53 116t136 45q142 0 205 -117l-94 -31q-35 65 -108 65q-36 0 -58.5 -16t-22.5 -41q0 -20 13 -32t45 -22q74 -22 107 -36t53 -34 q40 -40 40 -93q0 -76 -57.5 -120.5t-156.5 -44.5q-170 0 -221 131z" />
<glyph unicode="t" horiz-adv-x="321" d="M55 99q0 27 11 89l38 220h-74l15 89h75l29 134l100 7l-23 -141h107l-15 -89h-107l-37 -222q-7 -40 -7 -55q0 -45 70 -45q7 0 36 3l-15 -90q-55 -7 -71 -7q-62 0 -97 28.5t-35 78.5z" />
<glyph unicode="u" horiz-adv-x="529" d="M48 113q0 22 13 97l48 287h109l-52 -308q-7 -39 -7 -55q0 -22 15.5 -36t39.5 -14q30 0 60 20.5t50 55.5q20 34 35 127l36 210h109l-83 -497h-102l19 108q-64 -117 -169 -117q-53 0 -87 34.5t-34 87.5z" />
<glyph unicode="v" horiz-adv-x="447" d="M144 0l-106 497h120l66 -348l161 348h97l-237 -497h-101z" />
<glyph unicode="w" horiz-adv-x="699" d="M119 0l-74 497h113l45 -344l143 344h99l36 -343l153 343h97l-227 -497h-103l-38 354l-143 -354h-101z" />
<glyph unicode="x" horiz-adv-x="457" d="M-47 0l216 263l-116 234h126l69 -153l120 153h107l-184 -224l133 -273h-124l-89 191l-150 -191h-108z" />
<glyph unicode="y" horiz-adv-x="455" d="M-23 -81q29 -4 64 -4q39 0 60 14.5t40 53.5l19 39l-122 475h117l76 -342l164 342h95l-255 -514q-33 -67 -44.5 -85.5t-30.5 -35.5q-48 -42 -129 -42q-26 0 -59 4z" />
<glyph unicode="z" horiz-adv-x="421" d="M-17 0l13 89l279 322h-211l15 86h352l-13 -77l-284 -331h237l-15 -89h-373z" />
<glyph unicode="{" horiz-adv-x="293" d="M30 -31l27 167q4 30 4 32q0 44 -45 56l9 52q32 8 47.5 26t22.5 56l29 174q12 72 51.5 103.5t118.5 31.5q7 0 39 -1l-9 -55q-60 0 -81 -15t-29 -64l-29 -170q-8 -50 -25 -74t-55 -41q25 -16 35 -33t10 -44q0 -10 -4 -40l-27 -166q-5 -30 -5 -39q0 -31 34 -38q17 -4 54 -4 l-9 -55q-36 -1 -45 -1q-63 0 -93 23.5t-30 72.5q0 11 5 46z" />
<glyph unicode="|" horiz-adv-x="500" d="M208 -167v834h113v-834h-113z" />
<glyph unicode="}" horiz-adv-x="293" d="M79 -38l29 170q8 49 25 73t55 42q-25 16 -35 33t-10 44q0 19 4 40l27 166q5 30 5 39q0 31 -34 38q-17 4 -54 4l9 55q36 1 45 1q63 0 93 -23.5t30 -72.5q0 -13 -5 -46l-27 -167q-4 -30 -4 -32q0 -44 45 -56l-9 -52q-32 -8 -47.5 -26t-22.5 -56l-29 -174 q-12 -72 -51.5 -103.5t-118.5 -31.5q-7 0 -39 1l9 55q60 0 81 15.5t29 63.5z" />
<glyph unicode="~" d="M128 241l-63 41q30 72 63.5 102t83.5 30q35 0 106 -28q68 -26 90 -26q25 0 41 12t36 44l65 -38q-35 -73 -68 -97q-39 -30 -88 -30q-28 0 -144 44q-27 10 -46 10q-24 0 -40.5 -14t-35.5 -50z" />
<glyph unicode="&#xa1;" horiz-adv-x="247" d="M84 370l20 123h120l-20 -123h-120zM4 -173l108 481h50l-16 -481h-142z" />
<glyph unicode="&#xa2;" d="M221 -51l27 165q-131 35 -131 191q0 155 108 229q41 27 99 31l21 126h55l-21 -131q51 -9 88 -48t47 -96l-86 -17q-7 73 -62 84l-51 -301q63 -2 102 84l67 -32q-57 -125 -181 -127l-27 -158h-55zM264 192l49 293q-41 -8 -66 -49q-32 -52 -32 -139q0 -78 49 -105z" />
<glyph unicode="&#xa3;" d="M-44 0l19 112q70 2 103 17t58 57q14 25 17.5 46t5.5 83h-80l15 87h68q-1 10 -1 23q0 116 57 184q69 84 183 84q125 0 170 -123l-101 -44q-20 75 -82 75q-29 0 -53.5 -17.5t-36.5 -45.5q-14 -33 -14 -116q0 -11 1 -20h126l-14 -87h-118q-9 -145 -106 -204h131 q79 0 118 21.5t58 74.5l96 -54q-36 -79 -100.5 -116t-166.5 -37h-353z" />
<glyph unicode="&#xa4;" horiz-adv-x="733" d="M85 134l101 100q-46 65 -46 139q0 70 46 138l-102 102l62 62l101 -102q69 47 142 47q71 0 139 -45l100 99l62 -62l-100 -99q47 -71 47 -141t-45 -137l100 -101l-61 -62l-101 100q-66 -47 -141 -47q-71 0 -142 47l-100 -100zM244 372q0 -60 42.5 -103t102.5 -43t102.5 43 t42.5 103t-42.5 103.5t-100.5 43.5q-61 0 -104 -42.5t-43 -104.5z" />
<glyph unicode="&#xa5;" d="M208 0l35 205h-189l10 60h189l2 16l-33 82h-141l10 60h106l-99 244h124l113 -289l186 289h104l-159 -244h119l-10 -60h-148l-59 -88l-1 -10h191l-10 -60h-191l-35 -205h-114z" />
<glyph unicode="&#xa6;" horiz-adv-x="500" d="M208 324v343h113v-343h-113zM208 153h113v-320h-113v320z" />
<glyph unicode="&#xa7;" d="M8 -34l111 19q33 -82 137 -82q46 0 75.5 22t29.5 56q0 28 -21.5 47.5t-75.5 41.5q-75 29 -99 41.5t-40 29.5q-36 36 -36 95q0 98 107 164q-45 32 -45 96q0 76 61 127t153 51q89 0 151 -51q26 -22 51 -68l-92 -28q-37 70 -117 70q-42 0 -71.5 -20t-29.5 -49 q0 -22 15.5 -35.5t64.5 -32.5q114 -46 142 -73q42 -37 42 -100q0 -92 -92 -160q51 -35 51 -109q0 -87 -64.5 -142.5t-166.5 -55.5q-90 0 -148.5 35t-92.5 111zM192 282q0 -28 22.5 -47.5t84.5 -45.5q29 -11 63 -28q58 45 58 87q0 30 -26 50q-20 17 -93 46q-27 10 -46 21 l-6 -4q-34 -23 -45.5 -39.5t-11.5 -39.5z" />
<glyph unicode="&#xa8;" horiz-adv-x="500" d="M395 580q-23 0 -38.5 15.5t-15.5 38.5t15.5 39t38.5 16q24 0 39.5 -16t15.5 -40q0 -22 -16 -37.5t-39 -15.5zM232 580q-23 0 -38.5 15.5t-15.5 38.5t15.5 39t38.5 16q24 0 39.5 -16t15.5 -40q0 -22 -16 -37.5t-39 -15.5z" />
<glyph unicode="&#xa9;" horiz-adv-x="773" d="M55 333q0 146 102 247t249 101q140 0 240.5 -103t100.5 -245q0 -143 -101.5 -245t-243.5 -102q-143 0 -245 102t-102 245zM117 333q0 -120 83.5 -205.5t201.5 -85.5q117 0 200 85.5t83 205.5q0 119 -82.5 205.5t-196.5 86.5q-121 0 -205 -85t-84 -207zM225 302 q0 103 56.5 172.5t140.5 69.5q68 0 108.5 -37.5t46.5 -106.5l-77 -13q-6 48 -25 69.5t-55 21.5q-41 0 -65 -37q-17 -26 -28.5 -71t-11.5 -84q0 -44 20 -69.5t54 -25.5q59 0 93 83l70 -28q-52 -123 -169 -123q-72 0 -115 48.5t-43 130.5z" />
<glyph unicode="&#xaa;" horiz-adv-x="352" d="M162 368q-43 0 -71 25t-28 63q0 53 50 82.5t140 29.5q17 0 30 -1q2 14 2 16q0 21 -15 33t-41 12q-24 0 -39 -9t-28 -32l-70 21q40 76 141 76q58 0 94 -26t36 -68q0 -18 -14 -93q-15 -76 -15 -100q0 -7 2 -21h-78q-1 8 -1 11q0 9 1 18l1 13q-35 -50 -97 -50zM189 426 q32 0 57 30q22 26 29 65l1 5q-74 -6 -101.5 -19.5t-27.5 -43.5q0 -17 11.5 -27t30.5 -10z" />
<glyph unicode="&#xab;" horiz-adv-x="329" d="M219 109l-60 143l99 137h52l-76 -140l29 -140h-44zM97 109l-60 141l99 139h51l-75 -142l28 -138h-43z" />
<glyph unicode="&#xac;" d="M91 165v102h433v-267h-113v165h-320z" />
<glyph unicode="&#xad;" horiz-adv-x="241" d="M-7 202l15 89h239l-15 -89h-239z" />
<glyph unicode="&#xae;" horiz-adv-x="773" d="M55 333q0 146 102 247t249 101q140 0 240.5 -103t100.5 -245q0 -143 -101.5 -245t-243.5 -102q-143 0 -245 102t-102 245zM117 333q0 -120 83.5 -205.5t201.5 -85.5q117 0 200 85.5t83 205.5q0 119 -82.5 205.5t-196.5 86.5q-121 0 -205 -85t-84 -207zM238 133l67 400 h144q68 0 99 -28q34 -32 34 -82q0 -43 -23.5 -75t-63.5 -43h-1l44 -172h-81l-38 162h-78l-27 -162h-76zM351 359h88q32 0 44 11q20 17 20 48q0 51 -65 51h-68z" />
<glyph unicode="&#xaf;" horiz-adv-x="500" d="M164 597l11 63h286l-11 -63h-286z" />
<glyph unicode="&#xb0;" d="M344 414q-56 0 -95 39.5t-39 95.5q0 53 39.5 92t93.5 39q56 0 95 -39t39 -94t-39 -94t-94 -39zM344 481q27 0 46.5 19.5t19.5 46.5t-19.5 46.5t-47.5 19.5q-27 0 -46.5 -19.5t-19.5 -45.5q0 -28 19.5 -47.5t47.5 -19.5z" />
<glyph unicode="&#xb1;" d="M242 83v207h-201v93h201v208h93v-208h200v-93h-200v-207h-93zM41 -43v93h494v-93h-494z" />
<glyph unicode="&#xb2;" horiz-adv-x="387" d="M35 267l10 77q99 51 185 109q76 53 76 101q0 25 -18.5 42t-46.5 17q-34 0 -57.5 -22t-33.5 -62l-73 29q47 123 167 123q63 0 105 -36.5t42 -89.5q0 -42 -22 -74.5t-73 -63.5q-69 -43 -157 -80h231l-12 -70h-323z" />
<glyph unicode="&#xb3;" horiz-adv-x="387" d="M205 258q-129 0 -163 113l75 17q6 -31 30.5 -49t59.5 -18q36 0 59 18t23 46q0 35 -28 48q-14 8 -61 8h-33l10 62h22q108 0 108 59q0 22 -19 36t-48 14q-63 0 -91 -58l-71 30q59 92 165 92q64 0 105.5 -30.5t41.5 -77.5q0 -67 -84 -94q30 -10 48 -34.5t18 -56.5 q0 -55 -47 -90t-120 -35z" />
<glyph unicode="&#xb4;" horiz-adv-x="500" d="M246 567l-21 52l192 107l32 -67z" />
<glyph unicode="&#xb5;" d="M16 -173l112 670h109l-44 -268q-8 -54 -8 -66q0 -38 21.5 -62.5t55.5 -24.5q58 0 91 49q21 30 34 104l45 268h109l-83 -497h-92l13 77q-31 -50 -59 -70t-68 -20q-35 0 -54.5 17t-32.5 58l-40 -235h-109z" />
<glyph unicode="&#xb6;" d="M239 -163l84 506h-37q-66 0 -97 5t-53 20q-50 32 -50 106q0 93 65 147q33 27 72 36.5t120 9.5h269l-9 -56h-67l-129 -774h-56l129 774h-55l-129 -774h-57zM216 412q23 -13 77 -13h40l35 212h-29q-58 0 -84 -6.5t-41 -24.5q-32 -35 -32 -91q0 -57 34 -77z" />
<glyph unicode="&#xb7;" horiz-adv-x="137" d="M0 185l21 123h116l-20 -123h-117z" />
<glyph unicode="&#xb8;" horiz-adv-x="500" d="M171 -84l40 84h40l-20 -45h5q33 0 56.5 -19t23.5 -47q0 -34 -31.5 -60t-73.5 -26q-29 0 -91 29l22 39q39 -23 69 -23q18 0 29.5 9t11.5 24q0 35 -77 35h-4z" />
<glyph unicode="&#xb9;" horiz-adv-x="387" d="M57 267l11 68h111l40 239q-55 -33 -116 -33q-8 0 -13 1l11 66q112 9 160 73h55l-58 -346h112l-11 -68h-302z" />
<glyph unicode="&#xba;" horiz-adv-x="345" d="M212 371q-64 0 -100.5 37t-36.5 102q0 75 46 124.5t115 49.5q59 0 95.5 -37.5t36.5 -97.5q0 -76 -44.5 -127t-111.5 -51zM214 430q32 0 52 34.5t20 90.5q0 70 -57 70q-34 0 -50 -31q-23 -41 -23 -95q0 -32 15.5 -50.5t42.5 -18.5z" />
<glyph unicode="&#xbb;" horiz-adv-x="329" d="M143 109l75 142l-28 138h42l61 -141l-99 -139h-51zM20 109l75 140l-28 140h44l60 -143l-99 -137h-52z" />
<glyph unicode="&#xbc;" horiz-adv-x="880" d="M38 267l11 68h111l40 239q-56 -33 -116 -33q-8 0 -13 1l11 66q112 9 160 73h55l-58 -346h112l-11 -68h-302zM157 0l522 667h73l-520 -667h-75zM516 89l11 67l226 257h83l-43 -258h66l-11 -66h-66l-15 -89h-80l15 89h-186zM594 149h125l29 172z" />
<glyph unicode="&#xbd;" horiz-adv-x="880" d="M37 267l11 68h111l40 239q-55 -33 -116 -33q-8 0 -13 1l11 66q112 9 160 73h55l-58 -346h112l-11 -68h-302zM156 0l522 667h73l-520 -667h-75zM502 0l10 77q103 53 186 109q76 53 76 101q0 25 -18.5 42t-47.5 17q-34 0 -57.5 -22t-33.5 -62l-73 29q49 123 168 123 q63 0 105 -36.5t42 -89.5q0 -42 -22 -74.5t-73 -63.5q-67 -41 -158 -80h231l-12 -70h-323z" />
<glyph unicode="&#xbe;" horiz-adv-x="880" d="M186 258q-129 0 -163 113l75 17q6 -31 30.5 -49t59.5 -18q36 0 59 18t23 46q0 35 -28 48q-14 8 -61 8h-33l10 62h22q108 0 108 59q0 22 -19 36t-48 14q-63 0 -91 -58l-71 30q59 92 165 92q64 0 105.5 -30.5t41.5 -77.5q0 -67 -84 -94q30 -10 48 -34.5t18 -56.5 q0 -55 -47 -90t-120 -35zM157 0l521 667h74l-521 -667h-74zM515 89l12 67l226 257h83l-43 -258h66l-12 -66h-66l-14 -89h-80l14 89h-186zM594 149h124l29 172z" />
<glyph unicode="&#xbf;" horiz-adv-x="484" d="M206 369l21 124h120l-21 -124h-120zM-10 -5q0 64 37 114q29 41 103 79q49 24 63 44.5t21 74.5h92q-2 -15 -3 -17q-10 -74 -28.5 -103t-81.5 -70q-85 -56 -85 -118q0 -38 26 -63t66 -25q45 0 78 32t48 90l99 -39q-32 -86 -93 -134t-140 -48q-88 0 -145 52t-57 131z" />
<glyph unicode="&#xc0;" horiz-adv-x="603" d="M197 803l32 69l192 -93l-20 -52zM-28 0l320 667h147l122 -667h-133l-28 161h-241l-74 -161h-113zM200 254h189l-52 296z" />
<glyph unicode="&#xc1;" horiz-adv-x="603" d="M344 727l-17 52l215 93l29 -69zM-28 0l320 667h147l122 -667h-133l-28 161h-241l-74 -161h-113zM200 254h189l-52 296z" />
<glyph unicode="&#xc2;" horiz-adv-x="603" d="M199 740l202 127l145 -127l-94 -10l-62 54l-100 -54zM-28 0l320 667h147l122 -667h-133l-28 161h-241l-74 -161h-113zM200 254h189l-52 296z" />
<glyph unicode="&#xc3;" horiz-adv-x="603" d="M253 742l-29 48q58 59 114 59q26 0 64 -19q41 -21 65 -21q18 0 31 8t33 30l32 -47q-54 -60 -114 -60q-28 0 -70 21q-40 20 -56 20q-23 0 -70 -39zM-28 0l320 667h147l122 -667h-133l-28 161h-241l-74 -161h-113zM200 254h189l-52 296z" />
<glyph unicode="&#xc4;" horiz-adv-x="603" d="M471 738q-23 0 -38.5 15.5t-15.5 38.5t15.5 39t38.5 16q24 0 39.5 -16t15.5 -40q0 -22 -16 -37.5t-39 -15.5zM301 738q-23 0 -38.5 15.5t-15.5 38.5t15.5 39t38.5 16q24 0 39.5 -16t15.5 -40q0 -22 -16 -37.5t-39 -15.5zM-28 0l320 667h147l122 -667h-133l-28 161h-241 l-74 -161h-113zM200 254h189l-52 296z" />
<glyph unicode="&#xc5;" horiz-adv-x="603" d="M371 710q-37 0 -63.5 26t-26.5 64t26.5 64.5t64.5 26.5t64 -26.5t26 -64.5t-26.5 -64t-64.5 -26zM371 761q18 0 29 11t11 28t-10.5 28.5t-26.5 11.5q-19 0 -30.5 -11t-11.5 -28q0 -18 11 -29t28 -11zM-28 0l320 667h147l122 -667h-133l-28 161h-241l-74 -161h-113z M200 254h189l-52 296z" />
<glyph unicode="&#xc6;" horiz-adv-x="838" d="M54 0h-112l437 667h488l-18 -105h-311l-29 -173h259l-16 -98h-259l-31 -186h323l-18 -105h-442l29 171h-191zM222 262h147l51 306z" />
<glyph unicode="&#xc7;" horiz-adv-x="591" d="M123 56q-73 85 -73 220q0 173 89.5 290.5t222.5 117.5q106 0 169 -61t72 -172l-109 -20q-6 54 -23 89q-15 30 -44.5 47t-66.5 17q-90 0 -138 -109q-18 -42 -31.5 -108.5t-13.5 -115.5q0 -77 34 -120.5t93 -43.5q48 0 90 36.5t67 99.5l98 -40q-84 -203 -273 -200l-16 -32 q4 1 9 1q43 0 67.5 -17.5t24.5 -48.5q0 -40 -33.5 -68t-81.5 -28q-45 0 -106 29l23 40q55 -25 78 -25q22 0 36.5 12t14.5 29q0 38 -67 38q-16 0 -28 -1l36 75q-77 20 -120 69z" />
<glyph unicode="&#xc8;" horiz-adv-x="537" d="M210 803l32 69l192 -93l-20 -52zM32 0l112 667h421l-18 -105h-302l-29 -173h250l-16 -99h-250l-31 -185h314l-18 -105h-433z" />
<glyph unicode="&#xc9;" horiz-adv-x="537" d="M334 727l-17 52l215 93l29 -69zM32 0l112 667h421l-18 -105h-302l-29 -173h250l-16 -99h-250l-31 -185h314l-18 -105h-433z" />
<glyph unicode="&#xca;" horiz-adv-x="537" d="M200 740l202 127l145 -127l-94 -10l-62 54l-100 -54zM32 0l112 667h421l-18 -105h-302l-29 -173h250l-16 -99h-250l-31 -185h314l-18 -105h-433z" />
<glyph unicode="&#xcb;" horiz-adv-x="537" d="M464 738q-23 0 -38.5 15.5t-15.5 38.5t15.5 39t38.5 16q24 0 39.5 -16t15.5 -40q0 -22 -16 -37.5t-39 -15.5zM294 738q-23 0 -38.5 15.5t-15.5 38.5t15.5 39t38.5 16q24 0 39.5 -16t15.5 -40q0 -22 -16 -37.5t-39 -15.5zM32 0l112 667h421l-18 -105h-302l-29 -173h250 l-16 -99h-250l-31 -185h314l-18 -105h-433z" />
<glyph unicode="&#xcc;" horiz-adv-x="270" d="M241 727l-184 76l33 69l171 -93zM32 0l111 667h124l-112 -667h-123z" />
<glyph unicode="&#xcd;" horiz-adv-x="270" d="M191 727l-17 52l196 93l28 -69zM32 0l112 667h123l-112 -667h-123z" />
<glyph unicode="&#xce;" horiz-adv-x="270" d="M52 740l185 127l129 -127l-91 -10l-48 54l-87 -54zM32 0l111 667h124l-112 -667h-123z" />
<glyph unicode="&#xcf;" horiz-adv-x="270" d="M293 740q-22 0 -37 15t-15 37t15 37.5t37 15.5q23 0 38 -15.5t15 -38.5q0 -22 -15 -36.5t-38 -14.5zM153 740q-22 0 -37 15t-15 37t15 37.5t37 15.5q23 0 38 -15.5t15 -38.5q0 -22 -15 -36.5t-38 -14.5zM32 0l112 667h123l-112 -667h-123z" />
<glyph unicode="&#xd0;" horiz-adv-x="640" d="M33 0l49 294h-67l16 93h66l47 280h195q71 0 112.5 -13t77.5 -47q87 -81 87 -236q0 -85 -30 -162t-85 -132q-46 -48 -113 -67q-37 -10 -125 -10h-230zM171 101h106q55 0 89 14t59 48q65 86 65 220q0 110 -55 154q-36 31 -113 31h-72l-31 -181h157l-16 -93h-156z" />
<glyph unicode="&#xd1;" horiz-adv-x="649" d="M296 742l-29 48q58 59 114 59q26 0 64 -19q41 -21 65 -21q18 0 31 8t33 30l32 -47q-54 -60 -114 -60q-28 0 -70 21q-40 20 -56 20q-23 0 -70 -39zM32 0l112 667h123l207 -458l77 458h95l-111 -667h-96l-227 501l-84 -501h-96z" />
<glyph unicode="&#xd2;" horiz-adv-x="647" d="M253 803l32 69l192 -93l-20 -52zM51 284q0 129 59 236q91 166 257 166q119 0 188.5 -81t69.5 -221q0 -148 -76 -264q-43 -67 -105.5 -102.5t-137.5 -35.5q-112 0 -183.5 85t-71.5 217zM209 132q15 -22 43 -36t58 -14q95 0 140 102q48 108 48 231q0 83 -35.5 127 t-102.5 44q-79 0 -127 -88q-24 -45 -40 -111.5t-16 -123.5q0 -86 32 -131z" />
<glyph unicode="&#xd3;" horiz-adv-x="647" d="M370 727l-17 52l215 93l29 -69zM51 284q0 129 59 236q91 166 257 166q119 0 188.5 -81t69.5 -221q0 -148 -76 -264q-43 -67 -105.5 -102.5t-137.5 -35.5q-112 0 -183.5 85t-71.5 217zM209 132q15 -22 43 -36t58 -14q95 0 140 102q48 108 48 231q0 83 -35.5 127t-102.5 44 q-79 0 -127 -88q-24 -45 -40 -111.5t-16 -123.5q0 -86 32 -131z" />
<glyph unicode="&#xd4;" horiz-adv-x="647" d="M221 740l202 127l145 -127l-94 -10l-62 54l-100 -54zM51 284q0 129 59 236q91 166 257 166q119 0 188.5 -81t69.5 -221q0 -148 -76 -264q-43 -67 -105.5 -102.5t-137.5 -35.5q-112 0 -183.5 85t-71.5 217zM209 132q15 -22 43 -36t58 -14q95 0 140 102q48 108 48 231 q0 83 -35.5 127t-102.5 44q-79 0 -127 -88q-24 -45 -40 -111.5t-16 -123.5q0 -86 32 -131z" />
<glyph unicode="&#xd5;" horiz-adv-x="647" d="M288 742l-29 48q58 59 114 59q26 0 64 -19q41 -21 65 -21q18 0 31 8t33 30l32 -47q-54 -60 -114 -60q-28 0 -70 21q-40 20 -56 20q-23 0 -70 -39zM51 284q0 129 59 236q91 166 257 166q119 0 188.5 -81t69.5 -221q0 -148 -76 -264q-43 -67 -105.5 -102.5t-137.5 -35.5 q-112 0 -183.5 85t-71.5 217zM209 132q15 -22 43 -36t58 -14q95 0 140 102q48 108 48 231q0 83 -35.5 127t-102.5 44q-79 0 -127 -88q-24 -45 -40 -111.5t-16 -123.5q0 -86 32 -131z" />
<glyph unicode="&#xd6;" horiz-adv-x="647" d="M503 738q-23 0 -38.5 15.5t-15.5 38.5t15.5 39t38.5 16q24 0 39.5 -16t15.5 -40q0 -22 -16 -37.5t-39 -15.5zM333 738q-23 0 -38.5 15.5t-15.5 38.5t15.5 39t38.5 16q24 0 39.5 -16t15.5 -40q0 -22 -16 -37.5t-39 -15.5zM51 284q0 129 59 236q91 166 257 166 q119 0 188.5 -81t69.5 -221q0 -148 -76 -264q-43 -67 -105.5 -102.5t-137.5 -35.5q-112 0 -183.5 85t-71.5 217zM209 132q15 -22 43 -36t58 -14q95 0 140 102q48 108 48 231q0 83 -35.5 127t-102.5 44q-79 0 -127 -88q-24 -45 -40 -111.5t-16 -123.5q0 -86 32 -131z" />
<glyph unicode="&#xd7;" d="M162 124l-66 66l147 147l-147 147l66 66l147 -147l147 147l66 -66l-147 -147l146 -147l-65 -66l-147 147z" />
<glyph unicode="&#xd8;" horiz-adv-x="647" d="M-11 -15l103 123q-41 77 -41 175q0 121 56 228q91 174 258 174q103 0 170 -59l49 53h97l-97 -113q41 -80 41 -180q0 -71 -20.5 -142.5t-55.5 -124.5q-92 -137 -242 -137q-50 0 -84.5 13.5t-80.5 50.5l-57 -61h-96zM181 204l278 342q-37 40 -100 40q-92 0 -139 -115 q-19 -45 -31 -108.5t-12 -113.5q0 -16 4 -45zM214 126q38 -44 98 -44q50 0 89.5 33.5t61.5 97.5q34 94 34 202q0 23 -5 53z" />
<glyph unicode="&#xd9;" horiz-adv-x="605" d="M238 803l32 69l192 -93l-20 -52zM63 183q0 47 9 98l65 386h123l-66 -392q-11 -65 -11 -86q0 -47 31 -74t84 -27q55 0 91 29q22 19 34 50t23 98l67 402h95l-72 -431q-13 -82 -32 -123t-58 -73q-66 -55 -164 -55q-100 0 -159.5 53.5t-59.5 144.5z" />
<glyph unicode="&#xda;" horiz-adv-x="605" d="M378 727l-17 52l215 93l29 -69zM63 183q0 47 9 98l65 386h123l-66 -392q-11 -65 -11 -86q0 -47 31 -74t84 -27q55 0 91 29q22 19 34 50t23 98l67 402h95l-72 -431q-13 -82 -32 -123t-58 -73q-66 -55 -164 -55q-100 0 -159.5 53.5t-59.5 144.5z" />
<glyph unicode="&#xdb;" horiz-adv-x="605" d="M222 740l202 127l145 -127l-94 -10l-62 54l-100 -54zM63 183q0 47 9 98l65 386h123l-66 -392q-11 -65 -11 -86q0 -47 31 -74t84 -27q55 0 91 29q22 19 34 50t23 98l67 402h95l-72 -431q-13 -82 -32 -123t-58 -73q-66 -55 -164 -55q-100 0 -159.5 53.5t-59.5 144.5z" />
<glyph unicode="&#xdc;" horiz-adv-x="605" d="M490 738q-23 0 -38.5 15.5t-15.5 38.5t15.5 39t38.5 16q24 0 39.5 -16t15.5 -40q0 -22 -16 -37.5t-39 -15.5zM320 738q-23 0 -38.5 15.5t-15.5 38.5t15.5 39t38.5 16q24 0 39.5 -16t15.5 -40q0 -22 -16 -37.5t-39 -15.5zM63 183q0 47 9 98l65 386h123l-66 -392 q-11 -65 -11 -86q0 -47 31 -74t84 -27q55 0 91 29q22 19 34 50t23 98l67 402h95l-72 -431q-13 -82 -32 -123t-58 -73q-66 -55 -164 -55q-100 0 -159.5 53.5t-59.5 144.5z" />
<glyph unicode="&#xdd;" horiz-adv-x="518" d="M308 727l-17 52l215 93l29 -69zM164 0l47 281l-170 386h137l118 -288l190 288h115l-266 -392l-46 -275h-125z" />
<glyph unicode="&#xde;" horiz-adv-x="604" d="M32 0l112 667h124l-15 -94h54q102 0 135.5 -4.5t67.5 -23.5q41 -23 64 -66t23 -95q0 -49 -21.5 -94t-59.5 -74q-31 -23 -68.5 -32.5t-100.5 -9.5h-161l-29 -174h-125zM202 272h119q57 0 76.5 4.5t38.5 20.5q35 30 35 83q0 46 -26 70q-17 17 -37.5 21.5t-77.5 4.5h-94z " />
<glyph unicode="&#xdf;" horiz-adv-x="561" d="M29 0l68 407h-56l15 90h56q17 124 82.5 191t170.5 67q80 0 131.5 -41t51.5 -105q0 -68 -55 -110q-37 -30 -138 -45q-20 -3 -20 -16q0 -10 10 -16.5t71 -33.5q56 -25 86.5 -68.5t30.5 -97.5q0 -89 -67 -153q-60 -57 -153 -57q-52 0 -116 24l29 81q52 -16 85 -16 q49 0 81 24t32 61q0 28 -18.5 49t-67.5 49q-50 28 -70 52.5t-20 57.5q0 46 28 82q14 19 28 26.5t58 19.5q73 21 73 79q0 33 -22 53.5t-57 20.5q-63 0 -93 -51q-20 -32 -36 -127l-83 -497h-115z" />
<glyph unicode="&#xe0;" horiz-adv-x="535" d="M372 567l-182 96l38 63l168 -107zM16 130q0 88 78.5 135.5t224.5 47.5q10 0 52 -2q4 24 4 36q0 37 -26 58.5t-70 21.5q-41 0 -67.5 -15.5t-47.5 -52.5l-98 31q30 58 86 89t131 31q92 0 146.5 -42t54.5 -112q0 -29 -23 -157q-25 -134 -25 -171q0 -14 1 -28h-108v21 q0 32 8 86q-55 -120 -170 -120q-66 0 -108.5 40.5t-42.5 102.5zM135 142q0 -31 20.5 -49.5t54.5 -18.5q71 0 120 82q15 26 32 98q-27 0 -90 -9q-72 -11 -104.5 -35.5t-32.5 -67.5z" />
<glyph unicode="&#xe1;" horiz-adv-x="535" d="M292 567l-21 52l192 107l32 -67zM16 130q0 88 78.5 135.5t224.5 47.5q10 0 52 -2q4 24 4 36q0 37 -26 58.5t-70 21.5q-41 0 -67.5 -15.5t-47.5 -52.5l-98 31q30 58 86 89t131 31q92 0 146.5 -42t54.5 -112q0 -29 -23 -157q-25 -134 -25 -171q0 -14 1 -28h-108v21 q0 32 8 86q-55 -120 -170 -120q-66 0 -108.5 40.5t-42.5 102.5zM135 142q0 -31 20.5 -49.5t54.5 -18.5q71 0 120 82q15 26 32 98q-27 0 -90 -9q-72 -11 -104.5 -35.5t-32.5 -67.5z" />
<glyph unicode="&#xe2;" horiz-adv-x="535" d="M152 580l197 141l139 -141l-86 -10l-64 64l-99 -64zM16 130q0 88 78.5 135.5t224.5 47.5q10 0 52 -2q4 24 4 36q0 37 -26 58.5t-70 21.5q-41 0 -67.5 -15.5t-47.5 -52.5l-98 31q30 58 86 89t131 31q92 0 146.5 -42t54.5 -112q0 -29 -23 -157q-25 -134 -25 -171 q0 -14 1 -28h-108v21q0 32 8 86q-55 -120 -170 -120q-66 0 -108.5 40.5t-42.5 102.5zM135 142q0 -31 20.5 -49.5t54.5 -18.5q71 0 120 82q15 26 32 98q-27 0 -90 -9q-72 -11 -104.5 -35.5t-32.5 -67.5z" />
<glyph unicode="&#xe3;" horiz-adv-x="535" d="M199 589l-26 47q57 60 107 60q26 0 63 -19q41 -21 61 -21q17 0 28.5 7t33.5 29l26 -48q-43 -57 -104 -57q-29 0 -72 23q-33 18 -49 18q-14 0 -26.5 -7t-41.5 -32zM16 130q0 88 78.5 135.5t224.5 47.5q10 0 52 -2q4 24 4 36q0 37 -26 58.5t-70 21.5q-41 0 -67.5 -15.5 t-47.5 -52.5l-98 31q30 58 86 89t131 31q92 0 146.5 -42t54.5 -112q0 -29 -23 -157q-25 -134 -25 -171q0 -14 1 -28h-108v21q0 32 8 86q-55 -120 -170 -120q-66 0 -108.5 40.5t-42.5 102.5zM135 142q0 -31 20.5 -49.5t54.5 -18.5q71 0 120 82q15 26 32 98q-27 0 -90 -9 q-72 -11 -104.5 -35.5t-32.5 -67.5z" />
<glyph unicode="&#xe4;" horiz-adv-x="535" d="M405 580q-23 0 -38.5 15.5t-15.5 38.5t15.5 39t38.5 16q24 0 39.5 -16t15.5 -40q0 -22 -16 -37.5t-39 -15.5zM242 580q-23 0 -38.5 15.5t-15.5 38.5t15.5 39t38.5 16q24 0 39.5 -16t15.5 -40q0 -22 -16 -37.5t-39 -15.5zM16 130q0 88 78.5 135.5t224.5 47.5q10 0 52 -2 q4 24 4 36q0 37 -26 58.5t-70 21.5q-41 0 -67.5 -15.5t-47.5 -52.5l-98 31q30 58 86 89t131 31q92 0 146.5 -42t54.5 -112q0 -29 -23 -157q-25 -134 -25 -171q0 -14 1 -28h-108v21q0 32 8 86q-55 -120 -170 -120q-66 0 -108.5 40.5t-42.5 102.5zM135 142q0 -31 20.5 -49.5 t54.5 -18.5q71 0 120 82q15 26 32 98q-27 0 -90 -9q-72 -11 -104.5 -35.5t-32.5 -67.5z" />
<glyph unicode="&#xe5;" horiz-adv-x="535" d="M304 554q-38 0 -64 26t-26 64t27 64.5t64 26.5q38 0 64 -26.5t26 -64.5t-26.5 -64t-64.5 -26zM304 605q18 0 29 11t11 28t-10.5 28.5t-26.5 11.5q-19 0 -30.5 -11t-11.5 -28q0 -18 11 -29t28 -11zM16 130q0 88 78.5 135.5t224.5 47.5q10 0 52 -2q4 24 4 36q0 37 -26 58.5 t-70 21.5q-41 0 -67.5 -15.5t-47.5 -52.5l-98 31q30 58 86 89t131 31q92 0 146.5 -42t54.5 -112q0 -29 -23 -157q-25 -134 -25 -171q0 -14 1 -28h-108v21q0 32 8 86q-55 -120 -170 -120q-66 0 -108.5 40.5t-42.5 102.5zM135 142q0 -31 20.5 -49.5t54.5 -18.5q71 0 120 82 q15 26 32 98q-27 0 -90 -9q-72 -11 -104.5 -35.5t-32.5 -67.5z" />
<glyph unicode="&#xe6;" horiz-adv-x="829" d="M16 130q0 53 30.5 94t85.5 60q75 27 192 27q23 0 46 -1q3 22 3 30q0 42 -25 64.5t-72 22.5q-74 0 -112 -68l-97 31q65 119 217 119q108 0 157 -61q60 61 154 61q91 0 146.5 -60.5t55.5 -161.5q0 -18 -4 -53h-342q-3 -26 -3 -38q0 -56 28.5 -89t76.5 -33q40 0 67 21t50 69 l97 -28q-75 -148 -219 -148q-65 0 -113 30.5t-70 86.5q-33 -46 -47 -59q-59 -59 -146 -59q-69 0 -112.5 39.5t-43.5 103.5zM465 305h228q0 125 -101 125q-47 0 -81.5 -34t-45.5 -91zM132 141q0 -32 20.5 -50t55.5 -18q68 0 114 73q14 21 20.5 38t14.5 55l3 13q-25 0 -65 -5 q-90 -11 -126.5 -35t-36.5 -71z" />
<glyph unicode="&#xe7;" horiz-adv-x="478" d="M152 -83l37 76q-74 16 -114 73.5t-40 147.5q0 125 69.5 211.5t169.5 86.5q79 0 129 -45t65 -129l-93 -18q-20 98 -97 98q-67 0 -105 -87q-25 -58 -25 -130q0 -56 24.5 -87.5t68.5 -31.5q71 0 111 99l92 -33q-38 -84 -90.5 -122t-126.5 -36l-15 -35q38 -1 61.5 -19 t23.5 -47q0 -34 -31.5 -60t-73.5 -26q-31 0 -91 30l22 38q40 -23 69 -23q18 0 29.5 9.5t11.5 23.5q0 17 -21.5 26.5t-55.5 9.5h-4z" />
<glyph unicode="&#xe8;" horiz-adv-x="522" d="M340 567l-182 96l38 63l168 -107zM34 207q0 131 71.5 217t180.5 86q97 0 149.5 -61.5t52.5 -174.5q0 -23 -2 -39h-341q-4 -23 -4 -37q0 -57 28 -90.5t77 -33.5q74 0 117 92l97 -26q-69 -152 -217 -152q-97 0 -153 59t-56 160zM156 306h228q-2 127 -97 127 q-102 0 -131 -127z" />
<glyph unicode="&#xe9;" horiz-adv-x="522" d="M290 567l-21 52l192 107l32 -67zM34 207q0 131 71.5 217t180.5 86q97 0 149.5 -61.5t52.5 -174.5q0 -23 -2 -39h-341q-4 -23 -4 -37q0 -57 28 -90.5t77 -33.5q74 0 117 92l97 -26q-69 -152 -217 -152q-97 0 -153 59t-56 160zM156 306h228q-2 127 -97 127 q-102 0 -131 -127z" />
<glyph unicode="&#xea;" horiz-adv-x="522" d="M149 580l197 141l139 -141l-86 -10l-64 64l-99 -64zM34 207q0 131 71.5 217t180.5 86q97 0 149.5 -61.5t52.5 -174.5q0 -23 -2 -39h-341q-4 -23 -4 -37q0 -57 28 -90.5t77 -33.5q74 0 117 92l97 -26q-69 -152 -217 -152q-97 0 -153 59t-56 160zM156 306h228 q-2 127 -97 127q-102 0 -131 -127z" />
<glyph unicode="&#xeb;" horiz-adv-x="522" d="M408 580q-23 0 -38.5 15.5t-15.5 38.5t15.5 39t38.5 16q24 0 39.5 -16t15.5 -40q0 -22 -16 -37.5t-39 -15.5zM245 580q-23 0 -38.5 15.5t-15.5 38.5t15.5 39t38.5 16q24 0 39.5 -16t15.5 -40q0 -22 -16 -37.5t-39 -15.5zM34 207q0 131 71.5 217t180.5 86 q97 0 149.5 -61.5t52.5 -174.5q0 -23 -2 -39h-341q-4 -23 -4 -37q0 -57 28 -90.5t77 -33.5q74 0 117 92l97 -26q-69 -152 -217 -152q-97 0 -153 59t-56 160zM156 306h228q-2 127 -97 127q-102 0 -131 -127z" />
<glyph unicode="&#xec;" horiz-adv-x="248" d="M206 567l-165 96l40 63l149 -107zM25 0l83 497h115l-83 -497h-115z" />
<glyph unicode="&#xed;" horiz-adv-x="248" d="M156 567l-21 52l174 107l34 -67zM25 0l83 497h115l-83 -497h-115z" />
<glyph unicode="&#xee;" horiz-adv-x="248" d="M106 570l-83 10l173 141l117 -141l-84 -10l-44 64zM25 0l84 497h114l-83 -497h-115z" />
<glyph unicode="&#xef;" horiz-adv-x="248" d="M253 584q-21 0 -35.5 14.5t-14.5 35.5q0 22 14.5 37t36.5 15t36.5 -15t14.5 -37t-14.5 -36t-37.5 -14zM116 584q-21 0 -35.5 14.5t-14.5 35.5q0 22 14.5 37t36.5 15t36.5 -15t14.5 -37t-14.5 -36t-37.5 -14zM25 0l83 497h115l-83 -497h-115z" />
<glyph unicode="&#xf0;" horiz-adv-x="525" d="M33 205q0 125 64.5 208t161.5 83q62 0 114 -41q-17 76 -55 120l-92 -41l-27 41l82 36q-9 11 -35 24t-49 19l17 46q72 -12 137 -58l98 43l29 -38l-84 -37q100 -98 100 -287q0 -121 -51 -215q-66 -120 -205 -120q-96 0 -150.5 57.5t-54.5 159.5zM144 197q0 -57 26 -88.5 t73 -31.5q60 0 90 50q41 67 41 162q0 55 -26 85.5t-73 30.5q-72 0 -102 -71q-29 -71 -29 -137z" />
<glyph unicode="&#xf1;" horiz-adv-x="537" d="M211 589l-26 47q57 60 107 60q26 0 63 -19q41 -21 61 -21q17 0 28.5 7t33.5 29l26 -48q-43 -57 -104 -57q-29 0 -72 23q-33 18 -49 18q-14 0 -26.5 -7t-41.5 -32zM25 0l83 497h101l-19 -116q30 53 42.5 69.5t30.5 29.5q39 30 90 30q59 0 96.5 -39t37.5 -100 q0 -22 -10 -83l-48 -288h-110l51 298q6 33 6 58q0 30 -16.5 47.5t-45.5 17.5q-52 0 -89 -51.5t-53 -145.5l-38 -224h-109z" />
<glyph unicode="&#xf2;" horiz-adv-x="525" d="M352 567l-182 96l38 63l168 -107zM90 49q-55 61 -55 167q0 125 72 208.5t180 83.5q92 0 148 -61.5t56 -163.5q0 -104 -54 -187q-71 -109 -190 -109q-46 0 -88.5 16.5t-68.5 45.5zM148 197q0 -56 27 -88t74 -32q81 0 112 109q16 53 16 109q0 60 -25.5 92t-73.5 32 q-75 0 -107 -90q-23 -62 -23 -132z" />
<glyph unicode="&#xf3;" horiz-adv-x="525" d="M289 567l-21 52l192 107l32 -67zM90 49q-55 61 -55 167q0 125 72 208.5t180 83.5q92 0 148 -61.5t56 -163.5q0 -104 -54 -187q-71 -109 -190 -109q-46 0 -88.5 16.5t-68.5 45.5zM148 197q0 -56 27 -88t74 -32q81 0 112 109q16 53 16 109q0 60 -25.5 92t-73.5 32 q-75 0 -107 -90q-23 -62 -23 -132z" />
<glyph unicode="&#xf4;" horiz-adv-x="525" d="M134 580l197 141l139 -141l-86 -10l-64 64l-99 -64zM90 49q-55 61 -55 167q0 125 72 208.5t180 83.5q92 0 148 -61.5t56 -163.5q0 -104 -54 -187q-71 -109 -190 -109q-46 0 -88.5 16.5t-68.5 45.5zM148 197q0 -56 27 -88t74 -32q81 0 112 109q16 53 16 109q0 60 -25.5 92 t-73.5 32q-75 0 -107 -90q-23 -62 -23 -132z" />
<glyph unicode="&#xf5;" horiz-adv-x="525" d="M206 589l-26 47q57 60 107 60q26 0 63 -19q41 -21 61 -21q17 0 28.5 7t33.5 29l26 -48q-43 -57 -104 -57q-29 0 -72 23q-33 18 -49 18q-14 0 -26.5 -7t-41.5 -32zM90 49q-55 61 -55 167q0 125 72 208.5t180 83.5q92 0 148 -61.5t56 -163.5q0 -104 -54 -187 q-71 -109 -190 -109q-46 0 -88.5 16.5t-68.5 45.5zM148 197q0 -56 27 -88t74 -32q81 0 112 109q16 53 16 109q0 60 -25.5 92t-73.5 32q-75 0 -107 -90q-23 -62 -23 -132z" />
<glyph unicode="&#xf6;" horiz-adv-x="525" d="M407 580q-23 0 -38.5 15.5t-15.5 38.5t15.5 39t38.5 16q24 0 39.5 -16t15.5 -40q0 -22 -16 -37.5t-39 -15.5zM244 580q-23 0 -38.5 15.5t-15.5 38.5t15.5 39t38.5 16q24 0 39.5 -16t15.5 -40q0 -22 -16 -37.5t-39 -15.5zM90 49q-55 61 -55 167q0 125 72 208.5t180 83.5 q92 0 148 -61.5t56 -163.5q0 -104 -54 -187q-71 -109 -190 -109q-46 0 -88.5 16.5t-68.5 45.5zM148 197q0 -56 27 -88t74 -32q81 0 112 109q16 53 16 109q0 60 -25.5 92t-73.5 32q-75 0 -107 -90q-23 -62 -23 -132z" />
<glyph unicode="&#xf7;" d="M307 446q-25 0 -42.5 18t-17.5 43q0 24 18 41.5t43 17.5q24 0 41.5 -17.5t17.5 -42.5t-17.5 -42.5t-42.5 -17.5zM61 290v93h494v-93h-494zM247 167q0 24 18 41.5t43 17.5q24 0 41.5 -17.5t17.5 -42.5t-17.5 -42.5t-42.5 -17.5t-42.5 18t-17.5 43z" />
<glyph unicode="&#xf8;" horiz-adv-x="525" d="M1 -14l71 85q-37 64 -37 144q0 121 70 208q68 85 179 85q78 0 128 -41l38 42h71l-70 -82q41 -60 41 -143q0 -125 -71.5 -211t-175.5 -86q-70 0 -134 42l-37 -43h-73zM152 156l192 239q-25 24 -66 24q-84 0 -116 -116q-15 -57 -15 -111q0 -16 5 -36zM177 105 q32 -29 69 -29q62 0 95 59q37 69 37 161q0 24 -6 48z" />
<glyph unicode="&#xf9;" horiz-adv-x="529" d="M362 567l-182 96l38 63l168 -107zM48 113q0 22 13 97l48 287h109l-52 -308q-7 -39 -7 -55q0 -22 15.5 -36t39.5 -14q30 0 60 20.5t50 55.5q20 34 35 127l36 210h109l-83 -497h-102l19 108q-64 -117 -169 -117q-53 0 -87 34.5t-34 87.5z" />
<glyph unicode="&#xfa;" horiz-adv-x="529" d="M292 567l-21 52l192 107l32 -67zM48 113q0 22 13 97l48 287h109l-52 -308q-7 -39 -7 -55q0 -22 15.5 -36t39.5 -14q30 0 60 20.5t50 55.5q20 34 35 127l36 210h109l-83 -497h-102l19 108q-64 -117 -169 -117q-53 0 -87 34.5t-34 87.5z" />
<glyph unicode="&#xfb;" horiz-adv-x="529" d="M148 580l197 141l139 -141l-86 -10l-64 64l-99 -64zM48 113q0 22 13 97l48 287h109l-52 -308q-7 -39 -7 -55q0 -22 15.5 -36t39.5 -14q30 0 60 20.5t50 55.5q20 34 35 127l36 210h109l-83 -497h-102l19 108q-64 -117 -169 -117q-53 0 -87 34.5t-34 87.5z" />
<glyph unicode="&#xfc;" horiz-adv-x="529" d="M410 580q-23 0 -38.5 15.5t-15.5 38.5t15.5 39t38.5 16q24 0 39.5 -16t15.5 -40q0 -22 -16 -37.5t-39 -15.5zM247 580q-23 0 -38.5 15.5t-15.5 38.5t15.5 39t38.5 16q24 0 39.5 -16t15.5 -40q0 -22 -16 -37.5t-39 -15.5zM48 113q0 22 13 97l48 287h109l-52 -308 q-7 -39 -7 -55q0 -22 15.5 -36t39.5 -14q30 0 60 20.5t50 55.5q20 34 35 127l36 210h109l-83 -497h-102l19 108q-64 -117 -169 -117q-53 0 -87 34.5t-34 87.5z" />
<glyph unicode="&#xfd;" horiz-adv-x="455" d="M268 567l-21 52l192 107l32 -67zM-23 -81q29 -4 64 -4q39 0 60 14.5t40 53.5l19 39l-122 475h117l76 -342l164 342h95l-255 -514q-33 -67 -44.5 -85.5t-30.5 -35.5q-48 -42 -129 -42q-26 0 -59 4z" />
<glyph unicode="&#xfe;" horiz-adv-x="528" d="M149 88l-44 -261h-109l141 840h109l-43 -256q32 54 65.5 78.5t74.5 24.5q71 0 114 -57.5t43 -152.5q0 -134 -68 -234q-58 -84 -144 -84q-102 0 -139 102zM169 198q0 -56 26.5 -89.5t71.5 -33.5q51 0 79 54q40 72 40 168q0 127 -79 127q-58 0 -97 -68q-41 -70 -41 -158z " />
<glyph unicode="&#xff;" horiz-adv-x="455" d="M368 580q-23 0 -38.5 15.5t-15.5 38.5t15.5 39t38.5 16q24 0 39.5 -16t15.5 -40q0 -22 -16 -37.5t-39 -15.5zM205 580q-23 0 -38.5 15.5t-15.5 38.5t15.5 39t38.5 16q24 0 39.5 -16t15.5 -40q0 -22 -16 -37.5t-39 -15.5zM-23 -81q29 -4 64 -4q39 0 60 14.5t40 53.5l19 39 l-122 475h117l76 -342l164 342h95l-255 -514q-33 -67 -44.5 -85.5t-30.5 -35.5q-48 -42 -129 -42q-26 0 -59 4z" />
<glyph unicode="&#x152;" horiz-adv-x="862" d="M53 288q0 168 89.5 281.5t221.5 113.5q53 0 104 -15h422l-18 -105h-293l-29 -178h243l-16 -98h-244l-30 -182h306l-18 -105h-390q-60 -16 -100 -16q-112 0 -180 83.5t-68 220.5zM180 262q0 -86 34 -132t97 -46q39 0 73 23l75 448q-43 30 -92 30q-79 0 -125 -77 q-28 -47 -45 -114t-17 -132z" />
<glyph unicode="&#x153;" horiz-adv-x="833" d="M34 211q0 115 67 202q70 92 182 92q86 0 153 -67q74 71 169 71q89 0 142.5 -61t53.5 -164q0 -18 -3 -49h-336q-3 -29 -3 -40q0 -57 27.5 -89.5t75.5 -32.5q77 0 115 93l97 -26q-69 -153 -218 -153q-97 0 -155 70q-64 -74 -161 -74q-94 0 -150 62t-56 166zM474 305h225 q-2 49 -13 71q-26 53 -87 53q-92 0 -125 -124zM148 196q0 -60 25 -92t72 -32q61 0 90 54q40 70 40 168q0 56 -26 88.5t-71 32.5q-51 0 -82 -43q-48 -64 -48 -176z" />
<glyph unicode="&#x178;" horiz-adv-x="518" d="M438 738q-23 0 -38.5 15.5t-15.5 38.5t15.5 39t38.5 16q24 0 39.5 -16t15.5 -40q0 -22 -16 -37.5t-39 -15.5zM268 738q-23 0 -38.5 15.5t-15.5 38.5t15.5 39t38.5 16q24 0 39.5 -16t15.5 -40q0 -22 -16 -37.5t-39 -15.5zM164 0l47 281l-170 386h137l118 -288l190 288h115 l-266 -392l-46 -275h-125z" />
<glyph unicode="&#x2c6;" horiz-adv-x="500" d="M133 580l197 141l139 -141l-86 -10l-64 64l-99 -64z" />
<glyph unicode="&#x2dc;" horiz-adv-x="500" d="M184 589l-26 47q57 60 107 60q26 0 63 -19q41 -21 61 -21q17 0 28.5 7t33.5 29l26 -48q-43 -57 -104 -57q-29 0 -72 23q-33 18 -49 18q-14 0 -26.5 -7t-41.5 -32z" />
<glyph unicode="&#x2000;" horiz-adv-x="445" />
<glyph unicode="&#x2001;" horiz-adv-x="891" />
<glyph unicode="&#x2002;" horiz-adv-x="445" />
<glyph unicode="&#x2003;" horiz-adv-x="891" />
<glyph unicode="&#x2004;" horiz-adv-x="297" />
<glyph unicode="&#x2005;" horiz-adv-x="222" />
<glyph unicode="&#x2006;" horiz-adv-x="148" />
<glyph unicode="&#x2007;" horiz-adv-x="148" />
<glyph unicode="&#x2008;" horiz-adv-x="111" />
<glyph unicode="&#x2009;" horiz-adv-x="178" />
<glyph unicode="&#x200a;" horiz-adv-x="49" />
<glyph unicode="&#x2010;" horiz-adv-x="241" d="M-7 202l15 89h239l-15 -89h-239z" />
<glyph unicode="&#x2011;" horiz-adv-x="241" d="M-7 202l15 89h239l-15 -89h-239z" />
<glyph unicode="&#x2013;" d="M84 202l15 89h403l-15 -89h-403z" />
<glyph unicode="&#x2014;" horiz-adv-x="667" d="M-34 202l15 89h719l-15 -89h-719z" />
<glyph unicode="&#x2018;" horiz-adv-x="241" d="M98 432l17 102l89 133h39l-74 -126h53l-18 -109h-106z" />
<glyph unicode="&#x2019;" horiz-adv-x="241" d="M98 432l74 127h-53l18 108h106l-17 -101l-89 -134h-39z" />
<glyph unicode="&#x201a;" horiz-adv-x="241" d="M26 0l18 109h106l-17 -102l-89 -133h-39l74 126h-53z" />
<glyph unicode="&#x201c;" horiz-adv-x="369" d="M235 425l17 102l92 140h39l-75 -132h46l-18 -110h-101zM93 425l17 102l93 140h39l-74 -132h47l-19 -110h-103z" />
<glyph unicode="&#x201d;" horiz-adv-x="369" d="M228 425l74 132h-47l18 110h104l-17 -102l-93 -140h-39zM87 425l75 132h-46l18 110h101l-17 -102l-92 -140h-39z" />
<glyph unicode="&#x201e;" horiz-adv-x="369" d="M161 0l18 110h104l-17 -102l-93 -140h-39l74 132h-47zM22 0l18 110h101l-17 -102l-92 -140h-39l75 132h-46z" />
<glyph unicode="&#x2022;" horiz-adv-x="667" d="M213 338q0 58 40.5 98.5t99.5 40.5q56 0 96.5 -41t40.5 -98t-40.5 -97.5t-97.5 -40.5q-58 0 -98.5 40.5t-40.5 97.5z" />
<glyph unicode="&#x2026;" horiz-adv-x="729" d="M508 0l20 122h117l-20 -122h-117zM265 0l21 122h116l-21 -122h-116zM22 0l20 122h117l-20 -122h-117z" />
<glyph unicode="&#x202f;" horiz-adv-x="178" />
<glyph unicode="&#x2039;" horiz-adv-x="208" d="M97 109l-60 143l99 137h52l-76 -140l29 -140h-44z" />
<glyph unicode="&#x203a;" horiz-adv-x="208" d="M20 109l75 140l-28 140h44l60 -143l-99 -137h-52z" />
<glyph unicode="&#x205f;" horiz-adv-x="222" />
<glyph unicode="&#x20ac;" horiz-adv-x="627" d="M46 224l37 87h47q2 28 5 47h-75l37 87h59q38 114 112.5 176.5t171.5 62.5q107 0 170 -62l-51 -123q-30 85 -121 85q-102 0 -149 -139h248l-37 -87h-233q-4 -22 -4 -23l-3 -24h220l-37 -87h-186q6 -66 38.5 -101.5t86.5 -35.5q82 0 142 101l-14 -167q-61 -38 -137 -38 q-100 0 -164 64t-78 177h-85z" />
<glyph unicode="&#x2122;" horiz-adv-x="768" d="M327 287l64 380h121l44 -238l114 238h129l-64 -380h-83l52 310l-154 -310h-49l-54 309l-52 -309h-68zM105 287l52 315h-103l11 65h292l-11 -65h-103l-53 -315h-85z" />
</font>
</defs>
</svg>
