<?xml version="1.0" standalone="no"?>
<!DOCTYPE svg PUBLIC "-//W3C//DTD SVG 1.1//EN" "http://www.w3.org/Graphics/SVG/1.1/DTD/svg11.dtd" >
<svg xmlns="http://www.w3.org/2000/svg">
<metadata>
This is a custom SVG webfont generated by Fontspring.
Designer    : FontSite.com
Foundry URL : http://www.fontsite.com
</metadata>
<defs>
<font id="webfont" horiz-adv-x="511" >
<font-face units-per-em="1000" ascent="827" descent="-173" />
<missing-glyph horiz-adv-x="187" />
<glyph unicode=" "  horiz-adv-x="187" />
<glyph unicode="&#x09;" horiz-adv-x="187" />
<glyph unicode="&#xa0;" horiz-adv-x="187" />
<glyph unicode="!" horiz-adv-x="341" d="M131 184l47 483h124l-106 -483h-65zM76 0l20 119h113l-20 -119h-113z" />
<glyph unicode="&#x22;" d="M321 401l30 266h100l-61 -266h-69zM169 401l30 266h100l-61 -266h-69z" />
<glyph unicode="#" d="M47 0l61 209h-81l20 69h81l37 126h-81l20 69h81l57 194h73l-57 -194h104l56 194h73l-56 -194h80l-21 -69h-80l-36 -126h80l-20 -69h-80l-61 -209h-73l61 209h-104l-61 -209h-73zM200 278h106l37 126h-107z" />
<glyph unicode="$" d="M33 177l90 29q14 -48 30.5 -72t44.5 -37l34 204q-76 36 -106 72.5t-30 91.5q0 85 55 138.5t141 54.5l13 75h60l-14 -81q102 -23 135 -137l-91 -33q-19 69 -58 86l-32 -189q48 -21 74 -37q78 -46 78 -137q0 -57 -28 -106t-74 -72q-40 -19 -112 -22l-16 -93h-60l17 99 q-119 24 -151 166zM250 406l28 170q-81 -12 -81 -91q0 -28 10.5 -44t42.5 -35zM257 89q45 3 71 29t26 69q0 32 -14.5 52t-51.5 37z" />
<glyph unicode="%" horiz-adv-x="681" d="M192 331q-58 0 -88.5 35.5t-30.5 102.5q0 93 43.5 151t112.5 58q55 0 85.5 -37t30.5 -105q0 -91 -42.5 -148t-110.5 -57zM87 0l461 667h66l-460 -667h-67zM195 394q32 0 52 41t20 107q0 73 -44 73q-28 0 -44 -28q-28 -53 -28 -128q0 -65 44 -65zM363 126q0 93 43.5 151.5 t112.5 58.5q56 0 86 -37t30 -105q0 -92 -42.5 -148.5t-112.5 -56.5q-57 0 -87 35t-30 102zM441 116q0 -30 11.5 -47t31.5 -17q32 0 52.5 41t20.5 106q0 74 -44 74q-32 0 -52 -44t-20 -113z" />
<glyph unicode="&#x26;" horiz-adv-x="596" d="M32 169q0 150 180 214q-35 76 -35 134q0 73 45 118t116 45q67 0 106 -38t39 -103q0 -43 -18.5 -80.5t-51.5 -60.5q-25 -17 -78 -43q41 -106 75 -172q27 32 56 86.5t44 101.5l77 -21q-47 -135 -134 -238q18 -36 50 -36q19 0 43 8l-13 -84q-32 -11 -56 -11q-58 0 -96 60 q-78 -62 -162 -62q-82 0 -134.5 51t-52.5 131zM302 418l7 2l3 2q83 35 83 114q0 33 -15.5 52.5t-42.5 19.5q-28 0 -45.5 -24t-17.5 -62q0 -44 28 -104zM138 178q0 -49 26 -79.5t68 -30.5q56 0 109 45q-41 82 -97 207q-58 -29 -82 -61t-24 -81z" />
<glyph unicode="'" horiz-adv-x="341" d="M160 401l30 266h100l-61 -266h-69z" />
<glyph unicode="(" horiz-adv-x="307" d="M27 165q0 139 60.5 268t174.5 234h77q-43 -43 -79 -99q-136 -209 -136 -440q0 -155 69 -296h-67q-99 155 -99 333z" />
<glyph unicode=")" horiz-adv-x="307" d="M157 -36q-53 -80 -113 -132h-77q101 105 156.5 247t55.5 296q0 80 -15.5 145.5t-53.5 146.5h63q103 -152 103 -339q0 -182 -119 -364z" />
<glyph unicode="*" d="M233 327l34 128l-120 -55l-22 70l123 30l-106 69l43 58l95 -91l10 132l70 -11l-34 -128l119 55l23 -70l-123 -30l106 -69l-44 -58l-95 91l-9 -132z" />
<glyph unicode="+" d="M229 129v165h-165v78h165v166h79v-166h166v-78h-166v-165h-79z" />
<glyph unicode="," horiz-adv-x="238" d="M21 0l21 125h115l-20 -119l-96 -145h-44l75 139h-51z" />
<glyph unicode="-" horiz-adv-x="256" d="M27 209l14 82h187l-14 -82h-187z" />
<glyph unicode="." horiz-adv-x="238" d="M20 0l21 125h114l-21 -125h-114z" />
<glyph unicode="/" horiz-adv-x="426" d="M-16 -168h-74l478 835h74z" />
<glyph unicode="0" d="M226 -13q-181 0 -181 259q0 104 27 198t74 154q63 82 166 82q180 0 180 -255q0 -218 -95 -350q-62 -88 -171 -88zM234 70q63 0 95 77q54 129 54 307q0 69 -21 106t-60 37q-25 0 -48.5 -17t-38.5 -46q-28 -53 -44.5 -132.5t-16.5 -159.5q0 -90 19 -131t61 -41z" />
<glyph unicode="1" d="M70 0l15 88h116l74 443q-25 -28 -58.5 -40t-91.5 -14l16 93q62 5 104 29.5t77 74.5h83l-98 -586h118l-14 -88h-341z" />
<glyph unicode="2" d="M20 0l16 104q184 133 266 228t82 173q0 38 -23.5 62.5t-60.5 24.5q-44 0 -70 -32t-46 -109l-96 26q18 68 42 109q56 94 173 94q82 0 135 -49t53 -126q0 -71 -42.5 -141t-134.5 -150q-41 -35 -158 -120h280l-16 -94h-400z" />
<glyph unicode="3" d="M65 54q-34 40 -49 110l92 29q11 -46 29 -74q31 -49 92 -49q50 0 81 34t31 88q0 113 -123 113h-43l15 84h48q69 0 103 31q34 32 34 87q0 41 -24 65.5t-65 24.5q-38 0 -63 -21.5t-45 -72.5l-86 36q55 141 203 141q89 0 139 -45.5t50 -125.5q0 -136 -129 -165 q95 -39 95 -148q0 -96 -58.5 -152.5t-158.5 -56.5q-109 0 -168 67z" />
<glyph unicode="4" d="M16 153l14 85l337 431h111l-72 -431h87l-14 -85h-87l-26 -153h-100l25 153h-275zM120 236h185l55 315z" />
<glyph unicode="5" d="M29 147l92 36q12 -52 42 -80t74 -28q55 0 87.5 43t32.5 117q0 61 -26.5 95t-73.5 34q-62 0 -97 -74l-87 28l79 349h348l-23 -97h-258l-39 -177q40 54 112 54q80 0 127 -55.5t47 -151.5q0 -115 -62.5 -184t-166.5 -69q-83 0 -133 38.5t-75 121.5z" />
<glyph unicode="6" d="M116 41q-63 71 -63 208q0 86 23 171.5t64 150.5q32 51 83 80t107 29q42 0 79.5 -16.5t60.5 -44.5q22 -27 34 -80l-97 -25q-19 83 -87 83q-113 0 -154 -253q25 47 57 68t80 21q77 0 123 -53.5t46 -144.5q0 -113 -58 -180.5t-155 -67.5q-94 0 -143 54zM163 193 q0 -57 25 -90t68 -33q51 0 79 42t28 118q0 57 -23 88t-65 31q-49 0 -80.5 -44t-31.5 -112z" />
<glyph unicode="7" d="M115 0q10 148 90 302.5t207 271.5h-306l20 93h397l-13 -78q-135 -154 -196.5 -286.5t-77.5 -302.5h-121z" />
<glyph unicode="8" d="M23 154q0 131 149 187q-44 30 -61.5 61t-17.5 78q0 88 60.5 144t155.5 56q84 0 133.5 -42.5t49.5 -115.5q0 -115 -130 -164q53 -26 76.5 -63.5t23.5 -93.5q0 -98 -62 -156t-166 -58q-98 0 -154.5 45t-56.5 122zM238 419q22 -14 54 -27q55 22 79.5 50t24.5 70 q0 43 -28 70.5t-72 27.5t-73 -29.5t-29 -74.5q0 -59 44 -87zM122 168q0 -49 32 -78.5t84 -29.5q54 0 87.5 31t33.5 81q0 43 -24.5 70t-93.5 59q-16 -6 -20 -8q-99 -41 -99 -125z" />
<glyph unicode="9" d="M32 123l91 38q22 -91 97 -91q122 0 156 249q-24 -41 -54.5 -59.5t-76.5 -18.5q-80 0 -126 52.5t-46 143.5q0 109 59.5 176t156.5 67q92 0 142 -58q52 -59 52 -200q0 -201 -73.5 -318t-200.5 -117q-142 0 -177 136zM269 322q49 0 80.5 43.5t31.5 111.5q0 55 -25.5 87.5 t-69.5 32.5q-50 0 -79 -42t-29 -115q0 -56 24 -87t67 -31z" />
<glyph unicode=":" horiz-adv-x="238" d="M82 368l20 125h115l-21 -125h-114zM20 0l21 125h114l-21 -125h-114z" />
<glyph unicode=";" horiz-adv-x="239" d="M83 368l20 125h115l-21 -125h-114zM21 0l21 125h115l-20 -119l-96 -145h-44l75 139h-51z" />
<glyph unicode="&#x3c;" d="M53 296v85l433 211v-99l-327 -155l327 -155v-99z" />
<glyph unicode="=" d="M64 363v78h410v-78h-410zM64 226v78h410v-78h-410z" />
<glyph unicode="&#x3e;" d="M53 84v99l327 155l-327 155v99l433 -212v-85z" />
<glyph unicode="?" horiz-adv-x="443" d="M149 181q9 96 30.5 129.5t103.5 81.5q69 40 69 112q0 43 -22.5 70t-59.5 27q-82 0 -116 -122l-85 31q50 173 208 173q83 0 130.5 -46.5t47.5 -126.5t-44 -132q-26 -31 -101 -76q-40 -23 -52.5 -45t-17.5 -76h-91zM113 0l20 118h113l-19 -118h-114z" />
<glyph unicode="@" horiz-adv-x="664" d="M47 207q0 100 40.5 189.5t111.5 145.5q84 66 200 66q118 0 189 -70t71 -187q0 -65 -20.5 -124.5t-56.5 -99.5q-26 -28 -63.5 -45t-74.5 -17q-64 0 -73 45q-29 -46 -78 -46q-40 0 -62.5 29t-22.5 79q0 104 52 185.5t119 81.5q53 0 61 -58l17 50h65l-62 -198 q-21 -67 -21 -80q0 -21 24 -21q50 0 87 62.5t37 147.5q0 94 -51.5 149.5t-140.5 55.5q-119 0 -197.5 -96.5t-78.5 -242.5q0 -113 60 -176.5t167 -63.5q95 0 182 60l16 -62q-93 -58 -204 -58q-136 0 -214.5 80.5t-78.5 218.5zM286 181q0 -44 29 -44q39 0 68 80q22 62 22 103 q0 46 -30 46q-39 0 -67 -80q-22 -60 -22 -105z" />
<glyph unicode="A" horiz-adv-x="494" d="M-31 0l292 667h114l79 -667h-108l-19 174h-183l-73 -174h-102zM180 260h139l-22 294z" />
<glyph unicode="B" horiz-adv-x="528" d="M24 0l112 667h174q196 0 196 -154q0 -77 -43 -122q-23 -25 -71 -42q49 -21 70.5 -55t21.5 -91q0 -53 -20.5 -97t-56.5 -68q-59 -38 -181 -38h-202zM195 386h46q77 0 107 18q22 12 35.5 39t13.5 56q0 46 -27 65.5t-89 19.5h-53zM144 84h71q78 0 110 22q46 30 46 103 q0 53 -27.5 75t-95.5 22h-67z" />
<glyph unicode="C" d="M46 248q0 204 95 333q73 99 192 99q88 0 136.5 -54t48.5 -153q0 -16 -1 -25l-107 -14q0 60 -10 95q-18 61 -76 61q-67 0 -107 -84q-55 -116 -55 -261q0 -168 95 -168q45 0 75.5 36t49.5 112l101 -27q-47 -211 -229 -211q-208 0 -208 261z" />
<glyph unicode="D" horiz-adv-x="545" d="M24 0l112 667h133q119 0 176 -39q84 -60 84 -220q0 -117 -38.5 -213.5t-104.5 -145.5q-67 -49 -203 -49h-159zM144 86h43q93 0 135 45q40 43 65.5 124t25.5 167t-34 122.5t-114 36.5h-38z" />
<glyph unicode="E" horiz-adv-x="477" d="M24 0l112 667h372l-15 -88h-266l-32 -192h225l-15 -86h-225l-35 -213h280l-15 -88h-386z" />
<glyph unicode="F" horiz-adv-x="426" d="M24 0l112 667h361l-15 -88h-255l-33 -198h218l-15 -88h-218l-49 -293h-106z" />
<glyph unicode="G" horiz-adv-x="545" d="M102 52q-53 68 -53 204q0 199 94 325q73 99 194 99q86 0 137 -51t62 -148l-98 -23q-16 132 -106 132q-73 0 -116 -90q-54 -111 -54 -254q0 -81 28 -125t79 -44q32 0 59.5 19t43.5 52q20 40 32 111h-120l15 88h221l-58 -350h-50l-7 79q-50 -89 -154 -89q-45 0 -85 17.5 t-64 47.5z" />
<glyph unicode="H" horiz-adv-x="545" d="M24 0l112 667h106l-46 -276h200l46 276h106l-111 -667h-106l50 303h-200l-51 -303h-106z" />
<glyph unicode="I" horiz-adv-x="239" d="M24 0l112 667h106l-112 -667h-106z" />
<glyph unicode="J" horiz-adv-x="324" d="M-37 0l15 87q34 -10 58 -10q69 0 93 50q12 22 25 99l74 441h106l-73 -431q-15 -90 -25 -124.5t-29 -60.5q-47 -63 -153 -63q-48 0 -91 12z" />
<glyph unicode="K" d="M24 0l112 667h106l-56 -332l254 332h119l-202 -245l122 -422h-117l-85 330l-115 -137l-32 -193h-106z" />
<glyph unicode="L" horiz-adv-x="409" d="M24 0l112 667h106l-97 -579h241l-15 -88h-347z" />
<glyph unicode="M" horiz-adv-x="698" d="M24 0l112 667h153l44 -499l210 499h158l-111 -667h-104l98 572l-247 -572h-78l-54 561l-91 -561h-90z" />
<glyph unicode="N" horiz-adv-x="562" d="M24 0l112 667h113l147 -473l74 473h95l-111 -667h-89l-162 527l-84 -527h-95z" />
<glyph unicode="O" horiz-adv-x="562" d="M108 44q-60 66 -60 209q0 92 24 177.5t67 146.5q73 103 195 103q96 0 151 -63q56 -65 56 -205q0 -202 -95 -331q-69 -94 -189 -94q-95 0 -149 57zM263 76q69 0 107 79q61 125 61 285q0 71 -27.5 111t-76.5 40q-32 0 -61 -21t-48 -58q-28 -54 -44.5 -129.5t-16.5 -146.5 q0 -76 28 -118t78 -42z" />
<glyph unicode="P" horiz-adv-x="494" d="M24 0l112 667h159q106 0 153 -32q65 -43 65 -147q0 -55 -20 -103.5t-55 -76.5q-56 -47 -165 -47h-99l-44 -261h-106zM188 348h69q60 0 90 17q25 15 40 47t15 71q0 53 -28 74t-100 21h-47z" />
<glyph unicode="Q" horiz-adv-x="562" d="M135 21q-86 61 -86 232q0 197 90 324q34 49 85 76t110 27q101 0 154 -69t53 -200q0 -200 -94 -331q-43 -58 -113 -81q-2 -8 -2 -17q0 -23 14 -36.5t39 -13.5t60 8l-9 -82q-40 -8 -73 -8q-114 0 -114 106q0 12 3 32q-78 6 -117 33zM265 76q36 0 61 18.5t45 60.5 q61 128 61 284q0 71 -28 111.5t-77 40.5q-32 0 -61 -21t-47 -57q-27 -55 -44 -132t-17 -147q0 -75 28 -116.5t79 -41.5z" />
<glyph unicode="R" horiz-adv-x="528" d="M24 0l112 667h180q106 0 155 -41t49 -129q0 -100 -54 -154q-24 -26 -74 -45l79 -298h-115l-69 280h-110l-47 -280h-106zM191 365h79q64 0 95 25q46 35 46 107q0 49 -25 68t-87 19h-71z" />
<glyph unicode="S" d="M16 176l99 28q18 -67 50 -97t85 -30q49 0 79 27.5t30 72.5q0 41 -21.5 65t-85.5 53q-90 41 -120 71q-47 47 -47 117q0 86 56.5 141.5t143.5 55.5q79 0 132 -41.5t76 -119.5l-100 -33q-31 104 -109 104q-39 0 -65 -25.5t-26 -64.5q0 -38 23 -60t100 -59q79 -37 108 -68 q46 -49 46 -113q0 -43 -17 -86t-44 -70q-59 -57 -167 -57q-95 0 -150 46t-76 143z" />
<glyph unicode="T" horiz-adv-x="392" d="M101 0l96 576h-151l15 91h406l-15 -91h-149l-96 -576h-106z" />
<glyph unicode="U" horiz-adv-x="545" d="M51 158q0 43 13 118l65 391h106l-64 -386q-13 -78 -13 -110q0 -45 24.5 -69.5t69.5 -24.5q63 0 91.5 40t47.5 157l66 393h99l-69 -414q-21 -126 -57 -183q-26 -39 -75 -61t-112 -22q-93 0 -142.5 44t-49.5 127z" />
<glyph unicode="V" horiz-adv-x="477" d="M145 0l-73 667h107l48 -532l207 532h103l-277 -667h-115z" />
<glyph unicode="W" horiz-adv-x="732" d="M122 0l-42 667h108l17 -503l181 503h97l30 -503l171 503h99l-248 -667h-98l-31 499l-183 -499h-101z" />
<glyph unicode="X" horiz-adv-x="443" d="M50 0h-111l238 351l-115 316h117l72 -229l149 229h107l-216 -316l128 -351h-120l-82 261z" />
<glyph unicode="Y" horiz-adv-x="426" d="M123 0l47 280l-128 387h112l87 -284l170 284h105l-240 -389l-47 -278h-106z" />
<glyph unicode="Z" horiz-adv-x="477" d="M-6 0l14 83l356 498h-265l14 86h394l-12 -75l-359 -504h296l-15 -88h-423z" />
<glyph unicode="[" horiz-adv-x="307" d="M111 -114h79l-8 -54h-173l140 835h167l-9 -54h-75z" />
<glyph unicode="\" horiz-adv-x="392" d="M262 -168l-199 835h67l199 -835h-67z" />
<glyph unicode="]" horiz-adv-x="307" d="M-1 -114h75l121 727h-79l9 54h172l-140 -835h-167z" />
<glyph unicode="^" horiz-adv-x="500" d="M29 351l169 319h131l169 -319h-106l-129 239l-128 -239h-106z" />
<glyph unicode="_" horiz-adv-x="500" d="M0 -56h500v-91h-500v91z" />
<glyph unicode="`" horiz-adv-x="460" d="M328 544l-164 99l42 65l149 -120z" />
<glyph unicode="a" horiz-adv-x="460" d="M12 118q0 91 69 140t196 49q20 0 41 -1q9 42 9 62q0 31 -21 49t-56 18q-34 0 -55 -17t-38 -59l-90 24q24 65 68.5 94t118.5 29q78 0 123 -35t45 -95q0 -27 -7 -67l-35 -208q-8 -44 -8 -73q0 -4 2 -28h-99q-1 10 -1 23q0 17 5 45q-30 -46 -60 -63.5t-77 -17.5 q-62 0 -96 34.5t-34 96.5zM117 129q0 -32 15 -49.5t42 -17.5q31 0 59 21t44 57q19 40 31 103q-20 2 -27 2q-79 0 -121.5 -30t-42.5 -86z" />
<glyph unicode="b" horiz-adv-x="477" d="M18 0l112 667h100l-39 -234q42 73 118 73q136 0 136 -182q0 -165 -74 -267q-50 -70 -138 -70q-96 0 -124 92q-13 -24 -37 -79h-54zM152 160q0 -41 20 -69.5t49 -28.5q54 0 81 68q38 100 38 212q0 89 -59 89q-49 0 -79 -62q-50 -105 -50 -209z" />
<glyph unicode="c" horiz-adv-x="426" d="M33 194q0 140 68 233q57 79 154 79q72 0 115 -44.5t43 -118.5v-16l-94 -8q-1 45 -8 66q-15 46 -59 46q-50 0 -78 -61q-37 -84 -37 -188q0 -120 73 -120q34 0 56 26.5t37 85.5l89 -18q-22 -86 -68 -127.5t-120 -41.5q-84 0 -127.5 53t-43.5 154z" />
<glyph unicode="d" horiz-adv-x="477" d="M165 -13q-66 0 -100.5 47t-34.5 138q0 163 75 265q50 69 137 69q79 0 105 -69l38 230h101l-111 -667h-89l11 63q-53 -76 -132 -76zM201 62q24 0 45 17t34 47q19 47 33 110.5t14 104.5t-18.5 65.5t-50.5 24.5q-50 0 -77 -56q-46 -95 -46 -211q0 -47 17.5 -74.5t48.5 -27.5 z" />
<glyph unicode="e" horiz-adv-x="443" d="M30 197q0 75 23.5 142t65.5 110q54 57 137 57q81 0 123.5 -53t42.5 -154q0 -29 -4 -66h-280q-4 -27 -4 -50q0 -121 83 -121q32 0 54.5 21.5t41.5 72.5l82 -25q-29 -74 -74 -109t-112 -35q-86 0 -132.5 54.5t-46.5 155.5zM146 299h177q1 18 1 34q0 46 -19 72t-53 26 q-41 0 -68.5 -34t-37.5 -98z" />
<glyph unicode="f" horiz-adv-x="256" d="M30 0l70 416h-64l13 77h63q18 96 39 130q43 65 136 65q27 0 55 -5l-13 -82q-25 3 -31 3q-42 0 -59.5 -22.5t-26.5 -88.5h87l-13 -77h-86l-69 -416h-101z" />
<glyph unicode="g" horiz-adv-x="443" d="M-19 -65q0 37 18 61t60 43q-35 28 -35 70q0 37 20.5 63.5t70.5 54.5q-45 41 -45 103q0 80 49.5 129t130.5 49q30 0 68 -11q20 108 121 108q8 0 15 -1l-8 -78q-20 3 -23 3q-53 0 -60 -52q55 -41 55 -115q0 -82 -50 -131.5t-132 -49.5q-37 0 -74 16q-24 -13 -33 -24.5 t-9 -28.5q0 -24 20.5 -32.5t78.5 -8.5q88 0 130 -24q51 -30 51 -99q0 -75 -59.5 -117.5t-163.5 -42.5q-196 0 -196 115zM237 248q38 0 60 28.5t22 77.5q0 41 -18 63.5t-51 22.5q-38 0 -59.5 -29.5t-21.5 -80.5q0 -82 68 -82zM70 -40q0 -67 126 -67q113 0 113 69q0 41 -41 47 q-15 3 -107 5q-29 1 -51 5q-40 -25 -40 -59z" />
<glyph unicode="h" horiz-adv-x="477" d="M18 0l112 667h100l-40 -240q26 43 55 61t74 18q57 0 88.5 -31.5t31.5 -87.5q0 -37 -11 -102l-48 -285h-101l49 292q9 57 9 74q0 29 -15 45t-42 16q-46 0 -76.5 -50t-47.5 -154l-37 -223h-101z" />
<glyph unicode="i" horiz-adv-x="221" d="M109 562l18 107h107l-18 -107h-107zM18 0l82 493h101l-82 -493h-101z" />
<glyph unicode="j" horiz-adv-x="221" d="M114 562l18 107h105l-18 -107h-105zM27 37l76 456h101l-79 -473q-12 -73 -19.5 -99.5t-21.5 -46.5q-34 -52 -118 -52q-31 0 -66 7l14 82q28 -4 41 -4q38 0 52 38q7 19 20 92z" />
<glyph unicode="k" horiz-adv-x="426" d="M18 0l112 667h100l-64 -383l177 209h114l-159 -170l91 -323h-107l-58 252l-77 -83l-28 -169h-101z" />
<glyph unicode="l" horiz-adv-x="221" d="M18 0l112 667h100l-111 -667h-101z" />
<glyph unicode="m" horiz-adv-x="698" d="M18 0l82 493h89l-16 -92q25 55 57.5 80t79.5 25q89 0 98 -102q48 102 136 102q55 0 85.5 -32.5t30.5 -90.5q0 -33 -8 -83l-51 -300h-100l48 287q9 54 9 82q0 26 -13.5 42t-36.5 16q-41 0 -66 -42q-25 -43 -42 -149l-40 -236h-101l45 266q14 85 14 103q0 26 -13 42t-35 16 q-79 0 -111 -188l-40 -239h-101z" />
<glyph unicode="n" horiz-adv-x="477" d="M18 0l82 493h89l-16 -93q26 57 59.5 81.5t86.5 24.5q58 0 89 -30t31 -85q0 -34 -12 -106l-47 -285h-101l47 281q11 67 11 83q0 63 -59 63q-47 0 -76 -50t-48 -164l-35 -213h-101z" />
<glyph unicode="o" horiz-adv-x="460" d="M30 197q0 140 63 224.5t166 84.5q82 0 125 -51.5t43 -149.5q0 -163 -78 -255q-54 -63 -148 -63q-84 0 -127.5 53.5t-43.5 156.5zM136 165q0 -103 70 -103q54 0 80 65q36 90 36 199q0 105 -68 105q-48 0 -74 -53q-44 -90 -44 -213z" />
<glyph unicode="p" horiz-adv-x="477" d="M130 65l-39 -233h-101l111 661h88l-12 -73q51 86 133 86q65 0 100 -47.5t35 -135.5q0 -152 -69 -258q-23 -36 -60 -57t-77 -21q-80 0 -109 78zM150 163q0 -45 19.5 -73t50.5 -28q52 0 78 59q42 94 42 217q0 44 -16.5 68.5t-46.5 24.5q-50 0 -80 -61q-47 -96 -47 -207z " />
<glyph unicode="q" horiz-adv-x="477" d="M168 -13q-139 0 -139 180q0 82 23 155.5t63 120.5q24 28 61 45.5t75 17.5q90 0 117 -87q19 40 33 74h56q-15 -80 -18 -101l-94 -560h-100l37 225q-35 -70 -114 -70zM200 62q55 0 85 74q43 108 43 206q0 38 -18 63.5t-46 25.5q-54 0 -92 -76t-38 -185q0 -108 66 -108z" />
<glyph unicode="r" horiz-adv-x="307" d="M18 0l82 493h89l-19 -112q34 67 67.5 95t80.5 28q5 0 27 -2l-18 -108q-8 1 -22 1q-91 0 -126 -96q-20 -53 -39 -170l-21 -129h-101z" />
<glyph unicode="s" horiz-adv-x="392" d="M1 128l86 21q20 -87 96 -87q33 0 54.5 18.5t21.5 47.5q0 25 -15.5 40.5t-68.5 41.5q-71 35 -98 66.5t-27 80.5q0 64 47 106.5t118 42.5q82 0 125 -52q19 -24 34 -75l-77 -26q-16 43 -35 60.5t-49 17.5q-29 0 -49 -17.5t-20 -42.5t17 -41t73 -44q62 -30 84 -51 q37 -35 37 -89q0 -72 -48 -115.5t-127 -43.5q-152 0 -179 141z" />
<glyph unicode="t" horiz-adv-x="290" d="M53 84q0 28 11 93l40 239h-64l13 77h68l25 130l92 5l-23 -135h96l-13 -77h-94l-38 -231q-9 -52 -9 -68q0 -21 13 -33t36 -12q15 0 51 4l-14 -80q-37 -7 -77 -7q-113 0 -113 95z" />
<glyph unicode="u" horiz-adv-x="477" d="M34 94q0 28 12 100l50 299h100l-46 -282q-12 -74 -12 -88q0 -56 54 -56q65 0 100 91q15 37 33 143l32 192h101l-83 -493h-88l14 86q-33 -55 -66 -77t-83 -22q-55 0 -86.5 28.5t-31.5 78.5z" />
<glyph unicode="v" horiz-adv-x="375" d="M102 0l-70 493h102l39 -352l147 352h92l-219 -493h-91z" />
<glyph unicode="w" horiz-adv-x="579" d="M90 0l-50 493h98l21 -347l122 347h95l21 -347l128 347h85l-200 -493h-84l-24 360l-127 -360h-85z" />
<glyph unicode="x" horiz-adv-x="375" d="M-45 0l180 262l-91 231h105l57 -156l101 156h95l-160 -235l99 -258h-106l-63 183l-122 -183h-95z" />
<glyph unicode="y" horiz-adv-x="392" d="M-22 -90q27 -4 41 -4q36 0 56 22t52 99l-84 466h104l44 -337l140 337h90l-227 -508q-43 -97 -80 -129t-103 -32q-18 0 -43 4z" />
<glyph unicode="z" horiz-adv-x="375" d="M-15 0l11 66l259 352h-193l13 75h310l-11 -67l-257 -346h208l-13 -80h-327z" />
<glyph unicode="{" horiz-adv-x="307" d="M48 0l21 125q8 47 8 61q0 21 -9 30.5t-32 14.5l12 67q33 5 46 26.5t24 89.5l18 108q16 95 47.5 121t127.5 24l-9 -56q-40 0 -52.5 -16.5t-23.5 -82.5l-20 -117q-11 -64 -30 -94t-58 -40q52 -19 52 -68q0 -11 -4 -41l-7 -38l-21 -125q-8 -48 -8 -68q0 -33 48 -33h3l-9 -56 q-80 0 -108 15.5t-28 59.5q0 20 12 93z" />
<glyph unicode="|" horiz-adv-x="500" d="M214 -167v834h100v-834h-100z" />
<glyph unicode="}" horiz-adv-x="307" d="M81 -13l23 132q14 76 31 103t60 40q-31 13 -42 28t-11 42q0 21 11 84l17 100q8 46 8 63t-11.5 24t-41.5 8l10 56q66 0 90 -8q46 -16 46 -69q0 -19 -11 -84l-17 -105q-8 -54 -8 -62q0 -22 8.5 -32t30.5 -14l-11 -67q-30 -2 -44 -24t-24 -85l-23 -134q-17 -99 -48.5 -126 t-128.5 -25l9 56q5 -1 14 -1q28 0 41 18q11 15 22 82z" />
<glyph unicode="~" horiz-adv-x="667" d="M162 572l-56 37q22 48 36 68q41 59 108 59q35 0 108 -31q68 -28 92 -28q26 0 43.5 13t37.5 47l59 -34q-33 -67 -64 -91q-40 -31 -89 -31q-29 0 -142 46q-31 13 -53 13q-25 0 -42.5 -15t-37.5 -53z" />
<glyph unicode="&#xa1;" horiz-adv-x="341" d="M138 374l20 119h113l-20 -119h-113zM44 -174l112 483h64l-52 -483h-124z" />
<glyph unicode="&#xa2;" d="M202 -5l18 112q-112 30 -112 181q0 82 28.5 151t75.5 102q35 26 86 30l16 97h58l-17 -101q55 -16 78 -51.5t26 -107.5l-88 -8q-1 68 -30 87l-51 -306q44 12 65 94l84 -17q-15 -71 -57 -111t-105 -44l-18 -108h-57zM234 191l50 299q-37 -15 -60.5 -73.5t-23.5 -138.5 q0 -72 34 -87z" />
<glyph unicode="&#xa3;" d="M-14 0l15 91h30q151 0 151 199v22h-80l13 73h67q0 125 32 189q50 101 160 101q109 0 142 -105l-80 -44q-19 63 -64 63q-84 0 -84 -187v-17h108l-13 -73h-98q-6 -89 -27.5 -136.5t-73.5 -84.5h103q62 0 93 18t53 67l76 -39q-23 -66 -68 -101q-27 -20 -61 -28t-95 -8h-299z " />
<glyph unicode="&#xa4;" d="M118 133l-57 56l69 69q-24 41 -24 85q0 43 23 85l-69 69l58 58l69 -69q40 23 84 23q45 0 86 -25l69 69l56 -56l-69 -69q24 -40 24 -84q0 -43 -24 -85l69 -69l-58 -57l-68 68q-43 -23 -85 -23q-43 0 -85 24zM270 258q36 0 61.5 25t25.5 60q0 36 -25 61t-61 25 q-35 0 -60 -25t-25 -60t25 -60.5t59 -25.5z" />
<glyph unicode="&#xa5;" d="M167 0l34 204h-149l10 57h148l3 18l-12 45h-129l10 57h102l-82 286h104l75 -296l160 296h99l-168 -286h115l-10 -57h-138l-26 -45l-3 -18h157l-10 -57h-157l-34 -204h-99z" />
<glyph unicode="&#xa6;" horiz-adv-x="500" d="M214 327v340h100v-340h-100zM214 153h100v-320h-100v320z" />
<glyph unicode="&#xa7;" d="M13 -27l93 18q21 -80 106 -80q47 0 76.5 25t29.5 64q0 41 -38 68q-15 10 -77 38q-71 32 -100.5 66t-29.5 83q0 48 26.5 89t74.5 66q-26 26 -36.5 48.5t-10.5 54.5q0 72 52.5 119.5t131.5 47.5q96 0 139 -56q17 -21 29 -63l-81 -19q-20 68 -88 68q-38 0 -62 -20.5 t-24 -52.5q0 -41 41 -69q15 -11 71 -39q59 -30 83 -61t24 -77q0 -99 -87 -148q58 -47 58 -119q0 -86 -58.5 -140t-150.5 -54q-94 0 -146 50q-31 29 -46 93zM246 197l47 -21q34 25 46.5 43.5t12.5 44.5q0 29 -16.5 47t-62.5 41q-2 1 -41 22q-69 -40 -69 -89q0 -28 18 -47.5 t65 -40.5z" />
<glyph unicode="&#xa8;" horiz-adv-x="460" d="M365 569q-20 0 -35 15t-15 36t15 36t36 15t36 -15t15 -36q0 -22 -15 -36.5t-37 -14.5zM216 569q-20 0 -35 15t-15 36t15 36t36 15q22 0 36.5 -15t14.5 -36q0 -22 -15 -36.5t-37 -14.5z" />
<glyph unicode="&#xa9;" horiz-adv-x="781" d="M56 333q0 143 102 244.5t247 101.5t246.5 -101.5t101.5 -246.5q0 -143 -103 -243t-251 -100q-139 0 -241 102.5t-102 242.5zM129 333q0 -114 80.5 -196.5t190.5 -82.5q117 0 198.5 80.5t81.5 196.5q0 118 -80.5 200t-195.5 82q-114 0 -194.5 -82t-80.5 -198zM248 288 q0 112 51.5 182.5t134.5 70.5q60 0 93 -34t33 -95v-16l-81 -10q0 50 -11.5 71t-39.5 21q-40 0 -62 -46q-32 -64 -32 -147q0 -96 58 -96q52 0 73 88l76 -18q-28 -133 -152 -133q-69 0 -105 41.5t-36 120.5z" />
<glyph unicode="&#xaa;" horiz-adv-x="307" d="M125 259q-40 0 -62.5 22t-22.5 61q0 54 45 83.5t127 29.5h19q4 21 4 30q0 16 -11.5 25.5t-31.5 9.5q-19 0 -30 -8.5t-21 -31.5l-67 19q17 39 45 56.5t76 17.5q52 0 81.5 -22t29.5 -60q0 -10 -4 -38l-20 -122q-5 -32 -5 -40t3 -24h-72q0 21 1 45q-32 -53 -84 -53zM151 314 q54 0 72 95h-12q-93 0 -93 -60q0 -16 9 -25.5t24 -9.5z" />
<glyph unicode="&#xab;" horiz-adv-x="392" d="M264 95l-67 156l109 162h58l-72 -162l22 -156h-50zM112 95l-67 156l109 162h58l-72 -162l23 -156h-51z" />
<glyph unicode="&#xac;" horiz-adv-x="500" d="M47 173v93h433v-266h-100v173h-333z" />
<glyph unicode="&#xad;" horiz-adv-x="256" d="M27 209l14 82h187l-14 -82h-187z" />
<glyph unicode="&#xae;" horiz-adv-x="781" d="M56 333q0 143 102 244.5t247 101.5t246.5 -101.5t101.5 -246.5q0 -143 -103 -243t-251 -100q-139 0 -241 102.5t-102 242.5zM129 333q0 -114 80.5 -196.5t190.5 -82.5q117 0 198.5 80.5t81.5 196.5q0 118 -80.5 200t-195.5 82q-114 0 -194.5 -82t-80.5 -198zM247 133 l67 400h122q71 0 104 -25.5t33 -80.5q0 -88 -79 -118l54 -176h-87l-46 163h-61l-27 -163h-80zM365 357h44q82 0 82 69q0 27 -14.5 37.5t-52.5 10.5h-40z" />
<glyph unicode="&#xaf;" horiz-adv-x="460" d="M153 585l10 59h267l-10 -59h-267z" />
<glyph unicode="&#xb0;" d="M299 371q-64 0 -110 46t-46 109t46.5 108.5t111.5 45.5q67 0 113 -45.5t46 -110.5q0 -64 -47 -108.5t-114 -44.5zM300 436q36 0 61.5 26t25.5 63t-25.5 64t-60.5 27t-60 -26.5t-25 -63.5q0 -36 25 -63t59 -27z" />
<glyph unicode="&#xb1;" d="M229 129v165h-165v78h165v166h79v-166h166v-78h-166v-165h-79zM64 9v78h410v-78h-410z" />
<glyph unicode="&#xb2;" horiz-adv-x="324" d="M38 266l11 69q83 60 119 91q93 82 93 141q0 20 -13.5 33t-33.5 13q-25 0 -39.5 -18t-26.5 -64l-70 18q16 66 49.5 96t89.5 30q54 0 89 -30t35 -77q0 -56 -45 -110t-151 -124h165l-11 -68h-261z" />
<glyph unicode="&#xb3;" horiz-adv-x="324" d="M177 259q-119 0 -143 112l69 21q10 -39 27 -56t46 -17q27 0 44 18t17 46q0 62 -72 62h-29l11 59h32q77 0 77 62q0 22 -14 35.5t-37 13.5q-22 0 -35 -12t-27 -45l-64 25q35 92 134 92q57 0 90.5 -28t33.5 -77q0 -55 -43 -82q-13 -8 -49 -16q40 -12 56.5 -32t16.5 -56 q0 -56 -39 -90.5t-102 -34.5z" />
<glyph unicode="&#xb4;" horiz-adv-x="460" d="M246 545l-27 41l168 122l34 -63z" />
<glyph unicode="&#xb5;" horiz-adv-x="477" d="M121 45l-35 -213h-101l110 661h101l-50 -300q-8 -52 -8 -70q0 -56 52 -56q66 0 102 91q14 33 32 143l32 192h101l-82 -493h-89l15 86q-31 -54 -59.5 -76.5t-63.5 -22.5q-26 0 -39 13.5t-18 44.5z" />
<glyph unicode="&#xb6;" d="M268 -168v448h-22q-59 0 -89 7.5t-57 29.5q-62 51 -62 154q0 54 20.5 99t55.5 68q43 29 132 29h200v-835h-64v784h-50v-784h-64z" />
<glyph unicode="&#xb7;" horiz-adv-x="238" d="M53 194l21 125h114l-21 -125h-114z" />
<glyph unicode="&#xb8;" horiz-adv-x="460" d="M147 -83l46 83h45l-24 -47l17 1q28 1 47 -17t19 -46q0 -37 -29.5 -61t-73.5 -24q-57 0 -98 31l22 37q40 -22 67 -22q19 0 31.5 9.5t12.5 24.5q0 33 -54 33q-15 0 -28 -2z" />
<glyph unicode="&#xb9;" horiz-adv-x="324" d="M70 267l10 62h73l40 238q-32 -20 -92 -23l11 66q42 3 67 16.5t47 44.5h62l-57 -342h73l-10 -62h-224z" />
<glyph unicode="&#xba;" horiz-adv-x="307" d="M164 259q-113 0 -113 131q0 83 40 133t107 50q54 0 82.5 -32.5t28.5 -93.5q0 -86 -39.5 -137t-105.5 -51zM168 314q28 0 45.5 41t17.5 105q0 58 -38 58q-25 0 -39 -27q-25 -50 -25 -120q0 -57 39 -57z" />
<glyph unicode="&#xbb;" horiz-adv-x="392" d="M181 95l72 162l-23 156h51l67 -156l-109 -162h-58zM29 95l72 162l-23 156h51l67 -156l-109 -162h-58z" />
<glyph unicode="&#xbc;" horiz-adv-x="784" d="M55 267l10 62h73l40 238q-32 -20 -92 -23l11 66q42 3 67 16.5t47 44.5h62l-57 -342h73l-10 -62h-224zM141 0l461 667h74l-461 -667h-74zM428 89l10 57l210 256h78l-42 -252h54l-10 -61h-54l-15 -89h-74l15 89h-172zM511 149h100l34 177z" />
<glyph unicode="&#xbd;" horiz-adv-x="784" d="M49 267l10 62h73l40 238q-32 -20 -92 -23l11 66q42 3 67 16.5t47 44.5h62l-57 -342h73l-10 -62h-224zM131 0l461 667h74l-460 -667h-75zM455 0l11 69q111 78 161.5 132.5t50.5 98.5q0 20 -13.5 33t-33.5 13q-25 0 -40 -18t-26 -63l-70 17q16 66 50 96t90 30q53 0 88 -30 t35 -76q0 -56 -46 -111.5t-150 -122.5h165l-11 -68h-261z" />
<glyph unicode="&#xbe;" horiz-adv-x="784" d="M173 259q-119 0 -143 112l69 21q10 -39 27 -56t46 -17q27 0 44 18t17 46q0 62 -72 62h-29l11 59h32q77 0 77 62q0 22 -14 35.5t-37 13.5q-22 0 -35 -12t-27 -45l-64 25q35 92 134 92q57 0 90.5 -28t33.5 -77q0 -55 -43 -82q-13 -8 -49 -16q40 -12 56.5 -32t16.5 -56 q0 -56 -39 -90.5t-102 -34.5zM152 0l461 667h74l-461 -667h-74zM444 89l9 57l210 256h78l-42 -252h55l-11 -61h-54l-15 -89h-74l15 89h-171zM526 149h100l34 177z" />
<glyph unicode="&#xbf;" horiz-adv-x="443" d="M196 375l19 118h114l-20 -118h-113zM-13 -17q0 80 44 132q26 31 101 76q40 23 52.5 44.5t17.5 76.5h91q-9 -96 -30.5 -129.5t-103.5 -81.5q-69 -40 -69 -112q0 -43 22.5 -70t59.5 -27q82 0 116 122l85 -30q-50 -174 -208 -174q-83 0 -130.5 46.5t-47.5 126.5z" />
<glyph unicode="&#xc0;" horiz-adv-x="494" d="M358 714l-199 74l31 74l187 -100zM-31 0l292 667h114l79 -667h-108l-19 174h-183l-73 -174h-102zM180 260h139l-22 294z" />
<glyph unicode="&#xc1;" horiz-adv-x="494" d="M305 714l-20 46l206 100l24 -71zM-31 0l292 667h114l79 -667h-108l-19 174h-183l-73 -174h-102zM180 260h139l-22 294z" />
<glyph unicode="&#xc2;" horiz-adv-x="494" d="M146 734l197 115l166 -115l-89 -5l-86 44l-94 -44zM-31 0l292 667h114l79 -667h-108l-19 174h-183l-73 -174h-102zM180 260h139l-22 294z" />
<glyph unicode="&#xc3;" horiz-adv-x="494" d="M223 735l-33 40q45 59 103 59q27 0 71 -18q29 -12 46 -12q31 0 61 33l33 -39q-45 -60 -97 -60q-27 0 -66 16q-38 16 -54 16q-35 0 -64 -35zM-31 0l292 667h114l79 -667h-108l-19 174h-183l-73 -174h-102zM180 260h139l-22 294z" />
<glyph unicode="&#xc4;" horiz-adv-x="494" d="M411 734q-22 0 -37 15.5t-15 37.5q0 23 15.5 38t37.5 15t37.5 -15t15.5 -38q0 -22 -15.5 -37.5t-38.5 -15.5zM262 734q-21 0 -36.5 15.5t-15.5 37.5q0 23 15 38t38 15t38 -15t15 -38q0 -22 -15.5 -37.5t-38.5 -15.5zM-31 0l292 667h114l79 -667h-108l-19 174h-183 l-73 -174h-102zM180 260h139l-22 294z" />
<glyph unicode="&#xc5;" horiz-adv-x="494" d="M333 704q-37 0 -64 27.5t-27 65.5t27.5 65t65.5 27q39 0 66 -27t27 -66q0 -38 -27.5 -65t-67.5 -27zM334 756q17 0 29 11.5t12 28.5t-12 29t-28 12t-28 -12t-12 -29q0 -16 11.5 -28t27.5 -12zM-31 0l292 667h114l79 -667h-108l-19 174h-183l-73 -174h-102zM180 260h139 l-22 294z" />
<glyph unicode="&#xc6;" horiz-adv-x="750" d="M-40 0l419 667h405l-15 -88h-257l-32 -192h215l-14 -86h-216l-35 -213h268l-14 -88h-375l34 200h-150l-124 -200h-109zM242 289h115l61 310z" />
<glyph unicode="&#xc7;" d="M118 32q-72 63 -72 216q0 204 95 333q73 99 192 99q88 0 136.5 -54t48.5 -153q0 -16 -1 -25l-107 -14q0 60 -10 95q-18 61 -76 61q-67 0 -107 -84q-55 -116 -55 -261q0 -168 95 -168q45 0 75.5 36t49.5 112l101 -27q-18 -80 -57 -131q-27 -36 -71 -58t-88 -22h-13 l-20 -38q7 1 18 1q31 0 50.5 -18.5t19.5 -48.5q0 -39 -31.5 -65t-78.5 -26q-58 0 -105 33l24 40q41 -23 73 -23q20 0 33.5 10t13.5 26q0 34 -58 34q-2 0 -32 -2l45 80q-58 16 -88 42z" />
<glyph unicode="&#xc8;" horiz-adv-x="477" d="M377 714l-199 74l31 74l187 -100zM24 0l112 667h372l-15 -88h-266l-32 -192h225l-15 -86h-225l-35 -213h280l-15 -88h-386z" />
<glyph unicode="&#xc9;" horiz-adv-x="477" d="M304 714l-20 46l206 100l24 -71zM24 0l112 667h372l-15 -88h-266l-32 -192h225l-15 -86h-225l-35 -213h280l-15 -88h-386z" />
<glyph unicode="&#xca;" horiz-adv-x="477" d="M157 734l197 115l166 -115l-89 -5l-86 44l-94 -44zM24 0l112 667h372l-15 -88h-266l-32 -192h225l-15 -86h-225l-35 -213h280l-15 -88h-386z" />
<glyph unicode="&#xcb;" horiz-adv-x="477" d="M421 734q-22 0 -37 15.5t-15 37.5q0 23 15.5 38t37.5 15t37.5 -15t15.5 -38q0 -22 -15.5 -37.5t-38.5 -15.5zM272 734q-21 0 -36.5 15.5t-15.5 37.5q0 23 15 38t38 15t38 -15t15 -38q0 -22 -15.5 -37.5t-38.5 -15.5zM24 0l112 667h372l-15 -88h-266l-32 -192h225l-15 -86 h-225l-35 -213h280l-15 -88h-386z" />
<glyph unicode="&#xcc;" horiz-adv-x="239" d="M229 714l-182 76l35 72l166 -100zM24 0l112 667h106l-112 -667h-106z" />
<glyph unicode="&#xcd;" horiz-adv-x="239" d="M177 714l-20 46l185 100l27 -71zM24 0l111 667h106l-111 -667h-106z" />
<glyph unicode="&#xce;" horiz-adv-x="239" d="M44 734l171 115l139 -115l-89 -5l-59 44l-67 -44zM24 0l112 667h106l-112 -667h-106z" />
<glyph unicode="&#xcf;" horiz-adv-x="239" d="M274 735q-21 0 -36 15t-15 37t15 37t37 15t37 -15t15 -37t-15.5 -37t-37.5 -15zM135 735q-21 0 -36 15t-15 37t15 37t37 15t37 -15t15 -37t-15.5 -37t-37.5 -15zM24 0l112 667h106l-112 -667h-106z" />
<glyph unicode="&#xd0;" horiz-adv-x="545" d="M24 0l51 306h-53l13 80h54l47 281h133q119 0 176 -39q84 -60 84 -221q0 -116 -38.5 -212.5t-104.5 -145.5q-67 -49 -203 -49h-159zM144 86h43q93 0 135 45q41 44 66 124t25 167q0 86 -34 122.5t-114 36.5h-38l-32 -195h123l-13 -80h-124z" />
<glyph unicode="&#xd1;" horiz-adv-x="562" d="M263 735l-33 40q45 59 103 59q27 0 71 -18q29 -12 46 -12q31 0 61 33l33 -39q-45 -60 -97 -60q-27 0 -66 16q-38 16 -54 16q-35 0 -64 -35zM24 0l112 667h113l147 -473l74 473h95l-111 -667h-89l-162 527l-84 -527h-95z" />
<glyph unicode="&#xd2;" horiz-adv-x="562" d="M206 788l31 74l187 -100l-19 -48zM108 44q-60 66 -60 209q0 92 24 177.5t67 146.5q73 103 195 103q96 0 151 -63q56 -65 56 -205q0 -202 -95 -331q-69 -94 -189 -94q-95 0 -149 57zM263 76q69 0 107 79q61 125 61 285q0 71 -27.5 111t-76.5 40q-32 0 -61 -21t-48 -58 q-28 -54 -44.5 -129.5t-16.5 -146.5q0 -76 28 -118t78 -42z" />
<glyph unicode="&#xd3;" horiz-adv-x="562" d="M332 714l-20 46l206 100l24 -71zM108 44q-60 66 -60 209q0 92 24 177.5t67 146.5q73 103 195 103q96 0 151 -63q56 -65 56 -205q0 -202 -95 -331q-69 -94 -189 -94q-95 0 -149 57zM263 76q69 0 107 79q61 125 61 285q0 71 -27.5 111t-76.5 40q-32 0 -61 -21t-48 -58 q-28 -54 -44.5 -129.5t-16.5 -146.5q0 -76 28 -118t78 -42z" />
<glyph unicode="&#xd4;" horiz-adv-x="562" d="M173 734l197 115l166 -115l-89 -5l-86 44l-94 -44zM108 44q-60 66 -60 209q0 92 24 177.5t67 146.5q73 103 195 103q96 0 151 -63q56 -65 56 -205q0 -202 -95 -331q-69 -94 -189 -94q-95 0 -149 57zM263 76q69 0 107 79q61 125 61 285q0 71 -27.5 111t-76.5 40 q-32 0 -61 -21t-48 -58q-28 -54 -44.5 -129.5t-16.5 -146.5q0 -76 28 -118t78 -42z" />
<glyph unicode="&#xd5;" horiz-adv-x="562" d="M256 735l-33 40q45 59 103 59q27 0 71 -18q29 -12 46 -12q31 0 61 33l33 -39q-45 -60 -97 -60q-27 0 -66 16q-38 16 -54 16q-35 0 -64 -35zM108 44q-60 66 -60 209q0 92 24 177.5t67 146.5q73 103 195 103q96 0 151 -63q56 -65 56 -205q0 -202 -95 -331q-69 -94 -189 -94 q-95 0 -149 57zM263 76q69 0 107 79q61 125 61 285q0 71 -27.5 111t-76.5 40q-32 0 -61 -21t-48 -58q-28 -54 -44.5 -129.5t-16.5 -146.5q0 -76 28 -118t78 -42z" />
<glyph unicode="&#xd6;" horiz-adv-x="562" d="M440 734q-22 0 -37 15.5t-15 37.5q0 23 15 38t38 15t38 -15t15 -38q0 -22 -15.5 -37.5t-38.5 -15.5zM291 734q-21 0 -36.5 15.5t-15.5 37.5q0 23 15.5 38t37.5 15t37.5 -15t15.5 -38q0 -22 -15.5 -37.5t-38.5 -15.5zM108 44q-60 66 -60 209q0 92 24 177.5t67 146.5 q73 103 195 103q96 0 151 -63q56 -65 56 -205q0 -202 -95 -331q-69 -94 -189 -94q-95 0 -149 57zM263 76q69 0 107 79q61 125 61 285q0 71 -27.5 111t-76.5 40q-32 0 -61 -21t-48 -58q-28 -54 -44.5 -129.5t-16.5 -146.5q0 -76 28 -118t78 -42z" />
<glyph unicode="&#xd7;" d="M143 151l-56 56l127 126l-127 127l55 55l127 -127l127 127l56 -55l-127 -127l127 -126l-55 -56l-127 127z" />
<glyph unicode="&#xd8;" horiz-adv-x="562" d="M-7 -21l83 116q-28 63 -28 163q0 187 91 319q35 49 85.5 76t108.5 27q76 0 136 -45l43 59h77l-80 -110q33 -73 33 -173q0 -200 -95 -331q-69 -94 -185 -94q-91 0 -149 54l-45 -61h-75zM156 195l251 364q-29 38 -80 38q-94 0 -142 -149q-33 -101 -33 -201q0 -21 4 -52z M177 117q31 -48 91 -48q46 0 78.5 36t58.5 114q34 102 34 208q0 33 -6 64z" />
<glyph unicode="&#xd9;" horiz-adv-x="545" d="M198 788l31 74l187 -100l-19 -48zM51 158q0 43 13 118l65 391h106l-64 -386q-13 -78 -13 -110q0 -45 24.5 -69.5t69.5 -24.5q63 0 91.5 40t47.5 157l66 393h99l-69 -414q-21 -126 -57 -183q-26 -39 -75 -61t-112 -22q-93 0 -142.5 44t-49.5 127z" />
<glyph unicode="&#xda;" horiz-adv-x="545" d="M331 714l-20 46l206 100l24 -71zM51 158q0 43 13 118l65 391h106l-64 -386q-13 -78 -13 -110q0 -45 24.5 -69.5t69.5 -24.5q63 0 91.5 40t47.5 157l66 393h99l-69 -414q-21 -126 -57 -183q-26 -39 -75 -61t-112 -22q-93 0 -142.5 44t-49.5 127z" />
<glyph unicode="&#xdb;" horiz-adv-x="545" d="M178 734l197 115l166 -115l-89 -5l-86 44l-94 -44zM51 158q0 43 13 118l65 391h106l-64 -386q-13 -78 -13 -110q0 -45 24.5 -69.5t69.5 -24.5q63 0 91.5 40t47.5 157l66 393h99l-69 -414q-21 -126 -57 -183q-26 -39 -75 -61t-112 -22q-93 0 -142.5 44t-49.5 127z" />
<glyph unicode="&#xdc;" horiz-adv-x="545" d="M432 734q-22 0 -37 15.5t-15 37.5q0 23 15 38t38 15t38 -15t15 -38q0 -22 -15.5 -37.5t-38.5 -15.5zM283 734q-21 0 -36.5 15.5t-15.5 37.5q0 23 15.5 38t37.5 15t37.5 -15t15.5 -38q0 -22 -15.5 -37.5t-38.5 -15.5zM51 158q0 43 13 118l65 391h106l-64 -386 q-13 -78 -13 -110q0 -45 24.5 -69.5t69.5 -24.5q63 0 91.5 40t47.5 157l66 393h99l-69 -414q-21 -126 -57 -183q-26 -39 -75 -61t-112 -22q-93 0 -142.5 44t-49.5 127z" />
<glyph unicode="&#xdd;" horiz-adv-x="426" d="M261 714l-20 46l206 100l24 -71zM123 0l47 280l-128 387h112l87 -284l170 284h105l-240 -389l-47 -278h-106z" />
<glyph unicode="&#xde;" horiz-adv-x="494" d="M24 0l112 667h106l-20 -115h54q106 0 153 -32q65 -43 65 -146q0 -55 -20 -104t-55 -77q-56 -47 -165 -47h-99l-25 -146h-106zM169 233h69q60 0 90 17q55 34 55 118q0 54 -28 74.5t-100 20.5h-47z" />
<glyph unicode="&#xdf;" horiz-adv-x="494" d="M12 -41l70 415h-52l13 83h52q13 66 27 102.5t39 69.5q28 35 73 56.5t93 21.5q68 0 111.5 -37t43.5 -95q0 -50 -33 -92t-85 -59q-23 -7 -63 -10q-4 -7 -4 -12q0 -9 11 -18t48 -28q61 -33 89 -72t28 -91q0 -88 -58 -147t-144 -59q-59 0 -108 28l31 67q45 -21 76 -21 q47 0 75.5 29.5t28.5 78.5q0 48 -31 79q-9 9 -73 53q-53 36 -53 86q0 42 23 78q145 8 145 97q0 31 -19 50.5t-50 19.5q-48 0 -77 -39q-26 -37 -40 -120l-86 -514h-101z" />
<glyph unicode="&#xe0;" horiz-adv-x="460" d="M314 544l-164 99l42 65l149 -120zM12 118q0 91 69 140t196 49q20 0 41 -1q9 42 9 62q0 31 -21 49t-56 18q-34 0 -55 -17t-38 -59l-90 24q24 65 68.5 94t118.5 29q78 0 123 -35t45 -95q0 -27 -7 -67l-35 -208q-8 -44 -8 -73q0 -4 2 -28h-99q-1 10 -1 23q0 17 5 45 q-30 -46 -60 -63.5t-77 -17.5q-62 0 -96 34.5t-34 96.5zM117 129q0 -32 15 -49.5t42 -17.5q31 0 59 21t44 57q19 40 31 103q-20 2 -27 2q-79 0 -121.5 -30t-42.5 -86z" />
<glyph unicode="&#xe1;" horiz-adv-x="460" d="M265 545l-27 41l168 122l34 -63zM12 118q0 91 69 140t196 49q20 0 41 -1q9 42 9 62q0 31 -21 49t-56 18q-34 0 -55 -17t-38 -59l-90 24q24 65 68.5 94t118.5 29q78 0 123 -35t45 -95q0 -27 -7 -67l-35 -208q-8 -44 -8 -73q0 -4 2 -28h-99q-1 10 -1 23q0 17 5 45 q-30 -46 -60 -63.5t-77 -17.5q-62 0 -96 34.5t-34 96.5zM117 129q0 -32 15 -49.5t42 -17.5q31 0 59 21t44 57q19 40 31 103q-20 2 -27 2q-79 0 -121.5 -30t-42.5 -86z" />
<glyph unicode="&#xe2;" horiz-adv-x="460" d="M134 562l167 131l133 -130l-73 -7l-68 58l-81 -59zM12 118q0 91 69 140t196 49q20 0 41 -1q9 42 9 62q0 31 -21 49t-56 18q-34 0 -55 -17t-38 -59l-90 24q24 65 68.5 94t118.5 29q78 0 123 -35t45 -95q0 -27 -7 -67l-35 -208q-8 -44 -8 -73q0 -4 2 -28h-99q-1 10 -1 23 q0 17 5 45q-30 -46 -60 -63.5t-77 -17.5q-62 0 -96 34.5t-34 96.5zM117 129q0 -32 15 -49.5t42 -17.5q31 0 59 21t44 57q19 40 31 103q-20 2 -27 2q-79 0 -121.5 -30t-42.5 -86z" />
<glyph unicode="&#xe3;" horiz-adv-x="460" d="M179 576l-30 37q41 58 90 58q25 0 68 -20q30 -15 45 -15q14 0 23 6t29 29l30 -37q-38 -59 -86 -59q-23 0 -62 18q-36 18 -51 18q-30 0 -56 -35zM12 118q0 91 69 140t196 49q20 0 41 -1q9 42 9 62q0 31 -21 49t-56 18q-34 0 -55 -17t-38 -59l-90 24q24 65 68.5 94 t118.5 29q78 0 123 -35t45 -95q0 -27 -7 -67l-35 -208q-8 -44 -8 -73q0 -4 2 -28h-99q-1 10 -1 23q0 17 5 45q-30 -46 -60 -63.5t-77 -17.5q-62 0 -96 34.5t-34 96.5zM117 129q0 -32 15 -49.5t42 -17.5q31 0 59 21t44 57q19 40 31 103q-20 2 -27 2q-79 0 -121.5 -30 t-42.5 -86z" />
<glyph unicode="&#xe4;" horiz-adv-x="460" d="M357 569q-20 0 -35 15t-15 36t15 36t36 15t36 -15t15 -36q0 -22 -15 -36.5t-37 -14.5zM208 569q-20 0 -35 15t-15 36t15 36t36 15q22 0 36.5 -15t14.5 -36q0 -22 -15 -36.5t-37 -14.5zM12 118q0 91 69 140t196 49q20 0 41 -1q9 42 9 62q0 31 -21 49t-56 18q-34 0 -55 -17 t-38 -59l-90 24q24 65 68.5 94t118.5 29q78 0 123 -35t45 -95q0 -27 -7 -67l-35 -208q-8 -44 -8 -73q0 -4 2 -28h-99q-1 10 -1 23q0 17 5 45q-30 -46 -60 -63.5t-77 -17.5q-62 0 -96 34.5t-34 96.5zM117 129q0 -32 15 -49.5t42 -17.5q31 0 59 21t44 57q19 40 31 103 q-20 2 -27 2q-79 0 -121.5 -30t-42.5 -86z" />
<glyph unicode="&#xe5;" horiz-adv-x="460" d="M280 549q-36 0 -62 26t-26 63t26.5 63t63.5 26t63 -26.5t26 -63.5t-26.5 -62.5t-64.5 -25.5zM281 596q17 0 29.5 12.5t12.5 29.5t-12 29.5t-29 12.5t-29.5 -12.5t-12.5 -29.5t12.5 -29.5t28.5 -12.5zM12 118q0 91 69 140t196 49q20 0 41 -1q9 42 9 62q0 31 -21 49t-56 18 q-34 0 -55 -17t-38 -59l-90 24q24 65 68.5 94t118.5 29q78 0 123 -35t45 -95q0 -27 -7 -67l-35 -208q-8 -44 -8 -73q0 -4 2 -28h-99q-1 10 -1 23q0 17 5 45q-30 -46 -60 -63.5t-77 -17.5q-62 0 -96 34.5t-34 96.5zM117 129q0 -32 15 -49.5t42 -17.5q31 0 59 21t44 57 q19 40 31 103q-20 2 -27 2q-79 0 -121.5 -30t-42.5 -86z" />
<glyph unicode="&#xe6;" horiz-adv-x="716" d="M13 120q0 88 69.5 137t193.5 49h41q8 39 8 61q0 31 -20 49.5t-55 18.5q-33 0 -54 -17.5t-38 -58.5l-90 24q24 64 69 93.5t118 29.5q47 0 78.5 -14t58.5 -48q56 62 136 62q96 0 140 -78q27 -47 27 -128q0 -31 -4 -67h-284q-4 -25 -4 -48q0 -61 17 -89q21 -34 66 -34 q34 0 56.5 21.5t43.5 72.5l81 -25q-55 -144 -186 -144q-78 0 -119 52q-14 18 -31 61q-58 -113 -179 -113q-64 0 -101.5 35.5t-37.5 97.5zM416 299h182q2 30 2 31q0 48 -20 74.5t-56 26.5q-42 0 -70.5 -34.5t-37.5 -97.5zM119 130q0 -31 16 -49.5t44 -18.5q31 0 58 21t42 56 q17 40 28 105h-23q-78 0 -121.5 -30t-43.5 -84z" />
<glyph unicode="&#xe7;" horiz-adv-x="426" d="M120 -83l41 75q-62 10 -95 62t-33 140q0 140 68 233q57 79 154 79q72 0 115 -44.5t43 -118.5v-16l-94 -8q-1 45 -8 66q-15 46 -59 46q-50 0 -78 -61q-37 -84 -37 -188q0 -120 73 -120q34 0 56 26.5t37 85.5l89 -18q-19 -83 -67.5 -127t-120.5 -42l-17 -34q6 1 17 1 q29 0 47.5 -17.5t18.5 -45.5q0 -37 -29.5 -61t-73.5 -24q-57 0 -98 31l21 37q41 -22 69 -22q19 0 31.5 9.5t12.5 24.5t-15 24t-40 9q-15 0 -28 -2z" />
<glyph unicode="&#xe8;" horiz-adv-x="443" d="M303 544l-164 99l42 65l149 -120zM30 197q0 75 23.5 142t65.5 110q54 57 137 57q81 0 123.5 -53t42.5 -154q0 -29 -4 -66h-280q-4 -27 -4 -50q0 -121 83 -121q32 0 54.5 21.5t41.5 72.5l82 -25q-29 -74 -74 -109t-112 -35q-86 0 -132.5 54.5t-46.5 155.5zM146 299h177 q1 18 1 34q0 46 -19 72t-53 26q-41 0 -68.5 -34t-37.5 -98z" />
<glyph unicode="&#xe9;" horiz-adv-x="443" d="M254 545l-27 41l168 122l34 -63zM30 197q0 75 23.5 142t65.5 110q54 57 137 57q81 0 123.5 -53t42.5 -154q0 -29 -4 -66h-280q-4 -27 -4 -50q0 -121 83 -121q32 0 54.5 21.5t41.5 72.5l82 -25q-29 -74 -74 -109t-112 -35q-86 0 -132.5 54.5t-46.5 155.5zM146 299h177 q1 18 1 34q0 46 -19 72t-53 26q-41 0 -68.5 -34t-37.5 -98z" />
<glyph unicode="&#xea;" horiz-adv-x="443" d="M123 562l167 131l133 -130l-73 -7l-68 58l-81 -59zM30 197q0 75 23.5 142t65.5 110q54 57 137 57q81 0 123.5 -53t42.5 -154q0 -29 -4 -66h-280q-4 -27 -4 -50q0 -121 83 -121q32 0 54.5 21.5t41.5 72.5l82 -25q-29 -74 -74 -109t-112 -35q-86 0 -132.5 54.5t-46.5 155.5 zM146 299h177q1 18 1 34q0 46 -19 72t-53 26q-41 0 -68.5 -34t-37.5 -98z" />
<glyph unicode="&#xeb;" horiz-adv-x="443" d="M363 569q-20 0 -35 15t-15 36t15 36t36 15t36 -15t15 -36q0 -22 -15 -36.5t-37 -14.5zM214 569q-20 0 -35 15t-15 36t15 36t36 15q22 0 36.5 -15t14.5 -36q0 -22 -15 -36.5t-37 -14.5zM30 197q0 75 23.5 142t65.5 110q54 57 137 57q81 0 123.5 -53t42.5 -154 q0 -29 -4 -66h-280q-4 -27 -4 -50q0 -121 83 -121q32 0 54.5 21.5t41.5 72.5l82 -25q-29 -74 -74 -109t-112 -35q-86 0 -132.5 54.5t-46.5 155.5zM146 299h177q1 18 1 34q0 46 -19 72t-53 26q-41 0 -68.5 -34t-37.5 -98z" />
<glyph unicode="&#xec;" horiz-adv-x="221" d="M182 544l-151 101l42 63l135 -120zM18 0l82 493h101l-82 -493h-101z" />
<glyph unicode="&#xed;" horiz-adv-x="221" d="M147 545l-28 41l152 122l37 -63zM18 0l82 493h101l-82 -493h-101z" />
<glyph unicode="&#xee;" horiz-adv-x="221" d="M28 562l147 131l115 -130l-70 -7l-53 58l-66 -59zM18 0l82 493h101l-82 -493h-101z" />
<glyph unicode="&#xef;" horiz-adv-x="221" d="M235 569q-20 0 -35 15t-15 36t15 36t36 15t36 -15t15 -36q0 -22 -15 -36.5t-37 -14.5zM100 569q-20 0 -35 15t-15 36t15 36t36 15q22 0 36.5 -15t14.5 -36q0 -22 -15 -36.5t-37 -14.5zM18 0l82 493h101l-82 -493h-101z" />
<glyph unicode="&#xf0;" horiz-adv-x="460" d="M30 198q0 131 61 219.5t152 88.5q38 0 66 -19q-11 51 -23 83l-74 -27l-16 45l74 27q-12 34 -26 63l68 21q17 -31 29 -59l75 27l16 -45l-72 -26q65 -165 65 -296q0 -143 -60 -228t-162 -85q-173 0 -173 211zM135 165q0 -103 70 -103q54 0 80 65q36 90 36 199 q0 105 -68 105q-48 0 -74 -53q-44 -90 -44 -213z" />
<glyph unicode="&#xf1;" horiz-adv-x="477" d="M191 576l-30 37q41 58 90 58q25 0 68 -20q30 -15 45 -15q14 0 23 6t29 29l30 -37q-38 -59 -86 -59q-23 0 -62 18q-36 18 -51 18q-30 0 -56 -35zM18 0l82 493h89l-16 -93q26 57 59.5 81.5t86.5 24.5q58 0 89 -30t31 -85q0 -34 -12 -106l-47 -285h-101l47 281q11 67 11 83 q0 63 -59 63q-47 0 -76 -50t-48 -164l-35 -213h-101z" />
<glyph unicode="&#xf2;" horiz-adv-x="460" d="M308 544l-164 99l42 65l149 -120zM30 197q0 140 63 224.5t166 84.5q82 0 125 -51.5t43 -149.5q0 -163 -78 -255q-54 -63 -148 -63q-84 0 -127.5 53.5t-43.5 156.5zM136 165q0 -103 70 -103q54 0 80 65q36 90 36 199q0 105 -68 105q-48 0 -74 -53q-44 -90 -44 -213z" />
<glyph unicode="&#xf3;" horiz-adv-x="460" d="M256 545l-27 41l168 122l34 -63zM30 197q0 140 63 224.5t166 84.5q82 0 125 -51.5t43 -149.5q0 -163 -78 -255q-54 -63 -148 -63q-84 0 -127.5 53.5t-43.5 156.5zM136 165q0 -103 70 -103q54 0 80 65q36 90 36 199q0 105 -68 105q-48 0 -74 -53q-44 -90 -44 -213z" />
<glyph unicode="&#xf4;" horiz-adv-x="460" d="M124 562l167 131l133 -130l-73 -7l-68 58l-81 -59zM30 197q0 140 63 224.5t166 84.5q82 0 125 -51.5t43 -149.5q0 -163 -78 -255q-54 -63 -148 -63q-84 0 -127.5 53.5t-43.5 156.5zM136 165q0 -103 70 -103q54 0 80 65q36 90 36 199q0 105 -68 105q-48 0 -74 -53 q-44 -90 -44 -213z" />
<glyph unicode="&#xf5;" horiz-adv-x="460" d="M186 576l-30 37q41 58 90 58q25 0 68 -20q30 -15 45 -15q14 0 23 6t29 29l30 -37q-38 -59 -86 -59q-23 0 -62 18q-36 18 -51 18q-30 0 -56 -35zM30 197q0 140 63 224.5t166 84.5q82 0 125 -51.5t43 -149.5q0 -163 -78 -255q-54 -63 -148 -63q-84 0 -127.5 53.5 t-43.5 156.5zM136 165q0 -103 70 -103q54 0 80 65q36 90 36 199q0 105 -68 105q-48 0 -74 -53q-44 -90 -44 -213z" />
<glyph unicode="&#xf6;" horiz-adv-x="460" d="M361 569q-20 0 -35 15t-15 36t15 36t36 15t36 -15t15 -36q0 -22 -15 -36.5t-37 -14.5zM212 569q-20 0 -35 15t-15 36t15 36t36 15q22 0 36.5 -15t14.5 -36q0 -22 -15 -36.5t-37 -14.5zM30 197q0 140 63 224.5t166 84.5q82 0 125 -51.5t43 -149.5q0 -163 -78 -255 q-54 -63 -148 -63q-84 0 -127.5 53.5t-43.5 156.5zM136 165q0 -103 70 -103q54 0 80 65q36 90 36 199q0 105 -68 105q-48 0 -74 -53q-44 -90 -44 -213z" />
<glyph unicode="&#xf7;" d="M221 418v106h96v-106h-96zM64 294v78h410v-78h-410zM221 143v106h96v-106h-96z" />
<glyph unicode="&#xf8;" horiz-adv-x="460" d="M10 -39l56 88q-35 62 -35 149q0 139 62.5 223.5t166.5 84.5q46 0 86 -20l34 52h60l-53 -84q41 -60 41 -152q0 -162 -78 -252q-52 -63 -145 -63q-56 0 -101 26l-34 -52h-60zM131 139l170 282q-23 16 -46 16q-70 0 -104 -108q-22 -73 -22 -148q0 -24 2 -42zM149 80 q23 -24 59 -24q68 0 102 114q21 75 21 150q0 26 -6 50z" />
<glyph unicode="&#xf9;" horiz-adv-x="477" d="M313 544l-164 99l42 65l149 -120zM34 94q0 28 12 100l50 299h100l-46 -282q-12 -74 -12 -88q0 -56 54 -56q65 0 100 91q15 37 33 143l32 192h101l-83 -493h-88l14 86q-33 -55 -66 -77t-83 -22q-55 0 -86.5 28.5t-31.5 78.5z" />
<glyph unicode="&#xfa;" horiz-adv-x="477" d="M272 545l-27 41l168 122l34 -63zM34 94q0 28 12 100l50 299h100l-46 -282q-12 -74 -12 -88q0 -56 54 -56q65 0 100 91q15 37 33 143l32 192h101l-83 -493h-88l14 86q-33 -55 -66 -77t-83 -22q-55 0 -86.5 28.5t-31.5 78.5z" />
<glyph unicode="&#xfb;" horiz-adv-x="477" d="M137 562l167 131l133 -130l-73 -7l-68 58l-81 -59zM34 94q0 28 12 100l50 299h100l-46 -282q-12 -74 -12 -88q0 -56 54 -56q65 0 100 91q15 37 33 143l32 192h101l-83 -493h-88l14 86q-33 -55 -66 -77t-83 -22q-55 0 -86.5 28.5t-31.5 78.5z" />
<glyph unicode="&#xfc;" horiz-adv-x="477" d="M371 569q-20 0 -35 15t-15 36t15 36t36 15t36 -15t15 -36q0 -22 -15 -36.5t-37 -14.5zM222 569q-20 0 -35 15t-15 36t15 36t36 15q22 0 36.5 -15t14.5 -36q0 -22 -15 -36.5t-37 -14.5zM34 94q0 28 12 100l50 299h100l-46 -282q-12 -74 -12 -88q0 -56 54 -56q65 0 100 91 q15 37 33 143l32 192h101l-83 -493h-88l14 86q-33 -55 -66 -77t-83 -22q-55 0 -86.5 28.5t-31.5 78.5z" />
<glyph unicode="&#xfd;" horiz-adv-x="392" d="M229 545l-27 41l168 122l34 -63zM-22 -90q27 -4 41 -4q36 0 56 22t52 99l-84 466h104l44 -337l140 337h90l-227 -508q-43 -97 -80 -129t-103 -32q-18 0 -43 4z" />
<glyph unicode="&#xfe;" horiz-adv-x="477" d="M130 65l-39 -233h-101l140 835h100l-40 -241q45 80 123 80q63 0 98 -48.5t35 -134.5q0 -152 -69 -258q-23 -36 -60.5 -57t-77.5 -21q-80 0 -109 78zM150 162q0 -44 19 -72t50 -28q52 0 81 65q41 92 41 210q0 94 -61 94q-48 0 -80 -63q-50 -98 -50 -206z" />
<glyph unicode="&#xff;" horiz-adv-x="392" d="M328 569q-20 0 -35 15t-15 36t15 36t36 15t36 -15t15 -36q0 -22 -15 -36.5t-37 -14.5zM179 569q-20 0 -35 15t-15 36t15 36t36 15q22 0 36.5 -15t14.5 -36q0 -22 -15 -36.5t-37 -14.5zM-22 -90q27 -4 41 -4q36 0 56 22t52 99l-84 466h104l44 -337l140 337h90l-227 -508 q-43 -97 -80 -129t-103 -32q-18 0 -43 4z" />
<glyph unicode="&#x152;" horiz-adv-x="801" d="M116 30q-72 66 -72 222q0 97 27 187.5t75 152.5q31 40 77.5 64t95.5 24q95 0 127 -88l13 75h373l-15 -88h-267l-32 -192h225l-15 -86h-224l-36 -213h281l-14 -88h-387l13 78q-52 -91 -132 -91q-67 0 -113 43zM254 76q39 0 69 30t59 99l47 279q-16 56 -41.5 81.5 t-63.5 25.5q-31 0 -59.5 -20.5t-47.5 -55.5q-29 -55 -46.5 -132t-17.5 -150t27 -115t74 -42z" />
<glyph unicode="&#x153;" horiz-adv-x="733" d="M94 26q-62 53 -62 179q0 137 62.5 219t165.5 82q101 0 137 -80q59 80 149 80q45 0 82 -20.5t57 -57.5q27 -47 27 -127q0 -34 -5 -68h-283q-5 -27 -5 -52q0 -119 84 -119q34 0 56.5 21t43.5 73l81 -25q-56 -144 -185 -144q-102 0 -143 81q-61 -81 -150 -81q-68 0 -112 39z M433 299h181q3 21 3 30q0 49 -19.5 75.5t-56.5 26.5q-42 0 -70.5 -34.5t-37.5 -97.5zM209 62q58 0 85 64q35 84 35 198q0 107 -72 107q-55 0 -89 -71t-34 -186q0 -54 19.5 -83t55.5 -29z" />
<glyph unicode="&#x178;" horiz-adv-x="426" d="M369 734q-22 0 -37 15.5t-15 37.5q0 23 15.5 38t37.5 15t37.5 -15t15.5 -38q0 -22 -15.5 -37.5t-38.5 -15.5zM220 734q-21 0 -36.5 15.5t-15.5 37.5q0 23 15 38t38 15t38 -15t15 -38q0 -22 -15.5 -37.5t-38.5 -15.5zM123 0l47 280l-128 387h112l87 -284l170 284h105 l-240 -389l-47 -278h-106z" />
<glyph unicode="&#x2c6;" horiz-adv-x="460" d="M131 562l167 131l133 -130l-73 -7l-68 58l-81 -59z" />
<glyph unicode="&#x2dc;" horiz-adv-x="460" d="M180 576l-30 37q41 58 90 58q25 0 68 -20q30 -15 45 -15q14 0 23 6t29 29l30 -37q-38 -59 -86 -59q-23 0 -62 18q-36 18 -51 18q-30 0 -56 -35z" />
<glyph unicode="&#x2000;" horiz-adv-x="444" />
<glyph unicode="&#x2001;" horiz-adv-x="889" />
<glyph unicode="&#x2002;" horiz-adv-x="444" />
<glyph unicode="&#x2003;" horiz-adv-x="889" />
<glyph unicode="&#x2004;" horiz-adv-x="296" />
<glyph unicode="&#x2005;" horiz-adv-x="222" />
<glyph unicode="&#x2006;" horiz-adv-x="148" />
<glyph unicode="&#x2007;" horiz-adv-x="148" />
<glyph unicode="&#x2008;" horiz-adv-x="111" />
<glyph unicode="&#x2009;" horiz-adv-x="177" />
<glyph unicode="&#x200a;" horiz-adv-x="49" />
<glyph unicode="&#x2010;" horiz-adv-x="256" d="M27 209l14 82h187l-14 -82h-187z" />
<glyph unicode="&#x2011;" horiz-adv-x="256" d="M27 209l14 82h187l-14 -82h-187z" />
<glyph unicode="&#x2013;" horiz-adv-x="426" d="M28 213l12 75h358l-12 -75h-358z" />
<glyph unicode="&#x2014;" horiz-adv-x="647" d="M28 213l12 75h580l-13 -75h-579z" />
<glyph unicode="&#x2018;" horiz-adv-x="204" d="M75 420l20 119l90 128h47l-74 -128h42l-20 -119h-105z" />
<glyph unicode="&#x2019;" horiz-adv-x="204" d="M70 420l74 128h-42l20 119h105l-20 -119l-90 -128h-47z" />
<glyph unicode="&#x201a;" horiz-adv-x="204" d="M10 0l20 119h105l-20 -119l-90 -128h-47l74 128h-42z" />
<glyph unicode="&#x201c;" horiz-adv-x="341" d="M222 420l20 119l90 128h43l-75 -128h42l-20 -119h-100zM70 420l20 119l90 128h43l-74 -128h42l-20 -119h-101z" />
<glyph unicode="&#x201d;" horiz-adv-x="341" d="M216 420l74 128h-42l20 119h101l-20 -119l-91 -128h-42zM64 420l74 128h-42l20 119h101l-20 -119l-91 -128h-42z" />
<glyph unicode="&#x201e;" horiz-adv-x="341" d="M159 0l20 119h101l-20 -119l-91 -128h-42l74 128h-42zM7 0l20 119h101l-20 -119l-91 -128h-42l74 128h-42z" />
<glyph unicode="&#x2022;" horiz-adv-x="667" d="M210 338q0 58 41 98.5t100 40.5q55 0 95.5 -41t40.5 -97q0 -58 -40.5 -98.5t-97.5 -40.5t-98 40.5t-41 97.5z" />
<glyph unicode="&#x2026;" horiz-adv-x="715" d="M497 0l21 125h114l-21 -125h-114zM258 0l21 125h115l-21 -125h-115zM20 0l21 125h114l-21 -125h-114z" />
<glyph unicode="&#x202f;" horiz-adv-x="177" />
<glyph unicode="&#x2039;" horiz-adv-x="222" d="M103 95l-67 156l109 162h58l-72 -162l23 -156h-51z" />
<glyph unicode="&#x203a;" horiz-adv-x="222" d="M19 95l72 162l-23 156h51l67 -156l-109 -162h-58z" />
<glyph unicode="&#x205f;" horiz-adv-x="222" />
<glyph unicode="&#x20ac;" horiz-adv-x="621" d="M149 112q-16 44 -19 120h-85l42 79h46q0 3 4 39h-80l42 79h54q74 251 263 251q89 0 137.5 -54t48.5 -153q0 -16 -1 -25l-107 -14v19q0 137 -86 137q-89 0 -136 -161h181l-42 -79h-156q-1 -6 -6 -39h142l-42 -79h-103q3 -155 95 -155q45 0 75 35.5t50 111.5l101 -26 q-47 -211 -230 -211q-142 0 -188 125z" />
<glyph unicode="&#x2122;" horiz-adv-x="716" d="M330 267v380h109l70 -273l74 273h106v-380h-69v319l-87 -319h-59l-82 320v-320h-62zM140 267v321h-84v59h244v-59h-86v-321h-74z" />
</font>
</defs>
</svg>
