<?xml version="1.0" standalone="no"?>
<!DOCTYPE svg PUBLIC "-//W3C//DTD SVG 1.1//EN" "http://www.w3.org/Graphics/SVG/1.1/DTD/svg11.dtd" >
<svg xmlns="http://www.w3.org/2000/svg">
<metadata>
This is a custom SVG webfont generated by Fontspring.
Designer    : FontSite.com
Foundry URL : http://www.fontsite.com
</metadata>
<defs>
<font id="webfont" horiz-adv-x="511" >
<font-face units-per-em="1000" ascent="827" descent="-173" />
<missing-glyph horiz-adv-x="187" />
<glyph unicode=" "  horiz-adv-x="187" />
<glyph unicode="&#x09;" horiz-adv-x="187" />
<glyph unicode="&#xa0;" horiz-adv-x="187" />
<glyph unicode="!" horiz-adv-x="341" d="M137 179l-34 488h135l-34 -488h-67zM115 0v123h111v-123h-111z" />
<glyph unicode="&#x22;" d="M297 393l-16 274h103l-16 -274h-71zM144 393l-16 274h103l-16 -274h-71z" />
<glyph unicode="#" d="M71 0l35 208h-97l11 68h97l22 129h-97l11 68h97l32 194h72l-32 -194h111l32 194h72l-33 -194h97l-11 -68h-97l-22 -129h97l-11 -68h-97l-35 -208h-72l35 208h-110l-35 -208h-72zM189 276h110l22 129h-110z" />
<glyph unicode="$" d="M45 180l88 30q21 -93 97 -108v198q-58 19 -89 40q-71 49 -71 138q0 43 19 82t51 62q32 24 88 32v66h61v-66q126 -13 163 -134l-79 -33q-16 43 -34 61.5t-54 27.5v-184q97 -25 139 -68.5t42 -116.5q0 -96 -68 -149q-41 -31 -109 -39v-85h-61v85q-75 9 -119 48t-64 113z M230 409v165q-66 -20 -66 -83q0 -31 15.5 -50t50.5 -32zM285 101q86 12 86 91q0 38 -20.5 60t-65.5 32v-183z" />
<glyph unicode="%" horiz-adv-x="681" d="M174 328q-61 0 -96 46.5t-35 126.5t35 126t97 46q60 0 95 -46.5t35 -125.5q0 -80 -35 -126.5t-96 -46.5zM146 0l326 667h66l-326 -667h-66zM174 389q53 0 53 111q0 112 -52 112q-54 0 -54 -111q0 -112 53 -112zM377 167q0 80 35 126t97 46q59 0 94.5 -46.5t35.5 -125.5 q0 -80 -35 -126.5t-96 -46.5t-96 46.5t-35 126.5zM454 165q0 -110 54 -110q53 0 53 111q0 112 -53 112q-54 0 -54 -113z" />
<glyph unicode="&#x26;" horiz-adv-x="630" d="M59 184q0 130 146 198q-59 91 -59 153q0 61 45.5 102.5t111.5 41.5q67 0 108.5 -40t41.5 -105q0 -102 -121 -173l113 -164q39 60 60 175l82 -18q-25 -133 -90 -227q38 -45 70 -45q10 0 31 4v-86q-32 -9 -54 -9q-33 0 -57.5 14.5t-55.5 51.5q-45 -38 -83 -53.5t-88 -15.5 q-89 0 -145 54t-56 142zM288 422q77 44 77 113q0 31 -16.5 50t-43.5 19t-44.5 -18.5t-17.5 -47.5q0 -48 45 -116zM165 189q0 -53 30 -85.5t79 -32.5q60 0 109 52l-135 196q-44 -28 -63.5 -58.5t-19.5 -71.5z" />
<glyph unicode="'" horiz-adv-x="341" d="M135 393l-16 274h103l-16 -274h-71z" />
<glyph unicode="(" horiz-adv-x="255" d="M181 -167q-135 193 -135 417q0 223 135 417h81q-114 -189 -114 -417q0 -229 114 -417h-81z" />
<glyph unicode=")" horiz-adv-x="255" d="M-6 -167q114 188 114 417q0 228 -114 417h81q135 -196 135 -417q0 -223 -135 -417h-81z" />
<glyph unicode="*" d="M219 312l11 132l-110 -73l-34 67l115 51l-115 52l34 67l110 -73l-11 132h73l-11 -132l110 73l34 -67l-115 -52l115 -51l-34 -67l-110 73l11 -132h-73z" />
<glyph unicode="+" d="M213 129v164h-162v81h162v164h85v-164h162v-81h-162v-164h-85z" />
<glyph unicode="," horiz-adv-x="239" d="M69 0v126h111v-120l-72 -147h-49l61 141h-51z" />
<glyph unicode="-" horiz-adv-x="290" d="M39 209v82h211v-82h-211z" />
<glyph unicode="." horiz-adv-x="239" d="M64 0v126h111v-126h-111z" />
<glyph unicode="/" horiz-adv-x="477" d="M-15 -167l368 834h76l-368 -834h-76z" />
<glyph unicode="0" d="M255 -12q-217 0 -217 346q0 345 220 345q86 0 137 -56q78 -82 78 -290q0 -345 -218 -345zM255 70q55 0 79.5 62.5t24.5 201.5q0 136 -24.5 199.5t-77.5 63.5q-55 0 -80 -62t-25 -200q0 -139 24.5 -202t78.5 -63z" />
<glyph unicode="1" d="M116 0v82h115v457q-44 -54 -118 -95v103q86 48 145 127h81v-592h109v-82h-332z" />
<glyph unicode="2" d="M33 0v96q171 147 235.5 229t64.5 151q0 51 -25.5 81.5t-68.5 30.5q-91 0 -107 -135l-99 21q10 54 23.5 84t39.5 59q57 62 151 62q91 0 145.5 -53.5t54.5 -143.5q0 -65 -31 -123t-102 -126q-68 -65 -164 -136h302l-5 -97h-414z" />
<glyph unicode="3" d="M68 55q-35 40 -48 112l95 22q24 -114 119 -114q49 0 78 32t29 86q0 64 -43 93q-13 9 -38.5 15.5t-43.5 4.5l-10 -1h-42v82h42q39 0 56.5 4.5t33.5 17.5q32 27 32 81q0 48 -24.5 76t-67.5 28q-41 0 -66 -23.5t-40 -74.5l-92 21q46 162 208 162q89 0 141 -48t52 -132 q0 -54 -24 -88t-81 -60q123 -33 123 -164q0 -91 -59.5 -145t-159.5 -54q-109 0 -170 67z" />
<glyph unicode="4" d="M30 159v81l240 439h127v-436h83v-84h-83v-159h-108v159h-259zM117 240h178v341z" />
<glyph unicode="5" d="M98 46q-23 23 -35.5 47.5t-20.5 66.5l98 24q15 -57 41 -81t72 -24q53 0 81.5 37t28.5 105q0 65 -27.5 100t-79.5 35q-38 0 -62.5 -17t-41.5 -56l-84 17l21 367h347l-10 -97h-254l-9 -185q28 35 55.5 48.5t68.5 13.5q84 0 133.5 -60t49.5 -162q0 -110 -59 -173.5 t-160 -63.5q-95 0 -153 58z" />
<glyph unicode="6" d="M135 45q-81 84 -81 275q0 169 60.5 264t167.5 95q73 0 122 -40q27 -22 42.5 -48.5t27.5 -73.5l-92 -29q-14 55 -37.5 80t-63.5 25q-62 0 -92 -61.5t-34 -200.5q26 53 59 76t84 23q80 0 131 -61t51 -156q0 -102 -56 -163.5t-149 -61.5q-86 0 -140 57zM168 209 q0 -61 29.5 -98t76.5 -37q99 0 99 136q0 64 -25.5 99t-71.5 35q-49 0 -78.5 -36.5t-29.5 -98.5z" />
<glyph unicode="7" d="M165 0q-1 151 51 299.5t149 270.5h-295l9 97h385v-78q-84 -105 -134 -267.5t-48 -321.5h-117z" />
<glyph unicode="8" d="M34 170q0 58 29 97.5t95 71.5q-55 34 -78 70t-23 87q0 82 56.5 132.5t148.5 50.5q89 0 142 -46t53 -124q0 -50 -24 -85t-79 -64q124 -63 124 -177q0 -88 -62.5 -141.5t-164.5 -53.5q-101 0 -159 48.5t-58 133.5zM270 396l22 11q69 40 69 100q0 42 -28 68.5t-72 26.5 t-71 -25.5t-27 -65.5q0 -39 24.5 -66t82.5 -49zM134 176q0 -49 33 -79t88 -30q52 0 84.5 27.5t32.5 71.5t-29 72.5t-106 59.5q-57 -25 -80 -52.5t-23 -69.5z" />
<glyph unicode="9" d="M43 134l95 28q13 -48 35 -68t60 -20q70 0 96 86q18 56 22 165q-26 -48 -57 -68.5t-79 -20.5q-80 0 -131.5 62t-51.5 157q0 101 57.5 162.5t151.5 61.5q215 0 215 -323q0 -181 -58.5 -274.5t-171.5 -93.5q-72 0 -114 33.5t-69 112.5zM240 327q46 0 74 36.5t28 96.5 q0 59 -28 96t-72 37q-48 0 -75.5 -36.5t-27.5 -98.5q0 -61 27 -96t74 -35z" />
<glyph unicode=":" horiz-adv-x="239" d="M64 367v126h111v-126h-111zM64 0v126h111v-126h-111z" />
<glyph unicode=";" horiz-adv-x="239" d="M69 367v126h111v-126h-111zM69 0v126h111v-120l-72 -147h-49l61 141h-51z" />
<glyph unicode="&#x3c;" d="M29 285v96l433 215v-112l-313 -151l312 -152l1 -112z" />
<glyph unicode="=" d="M51 362v81h409v-81h-409zM51 224v81h409v-81h-409z" />
<glyph unicode="&#x3e;" d="M49 69v113l313 151l-312 152l-1 111l433 -216v-95z" />
<glyph unicode="?" horiz-adv-x="494" d="M176 178v20q0 75 14 105t70 77q60 49 60 119q0 44 -23 68.5t-63 24.5q-47 0 -71.5 -33.5t-29.5 -104.5l-95 18q18 207 202 207q88 0 139.5 -49.5t51.5 -133.5q0 -55 -22 -94.5t-78 -85.5q-41 -34 -53 -54.5t-11 -57.5l1 -26h-92zM167 0v120h109v-120h-109z" />
<glyph unicode="@" horiz-adv-x="596" d="M7 251q0 159 86 258t224 99q125 0 198.5 -81t73.5 -219q0 -107 -46 -177.5t-116 -70.5q-31 0 -47.5 13t-25.5 44q-31 -59 -86 -59q-50 0 -79.5 44t-29.5 118q0 93 40.5 155.5t101.5 62.5q29 0 47.5 -14.5t32.5 -46.5l7 54h59l-29 -206q-6 -48 -6 -67q0 -34 25 -34 q36 0 60 50.5t24 126.5q0 115 -55.5 181.5t-150.5 66.5q-103 0 -169 -83t-66 -214q0 -129 68 -207t180 -78q88 0 177 52l23 -53q-105 -58 -204 -58q-144 0 -230.5 94t-86.5 249zM282 131q31 0 50 42t19 109q0 39 -12 61t-32 22q-32 0 -51.5 -40.5t-19.5 -104.5 q0 -41 12.5 -65t33.5 -24z" />
<glyph unicode="A" horiz-adv-x="494" d="M-4 0l193 667h124l178 -667h-112l-42 167h-195l-41 -167h-105zM164 254h151l-75 305z" />
<glyph unicode="B" horiz-adv-x="545" d="M64 0v667h202q60 0 88.5 -5t53.5 -20q31 -19 49.5 -58t18.5 -87q0 -56 -23.5 -91t-75.5 -55q47 -14 72 -40q47 -49 47 -127q0 -104 -76 -152q-49 -32 -151 -32h-205zM172 390h70q65 0 93 22.5t28 74.5q0 50 -26 72.5t-84 22.5h-81v-192zM172 88h89q122 0 122 107 q0 61 -40 89q-29 21 -91 21h-80v-217z" />
<glyph unicode="C" horiz-adv-x="528" d="M283 -12q-116 0 -178.5 89.5t-62.5 255.5t63.5 256t179.5 90q186 0 217 -228l-103 -15q-9 73 -28 104q-29 48 -84 48q-128 0 -128 -260q0 -249 129 -249q47 0 72.5 33t38.5 112l102 -14q-31 -222 -218 -222z" />
<glyph unicode="D" horiz-adv-x="562" d="M64 0v667h150q124 0 194 -51q53 -40 82.5 -112t29.5 -164q0 -103 -35 -182t-99 -119q-61 -39 -164 -39h-158zM174 88h46q183 0 183 246q0 121 -46.5 183t-136.5 62h-46v-491z" />
<glyph unicode="E" horiz-adv-x="460" d="M64 0v667h382v-88h-272v-192h213v-88h-213v-209h276v-90h-386z" />
<glyph unicode="F" horiz-adv-x="426" d="M64 0v667h370v-88h-260v-200h208v-88h-208v-291h-110z" />
<glyph unicode="G" horiz-adv-x="562" d="M280 -12q-111 0 -174.5 90.5t-63.5 248.5q0 169 65.5 260.5t185.5 91.5q93 0 145 -48.5t72 -154.5l-100 -25q-15 64 -32 92q-29 45 -85 45q-134 0 -134 -255q0 -254 137 -254q114 0 114 172v2h-119v89h222v-347h-59l-14 85q-55 -92 -160 -92z" />
<glyph unicode="H" horiz-adv-x="545" d="M64 0v667h110v-277h197v277h110v-667h-110v297h-197v-297h-110z" />
<glyph unicode="I" horiz-adv-x="239" d="M64 0v667h110v-667h-110z" />
<glyph unicode="J" horiz-adv-x="307" d="M-16 0v92q34 -10 65 -10q54 0 71 33q15 29 15 137v415h110v-415q0 -100 -10 -146.5t-38 -75.5q-42 -42 -127 -42q-31 0 -86 12z" />
<glyph unicode="K" d="M64 0v667h110v-318l201 318h117l-172 -245l201 -422h-119l-149 330l-79 -111v-219h-110z" />
<glyph unicode="L" horiz-adv-x="409" d="M64 0v667h110v-574h236v-93h-346z" />
<glyph unicode="M" horiz-adv-x="715" d="M62 0v667h163l133 -481l137 481h157v-667h-104v569l-158 -569h-81l-155 570v-570h-92z" />
<glyph unicode="N" horiz-adv-x="562" d="M60 0v667h130l219 -481v481h92v-667h-103l-246 534v-534h-92z" />
<glyph unicode="O" horiz-adv-x="562" d="M283 -12q-117 0 -179 88t-62 255q0 172 61.5 260t182.5 88q114 0 174.5 -89t60.5 -257q0 -169 -61 -257t-177 -88zM281 79q71 0 100 77q24 62 24 178q0 254 -122 254q-64 0 -94.5 -61.5t-30.5 -192.5t30 -193t93 -62z" />
<glyph unicode="P" horiz-adv-x="494" d="M64 0v667h165q118 0 168 -35q77 -55 77 -168q0 -122 -83 -172q-29 -18 -63 -24.5t-97 -6.5h-57v-261h-110zM174 349h55q73 0 98 25q31 29 31 92q0 67 -39 98q-14 11 -31 14.5t-59 3.5h-55v-233z" />
<glyph unicode="Q" horiz-adv-x="562" d="M283 -11q-241 2 -241 344q0 169 61.5 257.5t179.5 88.5q116 0 177 -88t61 -256q0 -198 -80 -284q-23 -23 -72 -46q0 -41 14 -56.5t51 -15.5q25 0 51 9v-84q-35 -12 -65 -12q-69 0 -102 34.5t-35 108.5zM281 78q64 0 94 62.5t30 192.5q0 255 -122 255q-65 0 -95 -61.5 t-30 -192.5t30 -193.5t93 -62.5z" />
<glyph unicode="R" horiz-adv-x="528" d="M64 0v667h200q99 0 149 -38q64 -52 64 -152q0 -120 -102 -175l126 -302h-119l-104 279h-104v-279h-110zM174 364h85q52 0 80.5 29.5t28.5 84.5q0 104 -109 104h-85v-218z" />
<glyph unicode="S" d="M85 51q-43 43 -62 123l98 28q27 -123 135 -123q49 0 78.5 26.5t29.5 69.5q0 37 -24.5 61t-88.5 48q-70 27 -93.5 38.5t-47.5 32.5q-60 52 -60 136q0 83 57 135.5t148 52.5q88 0 145 -52q37 -34 60 -109l-94 -33q-19 56 -45.5 79.5t-71.5 23.5q-40 0 -65.5 -23.5 t-25.5 -60.5q0 -35 27 -59q24 -20 106 -52q88 -33 126 -66q60 -52 60 -137q0 -89 -62 -145.5t-161 -56.5q-106 0 -169 63z" />
<glyph unicode="T" horiz-adv-x="375" d="M131 0v573h-147v94h407v-94h-150v-573h-110z" />
<glyph unicode="U" horiz-adv-x="545" d="M95 61q-36 53 -36 192v414h108v-414q0 -101 19 -131q27 -43 94 -43q70 0 93 52q14 29 14 124v412h99v-407q0 -88 -9 -131.5t-34 -73.5q-54 -67 -170 -67q-126 0 -178 73z" />
<glyph unicode="V" horiz-adv-x="460" d="M168 0l-172 667h116l127 -532l126 532h98l-176 -668z" />
<glyph unicode="W" horiz-adv-x="699" d="M146 -1l-144 668h112l90 -500l105 500h95l104 -500l95 500h93l-141 -668h-99l-105 489l-104 -489h-101z" />
<glyph unicode="X" horiz-adv-x="443" d="M-14 0l178 345l-157 322h123l96 -213l106 213h103l-154 -303l175 -364h-124l-113 255l-128 -255h-105z" />
<glyph unicode="Y" horiz-adv-x="409" d="M145 0v282l-177 385h120l122 -278l125 278h105l-185 -385v-282h-110z" />
<glyph unicode="Z" horiz-adv-x="426" d="M1 0v85l293 492h-275v90h400v-77l-295 -497h303v-93h-426z" />
<glyph unicode="[" horiz-adv-x="255" d="M72 -167v834h173v-56h-78v-722h78v-56h-173z" />
<glyph unicode="\" horiz-adv-x="477" d="M416 -167l-368 834h76l368 -834h-76z" />
<glyph unicode="]" horiz-adv-x="255" d="M11 -111h79v722h-79v56h174v-834h-174v56z" />
<glyph unicode="^" horiz-adv-x="500" d="M11 343l165 327h149l165 -327h-119l-121 237l-120 -237h-119z" />
<glyph unicode="_" horiz-adv-x="500" d="M0 -52h500v-102h-500v102z" />
<glyph unicode="`" horiz-adv-x="500" d="M288 552l-172 108l53 67l156 -137z" />
<glyph unicode="a" horiz-adv-x="460" d="M35 130q0 96 72 140q57 35 175 35q13 0 22 -1v20q0 56 -17 81t-56 25q-65 0 -80 -76l-98 12q12 67 60.5 103t125.5 36q94 0 138 -55q17 -20 23 -50.5t6 -95.5v-168q0 -102 8 -136h-96q-6 29 -6 82q-29 -52 -59.5 -73t-79.5 -21q-63 0 -100.5 38.5t-37.5 103.5zM141 138 q0 -36 17 -55.5t49 -19.5q39 0 67 41q30 42 30 112v24q-26 2 -30 2q-133 0 -133 -104z" />
<glyph unicode="b" horiz-adv-x="477" d="M59 0v667h101v-230q26 35 52 50t63 15q78 0 122 -66.5t44 -185.5q0 -125 -47 -192.5t-135 -67.5q-46 0 -72 17t-48 60q-14 -35 -22 -67h-58zM246 67q46 0 66.5 43.5t20.5 142.5q0 92 -20 133t-64 41q-40 0 -64.5 -35t-24.5 -91v-93q0 -141 86 -141z" />
<glyph unicode="c" horiz-adv-x="409" d="M222 -12q-91 0 -138.5 66t-47.5 192t49.5 192.5t143.5 66.5q81 0 123 -48q22 -25 32.5 -52.5t17.5 -77.5l-98 -10q-7 61 -23 84t-51 23q-46 0 -66.5 -43.5t-20.5 -143.5q0 -165 87 -165q35 0 51.5 24t22.5 83l98 -9q-12 -87 -46 -128q-43 -54 -134 -54z" />
<glyph unicode="d" horiz-adv-x="477" d="M200 -9q-79 0 -122.5 67t-43.5 187q0 119 45.5 188t123.5 69q77 0 113 -66v231h101v-667h-93v75q-22 -46 -50.5 -65t-73.5 -19zM228 68q41 0 69 43q19 31 19 94v85q0 41 -4.5 59.5t-19.5 39.5q-27 38 -65 38q-85 0 -85 -172q0 -98 20.5 -142.5t65.5 -44.5z" />
<glyph unicode="e" horiz-adv-x="443" d="M159 111q25 -46 76 -46q35 0 55.5 21.5t31.5 70.5l93 -13q-16 -66 -51 -103q-50 -53 -132 -53q-94 0 -145 66t-51 185q0 124 52.5 195t144.5 71q49 0 89 -23t61 -63q20 -38 27 -77t9 -111h-279q0 -85 19 -120zM142 300h173q0 63 -22 96.5t-63 33.5q-79 0 -88 -130z" />
<glyph unicode="f" horiz-adv-x="256" d="M75 0v411h-65v82h65q1 62 6.5 91t19.5 50q35 52 118 52q30 0 59 -5v-82q-21 4 -38 4q-38 0 -52 -18t-14 -66v-26h89v-82h-89v-411h-99z" />
<glyph unicode="g" horiz-adv-x="443" d="M27 -58q0 70 72 95q-54 32 -54 81q0 62 73 99q-35 25 -49.5 53.5t-14.5 72.5q0 72 48 117t125 45q46 0 93 -22q9 50 29 70.5t62 20.5q2 0 32 -2v-75q-12 2 -24 2q-43 0 -53 -53q38 -47 38 -106q0 -70 -48 -114.5t-124 -44.5q-27 0 -62 9q-37 -16 -37 -43t28 -35 q18 -4 96 -9q66 -4 93.5 -9.5t48.5 -18.5q50 -30 50 -104t-57.5 -113.5t-166.5 -39.5q-96 0 -147 32t-51 92zM229 245q33 0 51.5 25.5t18.5 70.5q0 46 -18 71.5t-51 25.5q-71 0 -71 -99q0 -44 18.5 -69t51.5 -25zM119 -42q0 -36 28 -52.5t90 -16.5q117 0 117 68q0 33 -24 46 q-20 11 -86 14q-61 3 -83 4q-42 -23 -42 -63z" />
<glyph unicode="h" horiz-adv-x="460" d="M60 0v667h102v-239q21 42 47.5 59.5t69.5 17.5q81 0 109 -64q15 -33 15 -130v-311h-102v311q0 62 -9 80q-14 32 -51 32q-79 0 -79 -141v-282h-102z" />
<glyph unicode="i" horiz-adv-x="222" d="M57 559v108h107v-108h-107zM59 0v493h102v-493h-102z" />
<glyph unicode="j" horiz-adv-x="222" d="M60 559v108h107v-108h-107zM62 19v474h102v-475q0 -66 -4 -95t-16 -49q-31 -52 -107 -52q-25 0 -62 8v84q20 -5 37 -5q37 0 46 32q4 15 4 78z" />
<glyph unicode="k" horiz-adv-x="426" d="M60 0v667h102v-394l159 220h101l-128 -170l142 -323h-110l-98 247l-66 -90v-157h-102z" />
<glyph unicode="l" horiz-adv-x="222" d="M60 0v667h102v-667h-102z" />
<glyph unicode="m" horiz-adv-x="699" d="M60 0v493h94v-75q23 49 50 68t72 19q48 0 74.5 -21.5t38.5 -70.5q20 49 49.5 70.5t75.5 21.5q78 0 110 -57q18 -35 18 -136v-312h-102v304q0 64 -8 85q-12 34 -52 34q-77 0 -77 -134v-289h-102v301q0 65 -6 84q-13 38 -57 38q-48 0 -66 -49q-10 -26 -10 -87v-287h-102z " />
<glyph unicode="n" horiz-adv-x="460" d="M60 0v493h94v-76q20 47 48.5 67.5t73.5 20.5q82 0 113 -65q14 -31 14 -122v-318h-102v312q0 63 -9 84q-12 27 -50 27q-43 0 -61.5 -34t-18.5 -113v-276h-102z" />
<glyph unicode="o" horiz-adv-x="460" d="M229 -12q-94 0 -143.5 66t-49.5 191q0 260 196 260q94 0 143 -66.5t49 -192.5q0 -127 -49.5 -192.5t-145.5 -65.5zM230 65q86 0 86 182q0 181 -85 181q-45 0 -66 -43.5t-21 -137.5t21 -138t65 -44z" />
<glyph unicode="p" horiz-adv-x="477" d="M160 51v-218h-101v660h94v-81q23 48 51 69t71 21q76 0 121 -67t45 -181q0 -150 -68 -223q-38 -40 -103 -40q-37 0 -61 13t-49 47zM182 104q24 -36 64 -36q87 0 87 183q0 176 -85 176q-47 0 -73 -55q-15 -30 -15 -84v-82q0 -45 4 -64t18 -38z" />
<glyph unicode="q" horiz-adv-x="477" d="M198 -9q-76 0 -120 66.5t-44 182.5q0 152 70 221q43 41 105 41q42 0 70 -19t51 -63q16 30 31 77h56q-2 -34 -2 -115v-549h-102v230q-45 -72 -115 -72zM226 68q42 0 69 54q18 37 18 104v64q0 61 -24 99t-62 38q-44 0 -64.5 -43.5t-20.5 -135.5q0 -180 84 -180z" />
<glyph unicode="r" horiz-adv-x="273" d="M60 0v493h90v-110q41 121 122 121q11 0 19 -2v-106q-10 2 -20 2q-109 0 -109 -147v-251h-102z" />
<glyph unicode="s" horiz-adv-x="392" d="M61 34q-33 32 -45 97l86 17q18 -85 96 -85q35 0 56 18t21 48q0 27 -18.5 42.5t-68.5 31.5q-81 26 -113 53q-42 37 -42 98q0 65 47 108t117 43q123 0 160 -127l-80 -22q-24 74 -83 74q-28 0 -46 -17t-18 -44q0 -30 24 -48q15 -10 75 -29q67 -22 98 -46q48 -37 48 -103 q0 -68 -50.5 -111.5t-130.5 -43.5q-85 0 -133 46z" />
<glyph unicode="t" horiz-adv-x="272" d="M88 43q-11 22 -14.5 49.5t-3.5 93.5v225h-64v82h67l5 129l92 9v-138h94v-82h-94v-218q0 -55 2.5 -72.5t11.5 -28.5q16 -18 55 -18q13 0 41 3v-81q-44 -8 -75 -8q-88 0 -117 55z" />
<glyph unicode="u" horiz-adv-x="460" d="M74 47q-17 34 -17 131v315h102v-313q0 -60 6 -76q11 -34 52 -34q47 0 66 47q15 35 15 139v237h102v-493h-94v74q-24 -48 -51.5 -67t-72.5 -19q-79 0 -108 59z" />
<glyph unicode="v" horiz-adv-x="358" d="M135 0l-141 493h100l92 -354l91 354h88l-139 -493h-91z" />
<glyph unicode="w" horiz-adv-x="562" d="M123 0l-124 493h100l73 -339l71 339h90l70 -341l78 341h82l-122 -493h-86l-75 342l-71 -342h-86z" />
<glyph unicode="x" horiz-adv-x="358" d="M-17 0l143 256l-127 237h113l71 -143l76 143h94l-124 -223l146 -270h-114l-89 174l-93 -174h-96z" />
<glyph unicode="y" horiz-adv-x="358" d="M12 -89q26 -3 36 -3q41 0 57 19t35 89l-140 477h102l85 -338l89 338h92l-160 -524q-24 -78 -50 -109q-33 -37 -94 -37q-25 0 -52 7v81z" />
<glyph unicode="z" horiz-adv-x="341" d="M15 0v77l200 339h-182v77h299v-62l-207 -354h209v-77h-319z" />
<glyph unicode="{" horiz-adv-x="255" d="M89 -11v119q0 55 -2 70.5t-9 25.5q-13 17 -42 17v70q30 0 42 16q7 10 9 25.5t2 70.5v108q0 87 28 123t95 34l31 -1v-58q-40 -1 -50 -17.5t-10 -80.5v-106q0 -86 -10 -110.5t-51 -38.5q41 -15 51 -39.5t10 -110.5v-117q0 -65 10 -81.5t50 -16.5v-58q-12 -1 -31 -1 q-68 0 -95.5 35.5t-27.5 121.5z" />
<glyph unicode="|" horiz-adv-x="500" d="M193 -167v834h113v-834h-113z" />
<glyph unicode="}" horiz-adv-x="255" d="M72 -11v117q0 87 9 108q6 16 17 24.5t35 17.5q-25 9 -36.5 19t-17.5 30q-7 21 -7 100v106q0 64 -10 80.5t-50 17.5v58l31 1q67 2 95 -34t28 -123v-108q0 -56 1.5 -71t9.5 -25q12 -16 42 -16v-70q-29 0 -42 -16q-8 -11 -9.5 -25.5t-1.5 -71.5v-119q0 -86 -27.5 -121.5 t-95.5 -35.5q-19 0 -31 1v58q40 0 50 16.5t10 81.5z" />
<glyph unicode="~" horiz-adv-x="667" d="M148 238l-57 37q20 44 36 69q41 59 108 59q37 0 108 -30q66 -28 92 -28q25 0 42.5 12.5t38.5 46.5l59 -34q-32 -67 -65 -92q-40 -31 -88 -31q-29 0 -143 46q-33 12 -52 12q-24 0 -41.5 -14.5t-37.5 -52.5z" />
<glyph unicode="&#xa1;" horiz-adv-x="341" d="M115 370v123h111v-123h-111zM103 -174l34 488h67l34 -488h-135z" />
<glyph unicode="&#xa2;" d="M164 132q-82 60 -82 205q0 147 78 209q28 22 76 30v91h58v-91q58 -7 94.5 -50t44.5 -114l-85 -11q-8 75 -56 99v-317q26 12 38 33t18 65l85 -11q-17 -148 -139 -166v-109h-58v109q-46 8 -72 28zM239 185v312q-31 -16 -45 -52.5t-14 -103.5q0 -124 59 -156z" />
<glyph unicode="&#xa3;" d="M19 0v88h34q51 0 77 21q49 37 49 121q0 31 -7 81h-97v79h84q-11 66 -11 105q0 85 48 134.5t131 49.5q59 0 96.5 -25.5t61.5 -81.5l-78 -48q-28 71 -81 71q-72 0 -72 -99q0 -23 10 -93v-2q0 -2 1 -5t1 -6h127v-79h-117q4 -29 4 -52q0 -59 -18.5 -98.5t-63.5 -73.5h75 q74 0 108 17q38 19 62 72l79 -41q-28 -73 -69 -102q-28 -20 -64 -26.5t-116 -6.5h-254z" />
<glyph unicode="&#xa4;" d="M102 133l-57 56l69 69q-24 41 -24 85q0 43 23 85l-69 69l58 58l69 -69q40 23 84 23q45 0 86 -25l69 69l56 -56l-69 -69q24 -40 24 -84q0 -43 -24 -85l69 -69l-58 -57l-68 68q-43 -23 -85 -23q-43 0 -85 24zM254 258q36 0 61.5 25t25.5 60q0 36 -25 61t-61 25 q-35 0 -60 -25t-25 -60t25 -60.5t59 -25.5z" />
<glyph unicode="&#xa5;" d="M204 0v210h-157v61h156l-30 69h-126v61h99l-119 266h112l123 -299l127 299h95l-123 -266h111v-61h-139l-30 -69h169v-61h-169v-210h-99z" />
<glyph unicode="&#xa6;" horiz-adv-x="500" d="M193 324v343h113v-343h-113zM193 153h113v-320h-113v320z" />
<glyph unicode="&#xa7;" d="M58 -21l90 16q11 -47 37 -68.5t72 -21.5q45 0 71 22.5t26 62.5q0 41 -30 65q-24 19 -96 46q-77 29 -109 57q-43 38 -43 102q0 44 18.5 76.5t61.5 62.5q-60 50 -60 125q0 69 47 112t123 43q86 0 134 -46q28 -28 45 -84l-84 -20q-13 42 -34.5 60t-58.5 18q-35 0 -56 -20 t-21 -53q0 -37 27 -59q19 -15 85 -42q70 -27 101 -56q41 -36 41 -101q0 -41 -15.5 -71t-55.5 -64q41 -29 59 -60.5t18 -77.5q0 -79 -54 -127t-143 -48q-94 0 -147 53q-34 33 -49 98zM198 223q14 -11 99 -45l15 -6q46 37 46 81q0 47 -61 77l-83 37q-49 -39 -49 -83 q0 -38 33 -61z" />
<glyph unicode="&#xa8;" horiz-adv-x="500" d="M325 568q-20 0 -35.5 15.5t-15.5 35.5q0 22 15 37.5t37 15.5t37 -15.5t15 -36.5q0 -22 -15.5 -37t-37.5 -15zM170 568q-20 0 -35.5 15.5t-15.5 35.5q0 22 15 37.5t37 15.5t37 -15t15 -37t-15.5 -37t-37.5 -15z" />
<glyph unicode="&#xa9;" horiz-adv-x="781" d="M42 333q0 143 102 244.5t247 101.5t246.5 -101.5t101.5 -246.5q0 -143 -103 -243t-251 -100q-139 0 -241 102.5t-102 242.5zM115 333q0 -114 80.5 -196.5t190.5 -82.5q117 0 198.5 80.5t81.5 196.5q0 118 -80.5 200t-195.5 82q-114 0 -194.5 -82t-80.5 -198zM236 333 q0 100 42.5 154t119.5 54q64 0 100 -35t47 -108l-79 -11q-7 50 -21.5 70t-44.5 20q-76 0 -76 -147q0 -140 76 -140q29 0 43.5 19t22.5 67l78 -10q-19 -140 -147 -140q-77 0 -119 53.5t-42 153.5z" />
<glyph unicode="&#xaa;" horiz-adv-x="307" d="M114 260q-42 0 -67.5 24.5t-25.5 64.5q0 108 161 108h10v8v5q0 47 -40 47q-35 0 -44 -40l-76 9q21 87 124 87q67 0 95 -36q18 -23 18 -87v-97q0 -62 8 -86h-65q-2 15 -5 47q-37 -54 -93 -54zM136 316q56 0 56 83v8q-8 1 -18 1q-73 0 -73 -54q0 -38 35 -38z" />
<glyph unicode="&#xab;" horiz-adv-x="392" d="M291 96l-94 160l94 160h58l-53 -160l53 -160h-58zM138 100l-94 157l94 156h57l-53 -156l53 -157h-57z" />
<glyph unicode="&#xac;" d="M39 165v102h433v-267h-113v165h-320z" />
<glyph unicode="&#xad;" horiz-adv-x="290" d="M39 209v82h211v-82h-211z" />
<glyph unicode="&#xae;" horiz-adv-x="781" d="M42 333q0 143 102 244.5t247 101.5t246.5 -101.5t101.5 -246.5q0 -143 -103 -243t-251 -100q-139 0 -241 102.5t-102 242.5zM115 333q0 -114 80.5 -196.5t190.5 -82.5q117 0 198.5 80.5t81.5 196.5q0 118 -80.5 200t-195.5 82q-114 0 -194.5 -82t-80.5 -198zM256 133v400 h135q66 0 98 -23q45 -33 45 -93q0 -73 -64 -105l82 -179h-91l-66 162h-55v-162h-84zM340 356h47q64 0 64 61q0 55 -63 55h-48v-116z" />
<glyph unicode="&#xaf;" horiz-adv-x="500" d="M115 586v64h270v-64h-270z" />
<glyph unicode="&#xb0;" d="M255 367q-65 0 -110.5 45.5t-45.5 110.5t46 110.5t112 45.5q63 0 108.5 -46t45.5 -110q0 -65 -45.5 -110.5t-110.5 -45.5zM255 433q32 0 55 26.5t23 63.5t-23 63.5t-54 26.5q-33 0 -56 -26t-23 -64q0 -37 23 -63.5t55 -26.5z" />
<glyph unicode="&#xb1;" d="M213 134v159h-162v81h162v164h85v-164h162v-81h-162v-159h-85zM51 5v81h409v-81h-409z" />
<glyph unicode="&#xb2;" horiz-adv-x="340" d="M23 267v65q107 85 147 132t40 86q0 26 -14 42t-37 16q-51 0 -60 -80l-77 15q12 62 43 93q38 38 99 38q60 0 96.5 -33t36.5 -87q0 -70 -80 -143q-42 -38 -96 -74h179l-4 -70h-273z" />
<glyph unicode="&#xb3;" horiz-adv-x="340" d="M49 301q-24 24 -35 74l74 16q14 -67 70 -67q27 0 43 17t16 45q0 31 -18.5 45t-58.5 14h-33v58h33q38 0 51 11q18 15 18 42q0 55 -51 55q-23 0 -37 -13.5t-23 -44.5l-72 15q30 106 139 106q59 0 93.5 -29.5t34.5 -79.5q0 -32 -14 -51.5t-48 -35.5q74 -24 74 -97 q0 -54 -40 -87.5t-104 -33.5q-73 0 -112 41z" />
<glyph unicode="&#xb4;" horiz-adv-x="500" d="M239 552l-37 38l157 137l52 -67z" />
<glyph unicode="&#xb5;" d="M181 35v-202h-102v660h102v-266q0 -74 12 -109q18 -53 63 -53q39 0 56.5 38.5t17.5 123.5v266h102v-493h-86v53q-25 -65 -90 -65q-47 0 -75 47z" />
<glyph unicode="&#xb6;" d="M259 -167v446h-37q-60 0 -91.5 8.5t-56.5 31.5q-58 50 -58 155q0 56 20.5 100.5t56.5 66.5q41 26 132 26h217v-834h-67v767h-49v-767h-67z" />
<glyph unicode="&#xb7;" horiz-adv-x="239" d="M64 194v126h111v-126h-111z" />
<glyph unicode="&#xb8;" horiz-adv-x="500" d="M206 -83l29 83h47l-16 -47q6 1 14 1q39 0 62 -19.5t23 -52.5q0 -35 -28 -58t-72 -23q-46 0 -96 30l14 36q40 -18 73 -18q40 0 40 31q0 38 -59 38q-11 0 -18 -1h-13z" />
<glyph unicode="&#xb9;" horiz-adv-x="340" d="M76 267v61h73v242q-37 -32 -75 -49v74q54 25 95 76h61v-343h69v-61h-223z" />
<glyph unicode="&#xba;" horiz-adv-x="307" d="M153 260q-62 0 -95.5 40t-33.5 116q0 157 130 157q63 0 96 -40t33 -117q0 -76 -33 -116t-97 -40zM154 318q46 0 46 98q0 99 -46 99q-47 0 -47 -98q0 -99 47 -99z" />
<glyph unicode="&#xbb;" horiz-adv-x="392" d="M197 96l53 160l-53 160h58l94 -160l-94 -160h-58zM44 96l53 160l-53 160h57l94 -160l-94 -160h-57z" />
<glyph unicode="&#xbc;" horiz-adv-x="766" d="M68 267v61h73v242q-37 -32 -75 -49v74q54 25 95 76h61v-343h69v-61h-223zM185 0l325 667h71l-325 -667h-71zM429 92v55l155 260h91v-253h52v-62h-52v-92h-82v92h-164zM496 149h102v185z" />
<glyph unicode="&#xbd;" horiz-adv-x="766" d="M57 267v61h73v242q-37 -32 -75 -49v74q54 25 95 76h61v-343h69v-61h-223zM173 0l325 667h71l-325 -667h-71zM431 0v65q107 86 147 132.5t40 85.5q0 26 -14 42t-37 16q-51 0 -60 -80l-77 15q13 67 48 99t95 32q59 0 95.5 -33t36.5 -87q0 -70 -80 -143q-42 -38 -96 -74h179 l-4 -70h-273z" />
<glyph unicode="&#xbe;" horiz-adv-x="766" d="M65 301q-24 24 -35 74l74 16q14 -67 70 -67q27 0 43 17t16 45q0 31 -18.5 45t-58.5 14h-33v58h33q38 0 51 11q18 15 18 42q0 55 -51 55q-23 0 -37 -13.5t-23 -44.5l-72 15q30 106 139 106q59 0 93.5 -29.5t34.5 -79.5q0 -32 -14 -51.5t-48 -35.5q74 -24 74 -97 q0 -54 -40 -87.5t-104 -33.5q-73 0 -112 41zM204 0l326 667h71l-325 -667h-72zM435 92v55l155 260h91v-253h52v-62h-52v-92h-82v92h-164zM502 149h102v185z" />
<glyph unicode="&#xbf;" horiz-adv-x="494" d="M218 373v120h109v-120h-109zM63 -4q0 55 22.5 95.5t78.5 85.5q40 33 51.5 53.5t11.5 58.5q0 17 -1 26h92v-20q0 -75 -14.5 -106t-69.5 -76q-60 -50 -60 -119q0 -44 23 -68.5t63 -24.5q92 0 101 138l95 -18q-8 -102 -59.5 -154.5t-142.5 -52.5q-88 0 -139.5 49.5 t-51.5 132.5z" />
<glyph unicode="&#xc0;" horiz-adv-x="494" d="M281 726l-200 62l35 81l192 -95zM-4 0l193 667h124l178 -667h-112l-42 167h-195l-41 -167h-105zM164 254h151l-75 305z" />
<glyph unicode="&#xc1;" horiz-adv-x="494" d="M220 726l-27 48l192 95l35 -81zM-4 0l193 667h124l178 -667h-112l-42 167h-195l-41 -167h-105zM164 254h151l-75 305z" />
<glyph unicode="&#xc2;" horiz-adv-x="494" d="M74 733l180 127l179 -127l-89 -7l-90 50l-91 -50zM-4 0l193 667h124l178 -667h-112l-42 167h-195l-41 -167h-105zM164 254h151l-75 305z" />
<glyph unicode="&#xc3;" horiz-adv-x="494" d="M143 734l-44 29q47 73 106 73q26 0 67 -19q39 -18 57 -18q25 0 47 35l45 -29q-48 -74 -107 -74q-25 0 -67 19q-37 18 -55 18q-23 0 -49 -34zM-4 0l193 667h124l178 -667h-112l-42 167h-195l-41 -167h-105zM164 254h151l-75 305z" />
<glyph unicode="&#xc4;" horiz-adv-x="494" d="M335 733q-22 0 -37.5 15.5t-15.5 37.5t15.5 38t37.5 16q23 0 38.5 -16t15.5 -38t-16 -37.5t-38 -15.5zM175 733q-22 0 -37.5 15.5t-15.5 37.5t16 38t38 16t37.5 -16t15.5 -38t-16 -37.5t-38 -15.5zM-4 0l193 667h124l178 -667h-112l-42 167h-195l-41 -167h-105zM164 254 h151l-75 305z" />
<glyph unicode="&#xc5;" horiz-adv-x="494" d="M251 709q-38 0 -66 28t-28 66q0 40 27.5 67.5t67.5 27.5q39 0 66.5 -27.5t27.5 -67.5q0 -39 -28 -66.5t-67 -27.5zM251 759q18 0 31 13t13 31q0 19 -13 32t-31 13q-17 0 -30 -13t-13 -32q0 -18 13 -31t30 -13zM-4 0l193 667h124l178 -667h-112l-42 167h-195l-41 -167 h-105zM164 254h151l-75 305z" />
<glyph unicode="&#xc6;" horiz-adv-x="698" d="M-41 0l303 667h425v-88h-267v-192h210v-88h-210v-209h268v-90h-376v183h-173l-79 -183h-101zM173 268h140v328z" />
<glyph unicode="&#xc7;" horiz-adv-x="528" d="M147 31q-50 38 -77.5 117t-27.5 184q0 166 63.5 256.5t179.5 90.5q186 0 217 -228l-103 -15q-9 73 -28 104q-29 48 -84 48q-128 0 -128 -260q0 -249 129 -249q47 0 72.5 33t38.5 112l102 -14q-14 -107 -68 -164t-143 -58l-13 -38h15q39 0 63 -20t24 -54q0 -37 -29 -60.5 t-74 -23.5t-99 32l14 38q43 -20 75 -20q39 0 39 31q0 24 -25 33q-12 5 -51 5q-8 0 -14 1l26 79q-57 12 -94 40z" />
<glyph unicode="&#xc8;" horiz-adv-x="460" d="M263 726l-200 62l35 81l192 -95zM64 0v667h382v-88h-272v-192h213v-88h-213v-209h276v-90h-386z" />
<glyph unicode="&#xc9;" horiz-adv-x="460" d="M228 726l-27 48l192 95l35 -81zM64 0v667h382v-88h-272v-192h213v-88h-213v-209h276v-90h-386z" />
<glyph unicode="&#xca;" horiz-adv-x="460" d="M80 733l180 127l179 -127l-89 -7l-90 50l-91 -50zM64 0v667h382v-88h-272v-192h213v-88h-213v-209h276v-90h-386z" />
<glyph unicode="&#xcb;" horiz-adv-x="460" d="M340 733q-22 0 -37.5 15.5t-15.5 37.5t15.5 38t37.5 16t38 -16t16 -38t-16 -37.5t-38 -15.5zM180 733q-22 0 -37.5 15.5t-15.5 37.5t15.5 38t38.5 16q22 0 37.5 -16t15.5 -38t-16 -37.5t-38 -15.5zM64 0v667h382v-88h-272v-192h213v-88h-213v-209h276v-90h-386z" />
<glyph unicode="&#xcc;" horiz-adv-x="239" d="M140 726l-187 66l35 77l178 -98zM64 0v667h110v-667h-110z" />
<glyph unicode="&#xcd;" horiz-adv-x="239" d="M95 726l-25 45l177 98l35 -77zM64 0v667h110v-667h-110z" />
<glyph unicode="&#xce;" horiz-adv-x="239" d="M52 726l-86 7l156 127l157 -127l-86 -7l-71 50zM64 0v667h110v-667h-110z" />
<glyph unicode="&#xcf;" horiz-adv-x="239" d="M190 735q-20 0 -35 15t-15 36t15 36t36 15t36 -15t15 -36t-15 -36t-37 -15zM51 735q-21 0 -36 15t-15 35q0 22 15 37t36 15t36 -15t15 -36t-15 -36t-36 -15zM64 0v667h110v-667h-110z" />
<glyph unicode="&#xd0;" horiz-adv-x="562" d="M65 0v303h-57v83h57v281h150q123 0 193 -51q53 -39 82.5 -111.5t29.5 -164.5q0 -102 -35.5 -182t-97.5 -119t-164 -39h-158zM175 88h46q182 0 182 246q0 245 -182 245h-46v-193h123v-83h-123v-215z" />
<glyph unicode="&#xd1;" horiz-adv-x="562" d="M194 734l-44 29q47 73 106 73q26 0 67 -19q39 -18 57 -18q25 0 47 35l45 -29q-48 -74 -107 -74q-25 0 -67 19q-37 18 -55 18q-23 0 -49 -34zM60 0v667h130l219 -481v481h92v-667h-103l-246 534v-534h-92z" />
<glyph unicode="&#xd2;" horiz-adv-x="562" d="M303 726l-200 62l35 81l192 -95zM283 -12q-117 0 -179 88t-62 255q0 172 61.5 260t182.5 88q114 0 174.5 -89t60.5 -257q0 -169 -61 -257t-177 -88zM281 79q71 0 100 77q24 62 24 178q0 254 -122 254q-64 0 -94.5 -61.5t-30.5 -192.5t30 -193t93 -62z" />
<glyph unicode="&#xd3;" horiz-adv-x="562" d="M258 726l-27 48l192 95l35 -81zM283 -12q-117 0 -179 88t-62 255q0 172 61.5 260t182.5 88q114 0 174.5 -89t60.5 -257q0 -169 -61 -257t-177 -88zM281 79q71 0 100 77q24 62 24 178q0 254 -122 254q-64 0 -94.5 -61.5t-30.5 -192.5t30 -193t93 -62z" />
<glyph unicode="&#xd4;" horiz-adv-x="562" d="M108 733l180 127l179 -127l-89 -7l-90 50l-91 -50zM283 -12q-117 0 -179 88t-62 255q0 172 61.5 260t182.5 88q114 0 174.5 -89t60.5 -257q0 -169 -61 -257t-177 -88zM281 79q71 0 100 77q24 62 24 178q0 254 -122 254q-64 0 -94.5 -61.5t-30.5 -192.5t30 -193t93 -62z " />
<glyph unicode="&#xd5;" horiz-adv-x="562" d="M183 734l-44 29q47 73 106 73q26 0 67 -19q39 -18 57 -18q25 0 47 35l45 -29q-48 -74 -107 -74q-25 0 -67 19q-37 18 -55 18q-23 0 -49 -34zM283 -12q-117 0 -179 88t-62 255q0 172 61.5 260t182.5 88q114 0 174.5 -89t60.5 -257q0 -169 -61 -257t-177 -88zM281 79 q71 0 100 77q24 62 24 178q0 254 -122 254q-64 0 -94.5 -61.5t-30.5 -192.5t30 -193t93 -62z" />
<glyph unicode="&#xd6;" horiz-adv-x="562" d="M366 733q-22 0 -37.5 15.5t-15.5 37.5t15.5 38t37.5 16t38 -16t16 -38t-16 -37.5t-38 -15.5zM206 733q-22 0 -37.5 15.5t-15.5 37.5t15.5 38t38.5 16q22 0 37.5 -16t15.5 -38t-16 -37.5t-38 -15.5zM283 -12q-117 0 -179 88t-62 255q0 172 61.5 260t182.5 88 q114 0 174.5 -89t60.5 -257q0 -169 -61 -257t-177 -88zM281 79q71 0 100 77q24 62 24 178q0 254 -122 254q-64 0 -94.5 -61.5t-30.5 -192.5t30 -193t93 -62z" />
<glyph unicode="&#xd7;" d="M133 152l-60 60l122 121l-122 122l60 60l122 -121l122 121l60 -60l-122 -122l122 -121l-60 -60l-122 121z" />
<glyph unicode="&#xd8;" horiz-adv-x="562" d="M62 -41l52 105q-70 84 -70 272q0 166 61 254.5t176 88.5q67 0 125 -34l28 58h70l-52 -104q66 -88 66 -266q0 -169 -60.5 -257t-176.5 -88q-31 0 -46 4t-64 23l-10 4l-29 -60h-70zM170 162l189 406q-33 25 -76 25q-78 0 -108 -78q-25 -63 -25 -184q0 -112 20 -169zM208 95 q29 -21 72 -21q68 0 99.5 63t31.5 196q0 110 -17 164z" />
<glyph unicode="&#xd9;" horiz-adv-x="545" d="M310 726l-200 62l35 81l192 -95zM95 61q-36 53 -36 192v414h108v-414q0 -101 19 -131q27 -43 94 -43q70 0 93 52q14 29 14 124v412h99v-407q0 -88 -9 -131.5t-34 -73.5q-54 -67 -170 -67q-126 0 -178 73z" />
<glyph unicode="&#xda;" horiz-adv-x="545" d="M252 726l-27 48l192 95l35 -81zM95 61q-36 53 -36 192v414h108v-414q0 -101 19 -131q27 -43 94 -43q70 0 93 52q14 29 14 124v412h99v-407q0 -88 -9 -131.5t-34 -73.5q-54 -67 -170 -67q-126 0 -178 73z" />
<glyph unicode="&#xdb;" horiz-adv-x="545" d="M96 733l180 127l179 -127l-89 -7l-90 50l-91 -50zM95 61q-36 53 -36 192v414h108v-414q0 -101 19 -131q27 -43 94 -43q70 0 93 52q14 29 14 124v412h99v-407q0 -88 -9 -131.5t-34 -73.5q-54 -67 -170 -67q-126 0 -178 73z" />
<glyph unicode="&#xdc;" horiz-adv-x="545" d="M360 733q-22 0 -37.5 15.5t-15.5 37.5t15.5 38t37.5 16t38 -16t16 -38t-16 -37.5t-38 -15.5zM200 733q-22 0 -37.5 15.5t-15.5 37.5t15.5 38t38.5 16q22 0 37.5 -16t15.5 -38t-16 -37.5t-38 -15.5zM95 61q-36 53 -36 192v414h108v-414q0 -101 19 -131q27 -43 94 -43 q70 0 93 52q14 29 14 124v412h99v-407q0 -88 -9 -131.5t-34 -73.5q-54 -67 -170 -67q-126 0 -178 73z" />
<glyph unicode="&#xdd;" horiz-adv-x="409" d="M180 726l-27 48l192 95l35 -81zM145 0v282l-177 385h120l122 -278l125 278h105l-185 -385v-282h-110z" />
<glyph unicode="&#xde;" horiz-adv-x="494" d="M64 0v667h110v-104h55q118 0 168 -35q77 -55 77 -168q0 -122 -83 -172q-29 -18 -62.5 -24.5t-97.5 -6.5h-57v-157h-110zM174 245h55q73 0 98 25q31 29 31 92q0 67 -39 98q-14 11 -31.5 14.5t-58.5 3.5h-55v-233z" />
<glyph unicode="&#xdf;" d="M66 -46v411h-58v82h58q0 84 17 131q21 56 71.5 88.5t118.5 32.5q72 0 118 -40t46 -102q0 -113 -161 -152q7 -14 18.5 -22t50.5 -26q83 -39 116.5 -80.5t33.5 -105.5q0 -82 -49.5 -132.5t-130.5 -50.5q-43 0 -97 18l25 74q40 -15 74 -15q37 0 59.5 25t22.5 66t-25 67 q-18 19 -71 48q-55 30 -77 56.5t-22 61.5q0 24 13 60q64 13 93 36t29 61q0 36 -22 57.5t-58 21.5q-51 0 -74 -46q-10 -19 -13.5 -44t-3.5 -86v-495h-102z" />
<glyph unicode="&#xe0;" horiz-adv-x="460" d="M252 552l-172 108l53 67l156 -137zM35 130q0 96 72 140q57 35 175 35q13 0 22 -1v20q0 56 -17 81t-56 25q-65 0 -80 -76l-98 12q12 67 60.5 103t125.5 36q94 0 138 -55q17 -20 23 -50.5t6 -95.5v-168q0 -102 8 -136h-96q-6 29 -6 82q-29 -52 -59.5 -73t-79.5 -21 q-63 0 -100.5 38.5t-37.5 103.5zM141 138q0 -36 17 -55.5t49 -19.5q39 0 67 41q30 42 30 112v24q-26 2 -30 2q-133 0 -133 -104z" />
<glyph unicode="&#xe1;" horiz-adv-x="460" d="M227 552l-37 38l157 137l52 -67zM35 130q0 96 72 140q57 35 175 35q13 0 22 -1v20q0 56 -17 81t-56 25q-65 0 -80 -76l-98 12q12 67 60.5 103t125.5 36q94 0 138 -55q17 -20 23 -50.5t6 -95.5v-168q0 -102 8 -136h-96q-6 29 -6 82q-29 -52 -59.5 -73t-79.5 -21 q-63 0 -100.5 38.5t-37.5 103.5zM141 138q0 -36 17 -55.5t49 -19.5q39 0 67 41q30 42 30 112v24q-26 2 -30 2q-133 0 -133 -104z" />
<glyph unicode="&#xe2;" horiz-adv-x="460" d="M65 563l174 134l175 -134l-87 -7l-88 59l-87 -59zM35 130q0 96 72 140q57 35 175 35q13 0 22 -1v20q0 56 -17 81t-56 25q-65 0 -80 -76l-98 12q12 67 60.5 103t125.5 36q94 0 138 -55q17 -20 23 -50.5t6 -95.5v-168q0 -102 8 -136h-96q-6 29 -6 82q-29 -52 -59.5 -73 t-79.5 -21q-63 0 -100.5 38.5t-37.5 103.5zM141 138q0 -36 17 -55.5t49 -19.5q39 0 67 41q30 42 30 112v24q-26 2 -30 2q-133 0 -133 -104z" />
<glyph unicode="&#xe3;" horiz-adv-x="460" d="M137 572l-41 27q44 75 99 75q23 0 63 -22q36 -20 54 -20q23 0 44 37l42 -28q-46 -75 -100 -75q-24 0 -64 22q-35 20 -50 20q-13 0 -22.5 -7.5t-24.5 -28.5zM35 130q0 96 72 140q57 35 175 35q13 0 22 -1v20q0 56 -17 81t-56 25q-65 0 -80 -76l-98 12q12 67 60.5 103 t125.5 36q94 0 138 -55q17 -20 23 -50.5t6 -95.5v-168q0 -102 8 -136h-96q-6 29 -6 82q-29 -52 -59.5 -73t-79.5 -21q-63 0 -100.5 38.5t-37.5 103.5zM141 138q0 -36 17 -55.5t49 -19.5q39 0 67 41q30 42 30 112v24q-26 2 -30 2q-133 0 -133 -104z" />
<glyph unicode="&#xe4;" horiz-adv-x="460" d="M319 568q-20 0 -35.5 15.5t-15.5 35.5q0 22 15 37.5t37 15.5t37 -15.5t15 -36.5q0 -22 -15.5 -37t-37.5 -15zM164 568q-20 0 -35.5 15.5t-15.5 35.5q0 22 15 37.5t37 15.5t37 -15t15 -37t-15.5 -37t-37.5 -15zM35 130q0 96 72 140q57 35 175 35q13 0 22 -1v20 q0 56 -17 81t-56 25q-65 0 -80 -76l-98 12q12 67 60.5 103t125.5 36q94 0 138 -55q17 -20 23 -50.5t6 -95.5v-168q0 -102 8 -136h-96q-6 29 -6 82q-29 -52 -59.5 -73t-79.5 -21q-63 0 -100.5 38.5t-37.5 103.5zM141 138q0 -36 17 -55.5t49 -19.5q39 0 67 41q30 42 30 112v24 q-26 2 -30 2q-133 0 -133 -104z" />
<glyph unicode="&#xe5;" horiz-adv-x="460" d="M240 544q-37 0 -64 27t-27 64q0 39 27 66t65 27t65 -27t27 -65t-27.5 -65t-65.5 -27zM240 593q18 0 30.5 12.5t12.5 30.5q0 17 -12.5 30t-29.5 13t-29.5 -13t-12.5 -30t12.5 -30t28.5 -13zM35 130q0 96 72 140q57 35 175 35q13 0 22 -1v20q0 56 -17 81t-56 25 q-65 0 -80 -76l-98 12q12 67 60.5 103t125.5 36q94 0 138 -55q17 -20 23 -50.5t6 -95.5v-168q0 -102 8 -136h-96q-6 29 -6 82q-29 -52 -59.5 -73t-79.5 -21q-63 0 -100.5 38.5t-37.5 103.5zM141 138q0 -36 17 -55.5t49 -19.5q39 0 67 41q30 42 30 112v24q-26 2 -30 2 q-133 0 -133 -104z" />
<glyph unicode="&#xe6;" horiz-adv-x="698" d="M35 132q0 54 28 95.5t75 57.5q57 20 161 20q1 11 1 25q0 52 -18 76t-56 24q-66 0 -81 -78l-93 12q25 141 179 141q90 0 131 -61q52 59 133 59q85 0 136 -77q40 -59 43 -195h-277q0 -86 23.5 -126t72.5 -40q34 0 53.5 21t30.5 70l91 -13q-19 -80 -61.5 -117.5 t-115.5 -37.5q-53 0 -88.5 22t-60.5 71q-32 -50 -69.5 -71.5t-92.5 -21.5q-66 0 -105.5 39t-39.5 105zM399 300h171q-3 131 -83 131q-79 0 -88 -131zM139 138q0 -75 65 -75q44 0 71 41.5t25 109.5l-1 26q-4 1 -9 1l-19 1q-65 4 -98.5 -23.5t-33.5 -80.5z" />
<glyph unicode="&#xe7;" horiz-adv-x="409" d="M158 -83l26 74q-148 33 -148 255q0 126 49.5 192.5t143.5 66.5q81 0 123 -48q22 -25 32.5 -52.5t17.5 -77.5l-98 -10q-7 61 -23 84t-51 23q-46 0 -66.5 -43.5t-20.5 -143.5q0 -165 87 -165q35 0 51.5 24t22.5 83l98 -9q-10 -91 -51 -134t-121 -48l-12 -35q6 1 14 1 q39 0 62 -19.5t23 -51.5q0 -36 -28 -59t-72 -23q-47 0 -96 30l14 37q41 -19 73 -19q40 0 40 31q0 38 -59 38q-8 0 -31 -1z" />
<glyph unicode="&#xe8;" horiz-adv-x="443" d="M250 552l-172 108l53 67l156 -137zM159 111q25 -46 76 -46q35 0 55.5 21.5t31.5 70.5l93 -13q-16 -66 -51 -103q-50 -53 -132 -53q-94 0 -145 66t-51 185q0 124 52.5 195t144.5 71q49 0 89 -23t61 -63q20 -38 27 -77t9 -111h-279q0 -85 19 -120zM142 300h173 q0 63 -22 96.5t-63 33.5q-79 0 -88 -130z" />
<glyph unicode="&#xe9;" horiz-adv-x="443" d="M231 552l-37 38l157 137l52 -67zM159 111q25 -46 76 -46q35 0 55.5 21.5t31.5 70.5l93 -13q-16 -66 -51 -103q-50 -53 -132 -53q-94 0 -145 66t-51 185q0 124 52.5 195t144.5 71q49 0 89 -23t61 -63q20 -38 27 -77t9 -111h-279q0 -85 19 -120zM142 300h173q0 63 -22 96.5 t-63 33.5q-79 0 -88 -130z" />
<glyph unicode="&#xea;" horiz-adv-x="443" d="M61 563l174 134l175 -134l-87 -7l-88 59l-87 -59zM159 111q25 -46 76 -46q35 0 55.5 21.5t31.5 70.5l93 -13q-16 -66 -51 -103q-50 -53 -132 -53q-94 0 -145 66t-51 185q0 124 52.5 195t144.5 71q49 0 89 -23t61 -63q20 -38 27 -77t9 -111h-279q0 -85 19 -120zM142 300 h173q0 63 -22 96.5t-63 33.5q-79 0 -88 -130z" />
<glyph unicode="&#xeb;" horiz-adv-x="443" d="M317 568q-20 0 -35.5 15.5t-15.5 35.5q0 22 15 37.5t37 15.5t37 -15.5t15 -36.5q0 -22 -15.5 -37t-37.5 -15zM162 568q-20 0 -35.5 15.5t-15.5 35.5q0 22 15 37.5t37 15.5t37 -15t15 -37t-15.5 -37t-37.5 -15zM159 111q25 -46 76 -46q35 0 55.5 21.5t31.5 70.5l93 -13 q-16 -66 -51 -103q-50 -53 -132 -53q-94 0 -145 66t-51 185q0 124 52.5 195t144.5 71q49 0 89 -23t61 -63q20 -38 27 -77t9 -111h-279q0 -85 19 -120zM142 300h173q0 63 -22 96.5t-63 33.5q-79 0 -88 -130z" />
<glyph unicode="&#xec;" horiz-adv-x="222" d="M111 552l-159 108l53 67l143 -137zM62 0v493h102v-493h-102z" />
<glyph unicode="&#xed;" horiz-adv-x="222" d="M100 552l-37 38l144 137l52 -67zM60 0v493h102v-493h-102z" />
<glyph unicode="&#xee;" horiz-adv-x="222" d="M46 556l-80 7l148 134l148 -134l-81 -7l-67 59zM60 0v493h102v-493h-102z" />
<glyph unicode="&#xef;" horiz-adv-x="222" d="M183 570q-19 0 -34 15t-15 34q0 21 15 36t35 15q21 0 35.5 -15t14.5 -35q0 -21 -15 -35.5t-36 -14.5zM41 570q-19 0 -34 15t-15 34q0 21 14.5 36t35.5 15t35.5 -15t14.5 -35q0 -21 -15 -35.5t-36 -14.5zM60 0v493h102v-493h-102z" />
<glyph unicode="&#xf0;" horiz-adv-x="443" d="M220 -12q-94 0 -143.5 66t-49.5 192q0 118 46 188.5t123 70.5q36 0 69 -26q-21 52 -44 94l-67 -40l-27 45l68 41q-1 2 -2 4.5t-2 4t-1 2.5q-1 1 -3 5t-6.5 12t-9.5 15l-7 11l65 40q26 -39 34 -53l64 38l27 -45l-63 -38q69 -117 96.5 -201t27.5 -174q0 -122 -50 -187 t-145 -65zM221 65q86 0 86 182q0 181 -85 181q-45 0 -66 -43.5t-21 -137.5t21 -138t65 -44z" />
<glyph unicode="&#xf1;" horiz-adv-x="460" d="M129 572l-41 27q44 75 99 75q23 0 63 -22q36 -20 54 -20q23 0 44 37l42 -28q-46 -75 -100 -75q-24 0 -64 22q-35 20 -50 20q-13 0 -22.5 -7.5t-24.5 -28.5zM60 0v493h94v-76q20 47 48.5 67.5t73.5 20.5q82 0 113 -65q14 -31 14 -122v-318h-102v312q0 63 -9 84 q-12 27 -50 27q-43 0 -61.5 -34t-18.5 -113v-276h-102z" />
<glyph unicode="&#xf2;" horiz-adv-x="460" d="M238 552l-172 108l53 67l156 -137zM229 -12q-94 0 -143.5 66t-49.5 191q0 260 196 260q94 0 143 -66.5t49 -192.5q0 -127 -49.5 -192.5t-145.5 -65.5zM230 65q86 0 86 182q0 181 -85 181q-45 0 -66 -43.5t-21 -137.5t21 -138t65 -44z" />
<glyph unicode="&#xf3;" horiz-adv-x="460" d="M223 552l-37 38l157 137l52 -67zM229 -12q-94 0 -143.5 66t-49.5 191q0 260 196 260q94 0 143 -66.5t49 -192.5q0 -127 -49.5 -192.5t-145.5 -65.5zM230 65q86 0 86 182q0 181 -85 181q-45 0 -66 -43.5t-21 -137.5t21 -138t65 -44z" />
<glyph unicode="&#xf4;" horiz-adv-x="460" d="M62 563l174 134l175 -134l-87 -7l-88 59l-87 -59zM229 -12q-94 0 -143.5 66t-49.5 191q0 260 196 260q94 0 143 -66.5t49 -192.5q0 -127 -49.5 -192.5t-145.5 -65.5zM230 65q86 0 86 182q0 181 -85 181q-45 0 -66 -43.5t-21 -137.5t21 -138t65 -44z" />
<glyph unicode="&#xf5;" horiz-adv-x="460" d="M135 572l-41 27q44 75 99 75q23 0 63 -22q36 -20 54 -20q23 0 44 37l42 -28q-46 -75 -100 -75q-24 0 -64 22q-35 20 -50 20q-13 0 -22.5 -7.5t-24.5 -28.5zM229 -12q-94 0 -143.5 66t-49.5 191q0 260 196 260q94 0 143 -66.5t49 -192.5q0 -127 -49.5 -192.5t-145.5 -65.5 zM230 65q86 0 86 182q0 181 -85 181q-45 0 -66 -43.5t-21 -137.5t21 -138t65 -44z" />
<glyph unicode="&#xf6;" horiz-adv-x="460" d="M312 568q-20 0 -35.5 15.5t-15.5 35.5q0 22 15 37.5t37 15.5t37 -15.5t15 -36.5q0 -22 -15.5 -37t-37.5 -15zM157 568q-20 0 -35.5 15.5t-15.5 35.5q0 22 15 37.5t37 15.5t37 -15t15 -37t-15.5 -37t-37.5 -15zM229 -12q-94 0 -143.5 66t-49.5 191q0 260 196 260 q94 0 143 -66.5t49 -192.5q0 -127 -49.5 -192.5t-145.5 -65.5zM230 65q86 0 86 182q0 181 -85 181q-45 0 -66 -43.5t-21 -137.5t21 -138t65 -44z" />
<glyph unicode="&#xf7;" d="M206 424v111h99v-111h-99zM51 293v81h409v-81h-409zM206 132v111h99v-111h-99z" />
<glyph unicode="&#xf8;" horiz-adv-x="460" d="M53 -52l45 91q-62 74 -62 207q0 126 49.5 192.5t142.5 66.5q54 0 98 -22l27 54h59l-45 -89q57 -70 57 -202q0 -127 -49.5 -192.5t-145.5 -65.5q-44 0 -88 18l-29 -58h-59zM147 120l139 298q-22 14 -54 14q-52 0 -76 -44t-24 -142q0 -70 15 -126zM181 71q29 -10 47 -10 q52 0 76 45t24 142q0 55 -11 114z" />
<glyph unicode="&#xf9;" horiz-adv-x="460" d="M255 552l-172 108l53 67l156 -137zM74 47q-17 34 -17 131v315h102v-313q0 -60 6 -76q11 -34 52 -34q47 0 66 47q15 35 15 139v237h102v-493h-94v74q-24 -48 -51.5 -67t-72.5 -19q-79 0 -108 59z" />
<glyph unicode="&#xfa;" horiz-adv-x="460" d="M223 552l-37 38l156 137l53 -67zM75 47q-18 35 -18 131v315h102v-313q0 -56 6 -76q11 -34 52 -34q47 0 66 47q15 35 15 139v237h102v-493h-94v74q-24 -48 -51.5 -67t-72.5 -19q-78 0 -107 59z" />
<glyph unicode="&#xfb;" horiz-adv-x="460" d="M59 563l174 134l175 -134l-87 -7l-88 59l-87 -59zM74 47q-17 34 -17 131v315h102v-313q0 -60 6 -76q11 -34 52 -34q47 0 66 47q15 35 15 139v237h102v-493h-94v74q-24 -48 -51.5 -67t-72.5 -19q-79 0 -108 59z" />
<glyph unicode="&#xfc;" horiz-adv-x="460" d="M309 568q-20 0 -35.5 15.5t-15.5 35.5q0 22 15.5 37.5t36.5 15.5q22 0 37 -15t15 -37t-15.5 -37t-37.5 -15zM154 568q-20 0 -35.5 15.5t-15.5 35.5q0 22 15 37.5t37 15.5t37 -15.5t15 -36.5q0 -22 -15.5 -37t-37.5 -15zM75 47q-18 35 -18 131v315h102v-313q0 -61 5 -76 q11 -34 49 -34q49 0 70 47q15 35 15 139v237h102v-493h-94v74q-24 -48 -51.5 -67t-72.5 -19q-78 0 -107 59z" />
<glyph unicode="&#xfd;" horiz-adv-x="358" d="M180 552l-37 38l157 137l52 -67zM12 -89q26 -3 36 -3q41 0 57 19t35 89l-140 477h102l85 -338l89 338h92l-160 -524q-24 -78 -50 -109q-33 -37 -94 -37q-25 0 -52 7v81z" />
<glyph unicode="&#xfe;" horiz-adv-x="477" d="M161 51l-1 -218h-101v834h101v-250q24 46 50.5 65.5t66.5 19.5q75 0 119.5 -67.5t44.5 -180.5q0 -150 -68 -223q-38 -40 -103 -40q-37 0 -61 13t-48 47zM182 104q24 -36 64 -36q87 0 87 183q0 176 -82 176q-38 0 -64.5 -40.5t-26.5 -98.5v-82q0 -45 4 -64t18 -38z" />
<glyph unicode="&#xff;" horiz-adv-x="358" d="M264 568q-20 0 -35.5 15.5t-15.5 35.5q0 22 15 37.5t37 15.5t37 -15.5t15 -36.5q0 -22 -15.5 -37t-37.5 -15zM109 568q-20 0 -35.5 15.5t-15.5 35.5q0 22 15 37.5t37 15.5t37 -15t15 -37t-15.5 -37t-37.5 -15zM12 -89q26 -3 36 -3q41 0 57 19t35 89l-140 477h102l85 -338 l89 338h92l-160 -524q-24 -78 -50 -109q-33 -37 -94 -37q-25 0 -52 7v81z" />
<glyph unicode="&#x152;" horiz-adv-x="801" d="M139 40q-97 88 -97 292q0 197 87 286q28 28 69.5 44.5t83.5 16.5t72 -15.5t58 -51.5v55h377v-88h-277v-192h218v-88h-218v-209h279v-90h-383v61q-27 -41 -56 -57.5t-74 -16.5q-81 0 -139 53zM292 78q81 0 114 91v339q-22 44 -48 62t-67 18q-62 0 -90 -46 q-42 -68 -42 -223q0 -241 133 -241z" />
<glyph unicode="&#x153;" horiz-adv-x="715" d="M225 -12q-92 0 -140.5 66.5t-48.5 191.5q0 126 49 192.5t141 66.5t143 -74q31 40 62.5 57t75.5 17q49 0 88.5 -23t59.5 -63q20 -39 27.5 -77.5t8.5 -110.5h-277q0 -53 8 -89q7 -36 30.5 -56.5t56.5 -20.5q35 0 54.5 21t30.5 71l93 -13q-16 -68 -50 -103q-50 -53 -132 -53 q-89 0 -143 73q-27 -39 -59 -56t-78 -17zM416 300h171v10v6q0 52 -23 83t-61 31q-78 0 -87 -130zM229 65q44 0 64 43.5t20 137.5q0 182 -83 182q-44 0 -65 -43.5t-21 -137.5t20.5 -138t64.5 -44z" />
<glyph unicode="&#x178;" horiz-adv-x="409" d="M289 733q-22 0 -37.5 15.5t-15.5 37.5t15.5 38t37.5 16q23 0 38.5 -16t15.5 -38t-16 -37.5t-38 -15.5zM129 733q-22 0 -37.5 15.5t-15.5 37.5t16 38t38 16t37.5 -16t15.5 -38t-16 -37.5t-38 -15.5zM145 0v282l-177 385h120l122 -278l125 278h105l-185 -385v-282h-110z " />
<glyph unicode="&#x2c6;" horiz-adv-x="500" d="M76 563l174 134l175 -134l-87 -7l-88 59l-87 -59z" />
<glyph unicode="&#x2dc;" horiz-adv-x="500" d="M140 572l-41 27q44 75 99 75q23 0 63 -22q36 -20 54 -20q23 0 44 37l42 -28q-46 -75 -100 -75q-24 0 -64 22q-35 20 -50 20q-13 0 -22.5 -7.5t-24.5 -28.5z" />
<glyph unicode="&#x2000;" horiz-adv-x="449" />
<glyph unicode="&#x2001;" horiz-adv-x="898" />
<glyph unicode="&#x2002;" horiz-adv-x="449" />
<glyph unicode="&#x2003;" horiz-adv-x="898" />
<glyph unicode="&#x2004;" horiz-adv-x="299" />
<glyph unicode="&#x2005;" horiz-adv-x="224" />
<glyph unicode="&#x2006;" horiz-adv-x="149" />
<glyph unicode="&#x2007;" horiz-adv-x="149" />
<glyph unicode="&#x2008;" horiz-adv-x="112" />
<glyph unicode="&#x2009;" horiz-adv-x="179" />
<glyph unicode="&#x200a;" horiz-adv-x="49" />
<glyph unicode="&#x2010;" horiz-adv-x="290" d="M39 209v82h211v-82h-211z" />
<glyph unicode="&#x2011;" horiz-adv-x="290" d="M39 209v82h211v-82h-211z" />
<glyph unicode="&#x2013;" d="M83 211v79h345v-79h-345z" />
<glyph unicode="&#x2014;" horiz-adv-x="630" d="M31 211v79h569v-79h-569z" />
<glyph unicode="&#x2018;" horiz-adv-x="222" d="M53 432v121l67 125h49l-57 -122h47v-124h-106z" />
<glyph unicode="&#x2019;" horiz-adv-x="222" d="M53 421l57 122h-47v124h106v-121l-67 -125h-49z" />
<glyph unicode="&#x201a;" horiz-adv-x="222" d="M63 0v124h106v-121l-67 -125h-49l57 122h-47z" />
<glyph unicode="&#x201c;" horiz-adv-x="375" d="M204 432v121l67 125h49l-57 -122h47v-124h-106zM54 432v121l67 125h49l-57 -122h47v-124h-106z" />
<glyph unicode="&#x201d;" horiz-adv-x="375" d="M204 421l57 122h-47v124h106v-121l-67 -125h-49zM54 421l57 122h-47v124h106v-121l-67 -125h-49z" />
<glyph unicode="&#x201e;" horiz-adv-x="375" d="M214 0v124h106v-121l-67 -125h-49l57 122h-47zM64 0v124h106v-121l-67 -125h-49l57 122h-47z" />
<glyph unicode="&#x2022;" horiz-adv-x="667" d="M335 200q-58 0 -98.5 40.5t-40.5 97.5q0 58 40.5 98.5t99.5 40.5q56 0 96.5 -41t40.5 -98t-40.5 -97.5t-97.5 -40.5z" />
<glyph unicode="&#x2026;" horiz-adv-x="716" d="M542 0v126h111v-126h-111zM303 0v126h111v-126h-111zM64 0v126h111v-126h-111z" />
<glyph unicode="&#x202f;" horiz-adv-x="179" />
<glyph unicode="&#x2039;" horiz-adv-x="239" d="M138 96l-94 160l94 160h57l-53 -160l53 -160h-57z" />
<glyph unicode="&#x203a;" horiz-adv-x="239" d="M44 96l53 160l-53 160h57l94 -160l-94 -160h-57z" />
<glyph unicode="&#x205f;" horiz-adv-x="224" />
<glyph unicode="&#x20ac;" horiz-adv-x="612" d="M38 232l34 79h42v19v20h-76l34 79h49q37 250 236 250q186 0 217 -228l-103 -15q-9 73 -28 104q-28 48 -84 48q-100 0 -122 -159h189l-34 -79h-161v-24v-15h145l-34 -79h-105q21 -153 123 -153q47 0 73 33t39 112l101 -14q-31 -222 -218 -222q-98 0 -157.5 62t-75.5 182 h-84z" />
<glyph unicode="&#x2122;" horiz-adv-x="715" d="M289 267v380h109l70 -273l74 273h106v-380h-69v319l-87 -319h-59l-82 320v-320h-62zM99 267v321h-84v59h244v-59h-86v-321h-74z" />
</font>
</defs>
</svg>
