<?xml version="1.0" standalone="no"?>
<!DOCTYPE svg PUBLIC "-//W3C//DTD SVG 1.1//EN" "http://www.w3.org/Graphics/SVG/1.1/DTD/svg11.dtd" >
<svg xmlns="http://www.w3.org/2000/svg">
<metadata>
This is a custom SVG webfont generated by Fontspring.
Designer    : FontSite.com
Foundry URL : http://www.fontsite.com
</metadata>
<defs>
<font id="webfont" horiz-adv-x="587" >
<font-face units-per-em="1000" ascent="827" descent="-173" />
<missing-glyph horiz-adv-x="250" />
<glyph unicode=" "  horiz-adv-x="250" />
<glyph unicode="&#x09;" horiz-adv-x="250" />
<glyph unicode="&#xa0;" horiz-adv-x="250" />
<glyph unicode="!" horiz-adv-x="275" d="M114 202l-47 465h147l-49 -465h-51zM77 0v122h122v-122h-122z" />
<glyph unicode="&#x22;" horiz-adv-x="378" d="M233 399l-17 268h110l-17 -268h-76zM68 399l-16 268h109l-16 -268h-77z" />
<glyph unicode="#" d="M89 0l35 196h-100l16 93h102l18 102h-101l17 94h101l32 182h91l-32 -182h105l32 182h91l-33 -182h99l-17 -94h-97l-18 -102h97l-17 -94h-98l-34 -195h-91l35 195h-106l-35 -195h-92zM233 289h105l18 102h-105z" />
<glyph unicode="$" d="M23 181l105 24q12 -50 46 -79.5t81 -31.5v193q-80 20 -119 39q-42 20 -65 58.5t-23 87.5q0 59 30.5 103.5t86.5 65.5q38 15 90 21v70h66v-70q73 -9 125.5 -50t66.5 -100l-99 -21q-15 41 -35.5 59t-57.5 22v-171l27 -7q66 -17 96.5 -32t50.5 -40q41 -49 41 -119 q0 -103 -82 -156q-50 -33 -133 -42v-90h-66v90q-89 7 -149.5 53t-82.5 123zM255 408v164q-47 -1 -73 -22.5t-26 -60.5q0 -35 23 -54t76 -27zM321 94q50 3 79 28.5t29 67.5q0 37 -26 59t-82 32v-187z" />
<glyph unicode="%" horiz-adv-x="771" d="M187 302q-68 0 -111.5 53.5t-43.5 135.5q0 80 44 131t112 51q67 0 107 -40q50 -53 50 -149q0 -77 -45.5 -129.5t-112.5 -52.5zM143 0l414 667h73l-413 -667h-74zM187 374q32 0 50 28t18 80q0 120 -65 120q-66 0 -66 -111q0 -117 63 -117zM429 174q0 83 45 137.5t113 54.5 q74 0 119 -64q34 -47 34 -124q0 -82 -44 -133t-115 -51q-66 0 -109 50.5t-43 129.5zM520 179q0 -114 66 -114q31 0 48 31t17 88q0 109 -62 109q-33 0 -51 -29.5t-18 -84.5z" />
<glyph unicode="&#x26;" horiz-adv-x="717" d="M32 199q0 88 68 145q32 26 105 60q-34 43 -46 69t-12 58q0 65 48.5 105.5t125.5 40.5q79 0 128 -40t49 -104q0 -107 -130 -162l145 -165q68 86 84 198l100 -17q-22 -146 -118 -252q32 -34 47.5 -43.5t41.5 -9.5q14 0 29 2v-93q-34 -1 -46 -1q-47 0 -76 13.5t-73 57.5 q-101 -71 -219 -71q-108 0 -179.5 59.5t-71.5 149.5zM314 443q46 20 65.5 40.5t19.5 47.5t-19.5 44t-49.5 17t-50.5 -17t-20.5 -42q0 -42 55 -90zM164 206q0 -53 38 -86t99 -33q73 0 137 48l-175 196q-33 -14 -66 -45q-33 -30 -33 -80z" />
<glyph unicode="'" horiz-adv-x="214" d="M68 399l-16 268h109l-16 -268h-77z" />
<glyph unicode="(" horiz-adv-x="293" d="M200 -167q-168 183 -168 426q0 137 63 259q51 99 105 149h66q-50 -74 -65.5 -101t-31.5 -70q-44 -116 -44 -241q0 -235 141 -422h-66z" />
<glyph unicode=")" horiz-adv-x="293" d="M124 4q44 116 44 241q0 233 -141 422h66q169 -186 169 -426q0 -137 -63 -259q-53 -100 -106 -149h-66q49 73 64.5 100t32.5 71z" />
<glyph unicode="*" d="M216 268l-76 52l99 122l-155 34l24 88l151 -57l-11 166h92l-12 -166l152 57l24 -88l-155 -34l99 -122l-77 -52l-77 134z" />
<glyph unicode="+" d="M247 83v207h-201v93h201v208h93v-208h200v-93h-200v-207h-93z" />
<glyph unicode="," horiz-adv-x="241" d="M60 0v125h121v-112l-78 -156h-43l58 143h-58z" />
<glyph unicode="-" horiz-adv-x="241" d="M-2 208v91h245v-91h-245z" />
<glyph unicode="." horiz-adv-x="241" d="M60 0v128h121v-128h-121z" />
<glyph unicode="/" horiz-adv-x="479" d="M13 -167h-69l434 834h72z" />
<glyph unicode="0" d="M291 -10q-118 0 -187 91t-69 248q0 159 70 251q72 97 186 97q121 0 190.5 -93.5t69.5 -255.5q0 -125 -56 -221q-68 -117 -204 -117zM291 84q64 0 96 50q40 62 40 195q0 111 -23 173q-17 45 -43 65.5t-67 20.5q-137 0 -137 -251q0 -130 33 -191.5t101 -61.5z" />
<glyph unicode="1" d="M68 0v98h201v422q-98 -88 -182 -121v121q64 24 89.5 37t54.5 38q60 52 79 85h80v-582h188v-98h-510z" />
<glyph unicode="2" d="M42 0v117l125 83q89 58 116 78t60 53q63 63 63 124q0 51 -33.5 84t-84.5 33q-113 0 -130 -139l-116 29q15 80 61 133q72 82 190 82q109 0 175.5 -61.5t66.5 -162.5q0 -108 -101 -191q-38 -31 -69 -50.5l-179 -107.5h347v-104h-491z" />
<glyph unicode="3" d="M85 67q-45 43 -60 100l113 28q34 -111 148 -111q57 0 93.5 29t36.5 75q0 25 -14 50t-36 39q-28 17 -74 17h-82v95h61q59 0 93.5 26t34.5 71t-29.5 70t-81.5 25q-50 0 -82.5 -23t-51.5 -74l-110 20q20 79 87.5 126t160.5 47q100 0 163.5 -50.5t63.5 -128.5 q0 -61 -34 -102.5t-90 -48.5q69 -13 107 -55t38 -106q0 -87 -70.5 -141.5t-182.5 -54.5q-124 0 -202 77z" />
<glyph unicode="4" d="M34 151v88l296 441h123v-426h100v-103h-100v-151h-123v151h-296zM150 254h180v184q0 28 9 117z" />
<glyph unicode="5" d="M92 68q-35 36 -53 104l115 18q34 -103 141 -103q61 0 98.5 37.5t37.5 97.5q0 58 -35.5 95.5t-90.5 37.5q-86 0 -130 -77l-107 21l38 368h414l-10 -103h-316l-19 -194q35 42 70.5 59.5t85.5 17.5q96 0 163 -65.5t67 -159.5q0 -89 -62 -156q-71 -76 -198 -76 q-134 0 -209 78z" />
<glyph unicode="6" d="M312 -10q-126 0 -199.5 90.5t-73.5 245.5q0 160 73 255.5t195 95.5q54 0 101.5 -18.5t76.5 -51.5q30 -34 46 -92l-102 -20q-17 50 -44.5 72t-73.5 22q-52 0 -84.5 -28t-50.5 -89q-17 -54 -17 -115v-29q27 47 57 67q50 33 117 33q95 0 157.5 -60t62.5 -151q0 -99 -68 -163 t-173 -64zM180 205q0 -57 36 -92t94 -35q56 0 92 34.5t36 87.5q0 59 -37.5 97t-95.5 38q-54 0 -89.5 -37t-35.5 -93z" />
<glyph unicode="7" d="M185 0q10 168 69 302t178 262h-381l10 103h473v-85q-118 -155 -159.5 -269.5t-52.5 -312.5h-137z" />
<glyph unicode="8" d="M28 169q0 56 33 94t108 66q-43 23 -64 40.5t-35 44.5q-18 36 -18 75q0 85 67 136.5t177 51.5q107 0 171.5 -47t64.5 -126q0 -50 -27 -83t-92 -62q54 -24 82 -46q63 -50 63 -129q0 -87 -74.5 -140.5t-196.5 -53.5q-118 0 -188.5 48.5t-70.5 130.5zM330 394l22 10 q71 36 71 96q0 41 -35.5 67.5t-90.5 26.5t-89.5 -24t-34.5 -62q0 -37 31.5 -60t125.5 -54zM143 175q0 -43 42 -70.5t109 -27.5q64 0 102.5 24.5t38.5 64.5q0 39 -36.5 63.5t-146.5 60.5q-109 -42 -109 -115z" />
<glyph unicode="9" d="M59 121l101 28q19 -30 32 -42q32 -27 81 -27q74 0 115 69t42 196q-31 -55 -61 -75q-45 -31 -113 -31q-96 0 -158 60t-62 154q0 99 66.5 161.5t172.5 62.5q118 0 192 -79q79 -86 79 -246q0 -152 -66 -252q-74 -110 -210 -110q-77 0 -132.5 34.5t-78.5 96.5zM278 336 q55 0 93.5 36t38.5 88q0 55 -36.5 90.5t-94.5 35.5q-56 0 -92 -35.5t-36 -90.5q0 -53 36.5 -88.5t90.5 -35.5z" />
<glyph unicode=":" horiz-adv-x="241" d="M60 339v122h121v-122h-121zM60 0v122h121v-122h-121z" />
<glyph unicode=";" horiz-adv-x="241" d="M60 339v122h121v-122h-121zM60 0v125h121v-112l-78 -156h-43l58 143h-58z" />
<glyph unicode="&#x3c;" d="M67 285v96l433 215v-112l-313 -151l312 -152l1 -112z" />
<glyph unicode="=" d="M46 358v93h494v-93h-494zM46 212v93h494v-93h-494z" />
<glyph unicode="&#x3e;" d="M87 69v113l313 151l-312 152l-1 111l433 -216v-95z" />
<glyph unicode="?" horiz-adv-x="502" d="M198 191v66q0 33 12.5 51t59.5 55q69 53 69 114q0 44 -27 70.5t-71 26.5q-74 0 -100 -67q-11 -27 -18 -72l-106 19q7 99 73 161t164 62q93 0 154.5 -55.5t61.5 -138.5q0 -80 -61 -141q-11 -11 -85 -65q-20 -14 -25 -28.5t-6 -57.5h-95zM198 0v122h115v-122h-115z" />
<glyph unicode="@" horiz-adv-x="717" d="M185 -49q-80 46 -126.5 126.5t-46.5 174.5q0 148 104 248.5t257 100.5q141 0 236 -87t95 -215q0 -100 -54.5 -173t-129.5 -73q-28 0 -50 14t-33 37q-43 -53 -102 -53q-65 0 -108 53.5t-43 134.5q0 83 48.5 139.5t119.5 56.5q67 0 96 -42l4 34h84l-27 -227q-3 -24 -3 -46 q0 -33 23 -33q40 0 73 54.5t33 120.5q0 104 -74 172t-187 68q-119 0 -200.5 -81.5t-81.5 -201.5q0 -77 36 -141.5t99 -100.5q65 -37 155 -37q61 0 106.5 12t113.5 45l29 -66q-121 -61 -248 -61q-116 0 -198 47zM271 235q0 -46 19.5 -75t49.5 -29q41 0 72 39t31 90 q0 41 -24 68t-60 27q-38 0 -63 -34t-25 -86z" />
<glyph unicode="A" horiz-adv-x="603" d="M3 0l221 667h148l224 -667h-129l-53 159h-256l-53 -159h-102zM188 255h194l-97 298z" />
<glyph unicode="B" horiz-adv-x="607" d="M73 0v667h260q56 0 87.5 -7.5t59.5 -26.5q69 -48 69 -139q0 -58 -31 -96t-90 -52q51 -10 79 -32q63 -46 63 -133q0 -81 -54 -132q-52 -49 -152 -49h-291zM187 387h146q44 0 70.5 26t26.5 70q0 40 -27 64.5t-72 24.5h-144v-185zM187 100h155q49 0 77.5 26t28.5 70 q0 43 -29 69.5t-76 26.5h-156v-192z" />
<glyph unicode="C" horiz-adv-x="579" d="M119 73q-81 101 -81 261q0 156 74 249.5t197 93.5q101 0 165 -60.5t83 -175.5l-111 -12q-17 71 -41 104q-34 47 -95 47q-68 0 -105 -63.5t-37 -179.5t38.5 -181t107.5 -65q52 0 88 39t44 102l111 -13q-8 -54 -22 -86.5t-43 -64.5q-71 -78 -187 -78q-121 0 -186 83z" />
<glyph unicode="D" horiz-adv-x="655" d="M70 0v667h245q124 0 206 -83q95 -98 95 -249q0 -174 -115 -269q-79 -66 -213 -66h-218zM193 98h100q88 0 140.5 65t52.5 174q0 103 -50 169t-129 66h-114v-474z" />
<glyph unicode="E" horiz-adv-x="537" d="M73 0v667h429v-99h-309v-181h248v-97h-248v-187h313v-103h-433z" />
<glyph unicode="F" horiz-adv-x="508" d="M73 0v667h421v-103h-298v-183h235v-100h-235v-281h-123z" />
<glyph unicode="G" horiz-adv-x="642" d="M106 92q-68 100 -68 243q0 141 73 240q75 102 212 102q118 0 191 -85q40 -47 57 -119l-105 -18q-12 48 -30 71q-41 51 -110 51q-72 0 -114 -55q-47 -61 -47 -181q0 -252 158 -252q62 0 102.5 42.5t40.5 107.5v5h-138v97h251v-341h-53l-37 90q-62 -100 -180 -100 q-133 0 -203 102z" />
<glyph unicode="H" horiz-adv-x="641" d="M73 0v667h120v-274h255v274h120v-667h-120v290h-255v-290h-120z" />
<glyph unicode="I" horiz-adv-x="267" d="M73 0v667h120v-667h-120z" />
<glyph unicode="J" horiz-adv-x="371" d="M0 0v97q59 -4 77 -4q67 0 90 31q15 19 15 83v460h123v-460q0 -100 -34 -147q-28 -38 -68.5 -54t-106.5 -16q-57 0 -96 10z" />
<glyph unicode="K" horiz-adv-x="614" d="M73 0v667h120v-351l33 50l222 301h121l-158 -219l186 -448h-134l-141 340l-129 -171v-169h-120z" />
<glyph unicode="L" horiz-adv-x="498" d="M73 0v667h127v-558h283v-109h-410z" />
<glyph unicode="M" horiz-adv-x="801" d="M73 0v667h188l139 -430l138 430h189v-667h-123v584l-185 -584h-63l-185 584v-584h-98z" />
<glyph unicode="N" horiz-adv-x="650" d="M73 0v667h133l233 -393l20 -37l22 -43v473h95v-667h-110l-260 426l-18 36l-18 36v-498h-97z" />
<glyph unicode="O" horiz-adv-x="643" d="M112 89q-74 100 -74 247q0 150 80 245.5t206 95.5q128 0 204.5 -95t76.5 -254q0 -151 -79 -244.5t-207 -93.5q-134 0 -207 99zM197 167q17 -37 50 -58.5t73 -21.5q39 0 73.5 21.5t51.5 56.5q30 59 30 161q0 254 -152 254q-85 0 -120 -69q-35 -70 -35 -179q0 -98 29 -165z " />
<glyph unicode="P" horiz-adv-x="599" d="M73 0v667h273q87 0 140 -33q90 -56 90 -167q0 -89 -60.5 -146t-155.5 -57h-167v-264h-120zM193 367h142q53 0 84 26.5t31 72.5q0 47 -30 74q-28 27 -96 27h-131v-200z" />
<glyph unicode="Q" horiz-adv-x="643" d="M117 78q-79 97 -79 251q0 160 77 254t208 94q141 0 217 -114q64 -93 64 -230q0 -158 -84 -255q-16 -19 -26.5 -27.5t-40.5 -28.5q-13 -9 -13 -20q0 -18 16 -29.5t40 -11.5q8 0 52 2q3 0 29 2v-101q-57 -5 -69 -5q-87 0 -122 43q-22 26 -26 87q-34 -2 -47 -2 q-123 0 -196 91zM318 88q80 0 121 69q15 25 25 74.5t10 97.5q0 251 -151 251q-76 0 -115.5 -63.5t-39.5 -186.5q0 -242 150 -242z" />
<glyph unicode="R" horiz-adv-x="643" d="M73 0v667h289q114 0 174 -52t60 -144q0 -124 -120 -177l117 -294h-127l-104 274h-169v-274h-120zM193 370h150q61 0 94.5 26.5t33.5 75.5q0 46 -32 72.5t-86 26.5h-160v-201z" />
<glyph unicode="S" horiz-adv-x="571" d="M70 53q-44 36 -67 108l116 25q13 -44 38 -64q43 -35 125 -35q61 0 96.5 25.5t35.5 68.5q0 60 -83 81l-128 33q-92 24 -126 68q-39 49 -39 115q0 89 65 144t171 55q111 0 184 -58q41 -34 56 -86l-114 -28q-26 75 -125 75q-52 0 -83 -22.5t-31 -59.5q0 -57 93 -81l114 -28 q104 -26 141 -82q32 -47 32 -108q0 -95 -72.5 -152t-193.5 -57q-125 0 -205 63z" />
<glyph unicode="T" horiz-adv-x="483" d="M177 0v564h-177v103h483v-103h-177v-564h-129z" />
<glyph unicode="U" horiz-adv-x="595" d="M120 55q-29 30 -41 69.5t-12 105.5v437h123v-429q0 -78 29 -108q33 -35 94 -35q68 0 99 41q24 32 24 102v429h95v-429q0 -75 -11.5 -113t-44.5 -71q-64 -64 -177 -64q-116 0 -178 65z" />
<glyph unicode="V" horiz-adv-x="540" d="M208 0l-206 667h127l153 -511l156 511h100l-208 -667h-122z" />
<glyph unicode="W" horiz-adv-x="883" d="M192 0l-182 667h128l128 -486l120 486h122l133 -486l126 486h106l-178 -667h-126l-133 490l-121 -490h-123z" />
<glyph unicode="X" horiz-adv-x="567" d="M5 0l211 348l-181 319h139l124 -222l130 222h112l-185 -304l206 -363h-140l-148 263l-156 -263h-112z" />
<glyph unicode="Y" horiz-adv-x="544" d="M214 0v281l-227 386h145l158 -275l151 275h116l-216 -386v-281h-127z" />
<glyph unicode="Z" horiz-adv-x="533" d="M20 0v94l342 478h-318v95h459v-95l-337 -469h347v-103h-493z" />
<glyph unicode="[" horiz-adv-x="293" d="M154 -87h81v-80h-168v834h168v-80h-81v-674z" />
<glyph unicode="\" horiz-adv-x="479" d="M466 -167l-436 834h71l435 -834h-70z" />
<glyph unicode="]" horiz-adv-x="293" d="M58 -87h81v674h-81v80h168v-834h-168v80z" />
<glyph unicode="^" horiz-adv-x="500" d="M11 343l165 327h149l165 -327h-119l-121 237l-120 -237h-119z" />
<glyph unicode="_" horiz-adv-x="500" d="M0 -52h500v-102h-500v102z" />
<glyph unicode="`" horiz-adv-x="500" d="M309 567l-204 86l32 73l192 -107z" />
<glyph unicode="a" horiz-adv-x="540" d="M35 141q0 117 142 153q67 17 188 17v37q0 76 -105 76q-51 0 -78 -18t-36 -58l-95 14q11 66 65 102q59 39 158 39q122 0 169 -54q19 -21 25 -46.5t6 -80.5v-222q0 -44 15 -100h-107q-13 48 -17 100q-21 -48 -47 -70q-48 -40 -120 -40t-117.5 42t-45.5 109zM149 148 q0 -34 23 -54t64 -20q58 0 93.5 36.5t35.5 95.5v45q-216 0 -216 -103z" />
<glyph unicode="b" horiz-adv-x="538" d="M67 0v667h111v-241q31 52 60.5 71t76.5 19q85 0 136.5 -71t51.5 -189q0 -116 -57 -193q-54 -73 -148 -73q-51 0 -84.5 20.5t-66.5 70.5l-30 -81h-50zM178 211q0 -62 26.5 -96t75.5 -34q52 0 79 44q28 48 27 135q-1 81 -29 122q-25 38 -74 38q-48 0 -76.5 -37t-28.5 -99 v-73z" />
<glyph unicode="c" horiz-adv-x="466" d="M245 -10q-94 0 -152 70.5t-58 186.5q0 114 61 185t159 71q96 0 147 -62q33 -39 45 -108l-96 -13q-12 92 -90 92q-51 0 -79.5 -45t-28.5 -125q0 -73 27 -114t74 -41q74 0 97 94l96 -10q-16 -71 -46 -109q-55 -72 -156 -72z" />
<glyph unicode="d" horiz-adv-x="538" d="M92 53q-26 33 -41.5 88t-15.5 112q0 127 69 207q46 54 125 54q92 0 132 -88v241h111v-667h-104v99q-23 -57 -58 -83t-87 -26q-83 0 -131 63zM256 81q44 0 74.5 36.5t30.5 90.5v83q0 58 -26 91q-31 37 -76 37q-51 0 -78.5 -44.5t-27.5 -127.5q0 -80 26.5 -123t76.5 -43z " />
<glyph unicode="e" horiz-adv-x="524" d="M35 245q0 115 64 186.5t168 71.5q107 0 164 -70t58 -200h-338v-14q0 -68 31 -105t87 -37q42 0 68 19t43 62l101 -14q-51 -154 -219 -154q-103 0 -165 69.5t-62 185.5zM151 305h223q-3 47 -25 77q-32 43 -86 43q-47 0 -76 -31t-36 -89z" />
<glyph unicode="f" horiz-adv-x="316" d="M84 0v406h-73v87h73q-1 58 7 88t30 54t53 33.5t87 9.5q21 0 40 -1v-88q-14 2 -30 2q-53 0 -69 -22q-7 -9 -9 -21t-2 -55h110v-87h-110v-406h-107z" />
<glyph unicode="g" horiz-adv-x="518" d="M22 -43q0 35 16 57t56 43q-26 23 -36 40.5t-10 40.5q0 34 18 57.5t61 45.5q-38 25 -53.5 50.5t-15.5 62.5q0 58 43 98q52 51 162 51q43 0 94 -10q14 50 41.5 72t76.5 22h42v-85h-34q-30 0 -44 -8t-28 -32q32 -27 45 -51.5t13 -55.5q0 -66 -56 -108.5t-143 -42.5 q-37 0 -93 13q-34 -18 -34 -47q0 -23 18 -36.5t49 -13.5h147q72 0 116.5 -37.5t44.5 -97.5q0 -75 -69 -118.5t-188 -43.5q-239 0 -239 134zM264 270q42 0 66.5 21t24.5 57q0 41 -23 63t-66 22q-42 0 -67.5 -22.5t-25.5 -59.5t25 -59t66 -22zM118 -16q0 -39 45 -62t122 -23 q129 0 129 66q0 23 -20 36.5t-54 13.5h-118q-37 0 -80 12q-24 -23 -24 -43z" />
<glyph unicode="h" horiz-adv-x="542" d="M67 0v667h111v-260q23 56 58.5 81.5t88.5 25.5q90 0 127 -63q24 -40 24 -112v-339h-111v323q0 95 -76 95q-27 0 -52 -15t-38 -39q-21 -39 -21 -108v-256h-111z" />
<glyph unicode="i" horiz-adv-x="245" d="M67 551v116h111v-116h-111zM67 0v493h111v-493h-111z" />
<glyph unicode="j" horiz-adv-x="245" d="M67 551v116h111v-116h-111zM67 -14v507h111v-507q0 -184 -170 -184q-27 0 -57 6v94q19 -2 37 -2q47 0 63 17.5t16 68.5z" />
<glyph unicode="k" horiz-adv-x="532" d="M67 0v667h107v-414q15 21 22 28l195 212h120l-148 -163l163 -330h-117l-126 253l-109 -123v-130h-107z" />
<glyph unicode="l" horiz-adv-x="245" d="M67 0v667h111v-667h-111z" />
<glyph unicode="m" horiz-adv-x="870" d="M67 0v493h108v-105q29 56 54 77q44 38 110 38q107 0 142 -115q60 115 165 115q69 0 113.5 -43.5t44.5 -110.5v-349h-117v307q0 95 -85 95q-56 0 -84 -44q-24 -37 -24 -99v-259h-118v307q0 38 -11 59q-21 38 -69 38q-50 0 -82 -40.5t-32 -104.5v-259h-115z" />
<glyph unicode="n" horiz-adv-x="541" d="M67 0v493h101v-114q31 67 66 95.5t85 28.5q43 0 81 -20.5t54 -52.5q21 -41 21 -112v-318h-111v308q0 45 -21 71.5t-56 26.5q-28 0 -52.5 -16.5t-38.5 -44.5q-18 -36 -18 -92v-253h-111z" />
<glyph unicode="o" horiz-adv-x="529" d="M84 81q-49 73 -49 167q0 112 65 183.5t166 71.5q123 0 187 -102q41 -65 41 -155q0 -113 -65 -184.5t-169 -71.5q-115 0 -176 91zM264 81q54 0 83 43.5t29 124.5q0 79 -28.5 121t-81.5 42q-54 0 -83.5 -43t-29.5 -122t29 -122.5t82 -43.5z" />
<glyph unicode="p" horiz-adv-x="538" d="M67 -167v660h107v-86q52 96 150 96q81 0 127 -65q53 -76 53 -188q0 -121 -58 -199q-46 -61 -130 -61q-89 0 -136 79v-236h-113zM180 202q0 -54 30 -89t77 -35t73 43.5t26 120.5q0 80 -26 125t-73 45q-46 0 -76.5 -39.5t-30.5 -100.5v-70z" />
<glyph unicode="q" horiz-adv-x="542" d="M93 51q-58 75 -58 194q0 117 56 187.5t150 70.5q47 0 80 -18t65 -61l30 69h59v-660h-116v254q-40 -97 -137 -97q-83 0 -129 61zM257 79q45 0 73.5 39t28.5 100v71q0 57 -25 90t-69 33q-53 0 -82.5 -43.5t-29.5 -122.5q0 -76 28.5 -121.5t75.5 -45.5z" />
<glyph unicode="r" horiz-adv-x="331" d="M67 0v493h101v-118q20 66 57 99q37 34 79 34q8 0 14 -1v-120q-3 1 -7 1q-62 3 -98 -44q-35 -47 -35 -116v-228h-111z" />
<glyph unicode="s" horiz-adv-x="454" d="M58 36q-35 27 -51 77l104 20q16 -33 40 -46.5t69 -13.5q47 0 73.5 16t26.5 45q0 18 -14.5 31t-39.5 18l-90 18q-77 15 -113 50t-36 95q0 59 39 103q50 54 151 54q155 0 190 -114l-100 -21q-10 30 -31 43t-59 13q-40 0 -63.5 -14.5t-23.5 -38.5q0 -42 71 -56l106 -22 q124 -26 124 -143q0 -73 -58.5 -116.5t-156.5 -43.5q-95 0 -158 46z" />
<glyph unicode="t" horiz-adv-x="322" d="M112 28q-19 19 -26.5 46t-7.5 77v255h-61v87h68l10 128l91 8v-136h100v-87h-100v-240q0 -47 17 -63.5t64 -16.5q16 0 28 1v-87q-49 -11 -78 -11q-66 0 -105 39z" />
<glyph unicode="u" horiz-adv-x="539" d="M92 50q-25 38 -25 98v345h114v-321q0 -35 10 -54q20 -33 60 -33q29 0 56 19.5t40 49.5q15 38 15 102v237h111v-493h-104v107q-10 -31 -21 -48t-31 -33q-43 -36 -104 -36q-79 0 -121 60z" />
<glyph unicode="v" horiz-adv-x="444" d="M178 0l-171 493h116l115 -334l113 334h87l-167 -493h-93z" />
<glyph unicode="w" horiz-adv-x="697" d="M162 0l-152 493h118l98 -332l84 332h101l87 -332l95 332h94l-145 -493h-100l-89 346l-88 -346h-103z" />
<glyph unicode="x" horiz-adv-x="442" d="M0 0l164 254l-142 239h128l81 -145l92 145h93l-139 -214l165 -279h-128l-104 180l-114 -180h-96z" />
<glyph unicode="y" horiz-adv-x="442" d="M45 -86q21 -1 55 -1q50 0 66 28q6 10 13.5 31.5t7.5 26.5q0 3 -11 31l-169 463h116l120 -326l103 326h89l-192 -562q-20 -57 -51.5 -83t-82.5 -26q-16 0 -64 4v88z" />
<glyph unicode="z" horiz-adv-x="419" d="M23 0v87l243 319h-220v87h349v-79l-240 -327h240v-87h-372z" />
<glyph unicode="{" horiz-adv-x="293" d="M76 -26v155q0 41 -12.5 61t-43.5 27v71q56 13 56 82v163q0 71 34.5 102.5t112.5 31.5q8 0 40 -1v-75q-61 0 -79 -14.5t-18 -63.5v-149q0 -47 -13 -71t-48 -43q34 -19 47.5 -44.5t13.5 -71.5v-145q0 -51 18 -66t79 -14v-75q-35 -1 -44 -1q-76 0 -109.5 33t-33.5 108z" />
<glyph unicode="|" horiz-adv-x="500" d="M193 -167v834h113v-834h-113z" />
<glyph unicode="}" horiz-adv-x="293" d="M31 -91q61 0 79 14.5t18 63.5v149q0 47 13 71t48 43q-34 19 -47.5 44.5t-13.5 71.5v145q0 51 -18 66t-79 14v75q35 1 44 1q76 0 109.5 -33t33.5 -108v-155q0 -41 12.5 -61t43.5 -27v-71q-56 -13 -56 -82v-163q0 -71 -34.5 -102.5t-112.5 -31.5q-8 0 -40 1v75z" />
<glyph unicode="~" d="M114 241l-63 41q30 72 63.5 102t83.5 30q35 0 106 -28q68 -26 90 -26q25 0 41 12t36 44l65 -38q-35 -73 -68 -97q-39 -30 -88 -30q-28 0 -144 44q-27 10 -46 10q-24 0 -40.5 -14t-35.5 -50z" />
<glyph unicode="&#xa1;" horiz-adv-x="275" d="M77 378v122h122v-122h-122zM62 -167l50 465h50l47 -465h-147z" />
<glyph unicode="&#xa2;" d="M165 151q-80 68 -80 190q0 119 73 187q25 24 50.5 36t65.5 18v126h62v-126q144 -18 172 -164l-91 -17q-14 46 -32.5 67t-48.5 26v-301q55 3 81 89l91 -13q-27 -144 -172 -165v-137h-62v137q-68 11 -109 47zM226 227q16 -25 48 -34v301q-38 -9 -55.5 -45.5t-17.5 -109.5 q0 -72 25 -112z" />
<glyph unicode="&#xa3;" d="M-12 0v111q54 1 79 7.5t45 26.5q40 37 40 90q0 22 -6 69h-77v87h67q-8 56 -8 83q0 89 56.5 146t144.5 57q79 0 131 -42q31 -24 60 -80l-94 -44q-26 75 -92 75q-40 0 -62.5 -27t-22.5 -76q0 -37 15 -92h121v-87h-121v-23q0 -60 -15.5 -94.5t-59.5 -75.5h128q90 0 124 21 q20 12 29 27.5t14 45.5l105 -53q-24 -64 -65 -101q-31 -29 -66 -40t-97 -11h-373z" />
<glyph unicode="&#xa4;" horiz-adv-x="667" d="M92 72l-62 62l101 100q-46 65 -46 139q0 70 46 138l-102 102l62 62l101 -102q69 47 142 47q72 0 139 -45l100 99l62 -62l-100 -99q47 -71 47 -141t-45 -137l100 -101l-61 -62l-101 100q-66 -47 -141 -47q-72 0 -142 47zM334 226q60 0 102.5 43t42.5 103t-42.5 103.5 t-100.5 43.5q-62 0 -104.5 -42.5t-42.5 -104.5q0 -60 42.5 -103t102.5 -43z" />
<glyph unicode="&#xa5;" d="M53 205v60h186v16l-45 82h-141v60h109l-133 244h139l144 -276l137 276h109l-125 -244h102v-60h-133l-42 -82v-16h175v-60h-175v-205h-121v205h-186z" />
<glyph unicode="&#xa6;" horiz-adv-x="500" d="M193 324v343h113v-343h-113zM193 153h113v-320h-113v320z" />
<glyph unicode="&#xa7;" d="M60 -31l107 21q42 -82 136 -82q47 0 76.5 21t29.5 54q0 29 -20.5 48t-73.5 39l-105 39q-65 24 -88 55q-32 43 -32 97q0 81 77 129q-34 28 -47.5 53t-13.5 61q0 77 56.5 123t151.5 46q149 0 203 -121l-91 -26q-27 74 -120 74q-46 0 -71.5 -17t-25.5 -47q0 -25 18.5 -42 t59.5 -31l88 -30q73 -25 107 -63t34 -96q0 -36 -14 -64.5t-51 -66.5q40 -27 57.5 -58t17.5 -77q0 -85 -61 -133t-168 -48q-97 0 -158 41q-26 18 -43 39.5t-36 61.5zM191 298q0 -57 100 -93l92 -33q36 36 36 68q0 55 -87 85l-105 36q-36 -32 -36 -63z" />
<glyph unicode="&#xa8;" horiz-adv-x="500" d="M330 580q-23 0 -38.5 15.5t-15.5 38.5t15.5 39t38.5 16q24 0 39.5 -16t15.5 -40q0 -22 -16 -37.5t-39 -15.5zM167 580q-23 0 -38.5 15.5t-15.5 38.5t15.5 39t38.5 16q24 0 39.5 -16t15.5 -40q0 -22 -16 -37.5t-39 -15.5z" />
<glyph unicode="&#xa9;" horiz-adv-x="773" d="M41 333q0 146 102 247t249 101q140 0 240.5 -103t100.5 -245q0 -143 -101.5 -245t-243.5 -102q-143 0 -245 102t-102 245zM103 333q0 -120 83.5 -205.5t201.5 -85.5q117 0 200 85.5t83 205.5q0 119 -82.5 205.5t-196.5 86.5q-121 0 -205 -85t-84 -207zM265 176 q-52 61 -52 157q0 94 47.5 150t126.5 56q134 0 161 -145l-80 -8q-10 35 -15 46q-21 43 -65 43q-40 0 -61.5 -36.5t-21.5 -103.5t22.5 -104.5t62.5 -37.5q32 0 52.5 22t24.5 62l81 -9q-9 -49 -25 -73q-45 -68 -138 -68q-77 0 -120 49z" />
<glyph unicode="&#xaa;" horiz-adv-x="357" d="M134 370q-47 0 -76.5 26t-29.5 67q0 50 49 77t142 27h14v18q0 42 -60 42q-31 0 -46 -10t-21 -36l-69 10q16 89 146 89q76 0 107 -32q21 -22 21 -78v-132q0 -25 10 -62h-76q-1 3 -3 7q-1 3 -1 4l-6 31v1l-2 -2l-12 -12l-9 -9l-5.5 -5.5t-5 -4.5t-4 -2t-6.5 -3 q-28 -11 -57 -11zM158 426q34 0 54.5 20.5t20.5 54.5v23q-123 0 -123 -57q0 -41 48 -41z" />
<glyph unicode="&#xab;" horiz-adv-x="329" d="M242 108l-81 141l81 141h44l-44 -141l44 -141h-44zM114 108l-77 141l77 141h47l-47 -141l47 -141h-47z" />
<glyph unicode="&#xac;" d="M77 165v102h433v-267h-113v165h-320z" />
<glyph unicode="&#xad;" horiz-adv-x="241" d="M-2 208v91h245v-91h-245z" />
<glyph unicode="&#xae;" horiz-adv-x="773" d="M41 333q0 146 102 247t249 101q140 0 240.5 -103t100.5 -245q0 -143 -101.5 -245t-243.5 -102q-143 0 -245 102t-102 245zM103 333q0 -120 83.5 -205.5t201.5 -85.5q117 0 200 85.5t83 205.5q0 119 -82.5 205.5t-196.5 86.5q-121 0 -205 -85t-84 -207zM226 133v400h185 q72 0 111.5 -31t39.5 -88q0 -74 -74 -105l74 -176h-90l-65 162h-96v-162h-85zM311 358h88q75 0 75 57q0 26 -18.5 40.5t-50.5 14.5h-94v-112z" />
<glyph unicode="&#xaf;" horiz-adv-x="500" d="M103 597v63h294v-63h-294z" />
<glyph unicode="&#xb0;" d="M294 413q-56 0 -95 39.5t-39 95.5q0 54 39.5 93t93.5 39q55 0 94.5 -39t39.5 -95q0 -55 -39 -94t-94 -39zM294 480q27 0 46.5 19.5t19.5 46.5q0 28 -19.5 47.5t-47.5 19.5q-27 0 -46.5 -19.5t-19.5 -46.5q0 -28 19.5 -47.5t47.5 -19.5z" />
<glyph unicode="&#xb1;" d="M247 83v207h-201v93h201v208h93v-208h200v-93h-200v-207h-93zM46 -43v93h494v-93h-494z" />
<glyph unicode="&#xb2;" horiz-adv-x="387" d="M32 267v74l32 21t48 30q88 54 111 76q38 35 38 71q0 29 -20 47.5t-51 18.5q-68 0 -79 -84l-80 19q12 63 54.5 98t108.5 35q69 0 112 -37.5t43 -97.5q0 -66 -65 -116q-32 -24 -145 -87h209v-68h-316z" />
<glyph unicode="&#xb3;" horiz-adv-x="387" d="M190 260q-64 0 -109 29.5t-61 81.5l78 18q22 -67 91 -67q35 0 57 16.5t22 41.5q0 27 -20.5 43.5t-54.5 16.5h-55v63h42q35 0 56 14.5t21 39.5q0 24 -18 38t-49 14t-50 -13t-32 -44l-75 13q14 50 56.5 79t103.5 29q64 0 105 -30.5t41 -78.5q0 -65 -63 -89q40 -16 58 -38.5 t18 -57.5q0 -53 -45 -86t-117 -33z" />
<glyph unicode="&#xb4;" horiz-adv-x="500" d="M190 567l-21 52l192 107l32 -73z" />
<glyph unicode="&#xb5;" d="M85 -167v660h111v-264q0 -70 19 -103q26 -45 78 -45q26 0 48.5 13t33.5 34q17 33 17 101v264h111v-493h-94v75q-11 -25 -31 -47q-21 -23 -37.5 -30.5t-44.5 -7.5q-35 0 -62 18.5t-38 50.5v-226h-111z" />
<glyph unicode="&#xb6;" d="M323 -163v506h-64q-67 0 -97 4.5t-57 18.5q-71 36 -71 135q0 37 16.5 72.5t45.5 59.5q24 20 59.5 27t106.5 7h302v-56h-73v-774h-56v774h-55v-774h-57zM181 410q25 -11 79 -11h63v212h-52q-51 0 -74 -5t-37 -19q-28 -28 -28 -89q0 -30 13.5 -54t35.5 -34z" />
<glyph unicode="&#xb7;" horiz-adv-x="121" d="M0 190v128h121v-128h-121z" />
<glyph unicode="&#xb8;" horiz-adv-x="500" d="M183 -85l28 85h40l-13 -45q42 -2 64 -14q41 -22 41 -65q0 -34 -27.5 -57t-66.5 -23q-35 0 -100 29l16 39q42 -24 76 -24q17 0 28 10t11 25q0 19 -20.5 30t-54.5 11q-12 0 -22 -1z" />
<glyph unicode="&#xb9;" horiz-adv-x="387" d="M61 266v65h114v239q-58 -47 -115 -70v79l18 6q82 27 124 90h56v-344h105v-65h-302z" />
<glyph unicode="&#xba;" horiz-adv-x="349" d="M171 371q-64 0 -104.5 43.5t-40.5 111.5t42 111t108 43t106.5 -42.5t40.5 -112.5q0 -68 -42.5 -111t-109.5 -43zM174 431q65 0 65 95q0 93 -63 93q-66 0 -66 -94q0 -44 17 -69t47 -25z" />
<glyph unicode="&#xbb;" horiz-adv-x="329" d="M167 109l46 137l-46 143h46l79 -143l-79 -137h-46zM43 109l46 137l-46 143h46l78 -143l-78 -137h-46z" />
<glyph unicode="&#xbc;" horiz-adv-x="880" d="M33 266v65h114v239q-58 -47 -115 -70v79l18 6q82 27 124 90h56v-344h105v-65h-302zM189 0l411 667h72l-412 -667h-71zM529 89v56l188 263h82v-252h63v-67h-63v-89h-84v89h-186zM607 151h113v90q0 28 4 83z" />
<glyph unicode="&#xbd;" horiz-adv-x="880" d="M36 266v65h114v239q-58 -47 -115 -70v79l18 6q82 27 124 90h56v-344h105v-65h-302zM192 0l411 667h72l-412 -667h-71zM536 0v74l81 50q84 52 111 77q38 35 38 70q0 29 -20.5 47.5t-51.5 18.5q-68 0 -79 -83l-80 19q12 63 55 98t108 35q70 0 113 -37t43 -98 q0 -66 -65 -116q-33 -25 -146 -87h210v-68h-317z" />
<glyph unicode="&#xbe;" horiz-adv-x="880" d="M185 260q-64 0 -109 29.5t-61 81.5l78 18q22 -67 91 -67q35 0 57 16.5t22 41.5q0 27 -20.5 43.5t-54.5 16.5h-55v63h42q35 0 56 14.5t21 39.5q0 24 -18 38t-49 14t-50 -13t-32 -44l-75 13q14 50 56.5 79t103.5 29q64 0 105 -30.5t41 -78.5q0 -65 -63 -89q40 -16 58 -38.5 t18 -57.5q0 -53 -45 -86t-117 -33zM225 0l412 667h72l-412 -667h-72zM519 89v56l188 263h82v-252h63v-67h-63v-89h-84v89h-186zM597 151h113v90q0 28 4 83z" />
<glyph unicode="&#xbf;" horiz-adv-x="502" d="M189 379v121h115v-121h-115zM32 17q0 79 61 140q11 11 85 66q20 14 25 28t6 58h95v-66q0 -33 -12.5 -51.5t-59.5 -54.5q-69 -54 -69 -114q0 -44 27 -70.5t71 -26.5q74 0 100 67q11 27 18 72l106 -19q-10 -102 -74.5 -162.5t-162.5 -60.5q-93 0 -154.5 55.5t-61.5 138.5z " />
<glyph unicode="&#xc0;" horiz-adv-x="603" d="M329 727l-210 71l29 74l200 -93zM3 0l221 667h148l224 -667h-129l-53 159h-256l-53 -159h-102zM188 255h194l-97 298z" />
<glyph unicode="&#xc1;" horiz-adv-x="603" d="M268 727l-20 52l200 93l30 -74zM3 0l221 667h148l224 -667h-129l-53 159h-256l-53 -159h-102zM188 255h194l-97 298z" />
<glyph unicode="&#xc2;" horiz-adv-x="603" d="M126 740l173 127l174 -127l-93 -10l-81 54l-80 -54zM3 0l221 667h148l224 -667h-129l-53 159h-256l-53 -159h-102zM188 255h194l-97 298z" />
<glyph unicode="&#xc3;" horiz-adv-x="603" d="M179 742l-35 50q48 57 102 57q24 0 69 -19q47 -21 68 -21q29 0 57 38l35 -50q-40 -57 -104 -57q-26 0 -76 23q-37 18 -49 18q-27 0 -67 -39zM3 0l221 667h148l224 -667h-129l-53 159h-256l-53 -159h-102zM188 255h194l-97 298z" />
<glyph unicode="&#xc4;" horiz-adv-x="603" d="M380 738q-23 0 -38.5 15.5t-15.5 38.5t15.5 39t38.5 16q24 0 39.5 -16t15.5 -40q0 -22 -16 -37.5t-39 -15.5zM210 738q-23 0 -38.5 15.5t-15.5 38.5t15.5 39t38.5 16q24 0 39.5 -16t15.5 -40q0 -22 -16 -37.5t-39 -15.5zM3 0l221 667h148l224 -667h-129l-53 159h-256 l-53 -159h-102zM188 255h194l-97 298z" />
<glyph unicode="&#xc5;" horiz-adv-x="603" d="M296 710q-38 0 -64.5 26.5t-26.5 63.5q0 38 26.5 64.5t64.5 26.5t64.5 -26t26.5 -65q0 -37 -26.5 -63.5t-64.5 -26.5zM296 761q17 0 28.5 11t11.5 28t-11 28.5t-27 11.5q-19 0 -30.5 -11t-11.5 -28q0 -18 11 -29t29 -11zM3 0l221 667h148l224 -667h-129l-53 159h-256 l-53 -159h-102zM188 255h194l-97 298z" />
<glyph unicode="&#xc6;" horiz-adv-x="846" d="M-17 0l355 667h469v-97h-296v-184h235v-95h-235v-188h304v-103h-424v189h-199l-95 -189h-114zM239 282h152v302z" />
<glyph unicode="&#xc7;" horiz-adv-x="579" d="M240 -89l26 81q-104 13 -166 106t-62 236q0 156 74 249.5t197 93.5q101 0 165 -60.5t83 -175.5l-111 -12q-17 71 -41 104q-34 47 -95 47q-68 0 -105 -64t-37 -180t38.5 -181t107.5 -65q52 0 88.5 39t43.5 103l111 -13q-12 -104 -79 -166.5t-168 -62.5l-13 -39 q113 -3 113 -79q0 -37 -28 -60t-72 -23t-111 30l16 39q61 -25 83 -25q19 0 31.5 10t12.5 26q0 43 -74 43q-16 0 -28 -1z" />
<glyph unicode="&#xc8;" horiz-adv-x="537" d="M335 727l-210 71l30 74l199 -93zM73 0v667h429v-99h-309v-181h248v-97h-248v-187h313v-103h-433z" />
<glyph unicode="&#xc9;" horiz-adv-x="537" d="M253 727l-20 52l200 93l30 -74zM73 0v667h429v-99h-309v-181h248v-97h-248v-187h313v-103h-433z" />
<glyph unicode="&#xca;" horiz-adv-x="537" d="M116 740l174 127l173 -127l-92 -10l-81 54l-81 -54zM73 0v667h429v-99h-309v-181h248v-97h-248v-187h313v-103h-433z" />
<glyph unicode="&#xcb;" horiz-adv-x="537" d="M384 738q-23 0 -38.5 15.5t-15.5 38.5t15.5 39t38.5 16q24 0 39.5 -16t15.5 -40q0 -22 -16 -37.5t-39 -15.5zM214 738q-23 0 -38.5 15.5t-15.5 38.5t15.5 39t38.5 16q24 0 39.5 -16t15.5 -40q0 -22 -16 -37.5t-39 -15.5zM73 0v667h429v-99h-309v-181h248v-97h-248v-187 h313v-103h-433z" />
<glyph unicode="&#xcc;" horiz-adv-x="267" d="M165 727l-190 71l30 74l180 -93zM73 0v667h120v-667h-120z" />
<glyph unicode="&#xcd;" horiz-adv-x="267" d="M107 727l-19 52l180 93l30 -74zM73 0v667h120v-667h-120z" />
<glyph unicode="&#xce;" horiz-adv-x="267" d="M69 730l-89 10l157 127l157 -127l-90 -10l-67 54zM74 0v667h120v-667h-120z" />
<glyph unicode="&#xcf;" horiz-adv-x="267" d="M214 738q-23 0 -38.5 15.5t-15.5 38.5t15.5 39t38.5 16q24 0 39.5 -16t15.5 -40q0 -22 -16 -37.5t-39 -15.5zM64 738q-23 0 -38.5 15.5t-15.5 38.5t15.5 39t38.5 16q24 0 39.5 -16t15.5 -40q0 -22 -16 -37.5t-39 -15.5zM73 0v667h120v-667h-120z" />
<glyph unicode="&#xd0;" horiz-adv-x="655" d="M70 0v294h-67v93h67v280h246q124 0 206 -83q95 -98 95 -248q0 -174 -115 -270q-81 -66 -213 -66h-219zM193 98h101q88 0 140.5 65t52.5 174q0 103 -50 169t-129 66h-115v-185h165v-93h-165v-196z" />
<glyph unicode="&#xd1;" horiz-adv-x="650" d="M215 742l-36 50q50 57 103 57q23 0 68 -19q47 -21 69 -21q16 0 28 8t28 30l35 -50q-40 -57 -104 -57q-26 0 -76 23q-37 18 -48 18q-28 0 -67 -39zM73 0v667h133l233 -393l20 -37l22 -43v473h95v-667h-110l-260 426l-18 36l-18 36v-498h-97z" />
<glyph unicode="&#xd2;" horiz-adv-x="643" d="M157 798l29 74l200 -93l-19 -52zM112 89q-74 100 -74 247q0 150 80 245.5t206 95.5q128 0 204.5 -95t76.5 -254q0 -151 -79 -244.5t-207 -93.5q-134 0 -207 99zM197 167q17 -37 50 -58.5t73 -21.5q39 0 73.5 21.5t51.5 56.5q30 59 30 161q0 254 -152 254q-85 0 -120 -69 q-35 -70 -35 -179q0 -98 29 -165z" />
<glyph unicode="&#xd3;" horiz-adv-x="643" d="M286 727l-19 52l199 93l30 -74zM112 89q-74 100 -74 247q0 150 80 245.5t206 95.5q128 0 204.5 -95t76.5 -254q0 -151 -79 -244.5t-207 -93.5q-134 0 -207 99zM197 167q17 -37 50 -58.5t73 -21.5q39 0 73.5 21.5t51.5 56.5q30 59 30 161q0 254 -152 254q-85 0 -120 -69 q-35 -70 -35 -179q0 -98 29 -165z" />
<glyph unicode="&#xd4;" horiz-adv-x="643" d="M154 740l174 127l174 -127l-93 -10l-81 54l-81 -54zM112 89q-74 100 -74 247q0 150 80 245.5t206 95.5q128 0 204.5 -95t76.5 -254q0 -151 -79 -244.5t-207 -93.5q-134 0 -207 99zM197 167q17 -37 50 -58.5t73 -21.5q39 0 73.5 21.5t51.5 56.5q30 59 30 161 q0 254 -152 254q-85 0 -120 -69q-35 -70 -35 -179q0 -98 29 -165z" />
<glyph unicode="&#xd5;" horiz-adv-x="643" d="M208 742l-35 50q48 57 102 57q25 0 68 -19q49 -21 69 -21q16 0 28 8t28 30l35 -50q-40 -57 -103 -57q-26 0 -76 23q-37 18 -49 18q-28 0 -67 -39zM112 89q-74 100 -74 247q0 150 80 245.5t206 95.5q128 0 204.5 -95t76.5 -254q0 -151 -79 -244.5t-207 -93.5 q-134 0 -207 99zM197 167q17 -37 50 -58.5t73 -21.5q39 0 73.5 21.5t51.5 56.5q30 59 30 161q0 254 -152 254q-85 0 -120 -69q-35 -70 -35 -179q0 -98 29 -165z" />
<glyph unicode="&#xd6;" horiz-adv-x="643" d="M415 738q-23 0 -38.5 15.5t-15.5 38.5t15.5 39t38.5 16q24 0 39.5 -16t15.5 -40q0 -22 -16 -37.5t-39 -15.5zM245 738q-23 0 -38.5 15.5t-15.5 38.5t15.5 39t38.5 16q24 0 39.5 -16t15.5 -40q0 -22 -16 -37.5t-39 -15.5zM112 89q-74 100 -74 247q0 150 80 245.5t206 95.5 q128 0 204.5 -95t76.5 -254q0 -151 -79 -244.5t-207 -93.5q-134 0 -207 99zM197 167q17 -37 50 -58.5t73 -21.5q39 0 73.5 21.5t51.5 56.5q30 59 30 161q0 254 -152 254q-85 0 -120 -69q-35 -70 -35 -179q0 -98 29 -165z" />
<glyph unicode="&#xd7;" d="M147 124l-66 66l147 147l-147 147l66 66l147 -147l147 147l66 -66l-147 -147l146 -147l-65 -66l-147 147z" />
<glyph unicode="&#xd8;" horiz-adv-x="643" d="M28 -27l82 118q-72 113 -72 244q0 151 80 246.5t206 95.5q44 0 77 -10t78 -36l43 63h94l-82 -120q71 -98 71 -243q0 -153 -78.5 -247t-206.5 -94q-92 0 -154 47l-45 -64h-93zM187 200l228 345q-22 21 -41 28t-51 7q-40 0 -71.5 -18.5t-48.5 -50.5q-35 -72 -35 -177 q0 -77 19 -134zM230 124q40 -37 91 -37q39 0 73.5 21t51.5 56q29 59 29 168q0 67 -16 137z" />
<glyph unicode="&#xd9;" horiz-adv-x="595" d="M343 727l-210 71l29 74l200 -93zM120 55q-29 30 -41 69.5t-12 105.5v437h123v-429q0 -78 29 -108q33 -35 94 -35q68 0 99 41q24 32 24 102v429h95v-429q0 -75 -11.5 -113t-44.5 -71q-64 -64 -177 -64q-116 0 -178 65z" />
<glyph unicode="&#xda;" horiz-adv-x="595" d="M262 727l-19 52l200 93l29 -74zM120 55q-29 30 -41 69.5t-12 105.5v437h123v-429q0 -78 29 -108q33 -35 94 -35q68 0 99 41q24 32 24 102v429h95v-429q0 -75 -11.5 -113t-44.5 -71q-64 -64 -177 -64q-116 0 -178 65z" />
<glyph unicode="&#xdb;" horiz-adv-x="595" d="M132 740l174 127l173 -127l-92 -10l-81 54l-81 -54zM120 55q-29 30 -41 69.5t-12 105.5v437h123v-429q0 -78 29 -108q33 -35 94 -35q68 0 99 41q24 32 24 102v429h95v-429q0 -75 -11.5 -113t-44.5 -71q-64 -64 -177 -64q-116 0 -178 65z" />
<glyph unicode="&#xdc;" horiz-adv-x="595" d="M393 738q-23 0 -38.5 15.5t-15.5 38.5t15.5 39t38.5 16q24 0 39.5 -16t15.5 -40q0 -22 -16 -37.5t-39 -15.5zM223 738q-23 0 -38.5 15.5t-15.5 38.5t15.5 39t38.5 16q24 0 39.5 -16t15.5 -40q0 -22 -16 -37.5t-39 -15.5zM120 55q-29 30 -41 69.5t-12 105.5v437h123v-429 q0 -78 29 -108q33 -35 94 -35q68 0 99 41q24 32 24 102v429h95v-429q0 -75 -11.5 -113t-44.5 -71q-64 -64 -177 -64q-116 0 -178 65z" />
<glyph unicode="&#xdd;" horiz-adv-x="544" d="M243 727l-19 52l200 93l30 -74zM214 0v281l-227 386h145l158 -275l151 275h116l-216 -386v-281h-127z" />
<glyph unicode="&#xde;" horiz-adv-x="606" d="M73 0v667h120v-94h153q87 0 140 -33q90 -56 90 -166q0 -89 -60.5 -146t-155.5 -57h-167v-171h-120zM193 274h142q53 0 84 26.5t31 72.5q0 43 -30 73q-30 27 -96 27h-131v-199z" />
<glyph unicode="&#xdf;" horiz-adv-x="557" d="M70 -46v406h-54v87h54q4 94 24 146q22 56 76 89t124 33q82 0 136 -44t54 -111q0 -39 -20 -72.5t-54 -50.5q-38 -18 -98 -30q-13 -12 -13 -19t9 -12t41 -17l73 -32q114 -49 114 -160q0 -82 -58.5 -135.5t-148.5 -53.5q-48 0 -101 19l24 75q31 -9 68 -9q65 0 89 24 q22 22 22 50q0 30 -22.5 52.5t-76.5 46.5q-67 30 -92 55.5t-25 64.5q0 27 10 49t37 55l21 8q52 20 70 38t18 50q0 36 -23 58t-60 22q-48 0 -77.5 -33.5t-29.5 -88.5v-560h-111z" />
<glyph unicode="&#xe0;" horiz-adv-x="540" d="M321 567l-204 86l32 73l192 -107zM35 141q0 117 142 153q67 17 188 17v37q0 76 -105 76q-51 0 -78 -18t-36 -58l-95 14q11 66 65 102q59 39 158 39q122 0 169 -54q19 -21 25 -46.5t6 -80.5v-222q0 -44 15 -100h-107q-13 48 -17 100q-21 -48 -47 -70q-48 -40 -120 -40 t-117.5 42t-45.5 109zM149 148q0 -34 23 -54t64 -20q58 0 93.5 36.5t35.5 95.5v45q-216 0 -216 -103z" />
<glyph unicode="&#xe1;" horiz-adv-x="540" d="M239 567l-21 52l192 107l32 -73zM35 141q0 117 142 153q67 17 188 17v37q0 76 -105 76q-51 0 -78 -18t-36 -58l-95 14q11 66 65 102q59 39 158 39q122 0 169 -54q19 -21 25 -46.5t6 -80.5v-222q0 -44 15 -100h-107q-13 48 -17 100q-21 -48 -47 -70q-48 -40 -120 -40 t-117.5 42t-45.5 109zM149 148q0 -34 23 -54t64 -20q58 0 93.5 36.5t35.5 95.5v45q-216 0 -216 -103z" />
<glyph unicode="&#xe2;" horiz-adv-x="540" d="M109 580l170 141l170 -141l-89 -10l-81 64l-82 -64zM35 141q0 117 142 153q67 17 188 17v37q0 76 -105 76q-51 0 -78 -18t-36 -58l-95 14q11 66 65 102q59 39 158 39q122 0 169 -54q19 -21 25 -46.5t6 -80.5v-222q0 -44 15 -100h-107q-13 48 -17 100q-21 -48 -47 -70 q-48 -40 -120 -40t-117.5 42t-45.5 109zM149 148q0 -34 23 -54t64 -20q58 0 93.5 36.5t35.5 95.5v45q-216 0 -216 -103z" />
<glyph unicode="&#xe3;" horiz-adv-x="540" d="M161 589l-34 50q47 57 98 57q24 0 66 -19q46 -21 66 -21q28 0 54 38l34 -50q-14 -24 -42.5 -40.5t-57.5 -16.5t-73 23q-34 18 -50 18q-23 0 -61 -39zM35 141q0 117 142 153q67 17 188 17v37q0 76 -105 76q-51 0 -78 -18t-36 -58l-95 14q11 66 65 102q59 39 158 39 q122 0 169 -54q19 -21 25 -46.5t6 -80.5v-222q0 -44 15 -100h-107q-13 48 -17 100q-21 -48 -47 -70q-48 -40 -120 -40t-117.5 42t-45.5 109zM149 148q0 -34 23 -54t64 -20q58 0 93.5 36.5t35.5 95.5v45q-216 0 -216 -103z" />
<glyph unicode="&#xe4;" horiz-adv-x="540" d="M363 580q-23 0 -38.5 15.5t-15.5 38.5t15.5 39t38.5 16q24 0 39.5 -16t15.5 -40q0 -22 -16 -37.5t-39 -15.5zM200 580q-23 0 -38.5 15.5t-15.5 38.5t15.5 39t38.5 16q24 0 39.5 -16t15.5 -40q0 -22 -16 -37.5t-39 -15.5zM35 141q0 117 142 153q67 17 188 17v37 q0 76 -105 76q-51 0 -78 -18t-36 -58l-95 14q11 66 65 102q59 39 158 39q122 0 169 -54q19 -21 25 -46.5t6 -80.5v-222q0 -44 15 -100h-107q-13 48 -17 100q-21 -48 -47 -70q-48 -40 -120 -40t-117.5 42t-45.5 109zM149 148q0 -34 23 -54t64 -20q58 0 93.5 36.5t35.5 95.5 v45q-216 0 -216 -103z" />
<glyph unicode="&#xe5;" horiz-adv-x="540" d="M277 554q-37 0 -63.5 26t-26.5 64t26.5 64.5t64.5 26.5t64 -26.5t26 -64.5t-26.5 -64t-64.5 -26zM277 605q18 0 29 11t11 28t-10.5 28.5t-26.5 11.5q-19 0 -30.5 -11t-11.5 -28q0 -18 11 -29t28 -11zM35 141q0 117 142 153q67 17 188 17v37q0 76 -105 76q-51 0 -78 -18 t-36 -58l-95 14q11 66 65 102q59 39 158 39q122 0 169 -54q19 -21 25 -46.5t6 -80.5v-222q0 -44 15 -100h-107q-13 48 -17 100q-21 -48 -47 -70q-48 -40 -120 -40t-117.5 42t-45.5 109zM149 148q0 -34 23 -54t64 -20q58 0 93.5 36.5t35.5 95.5v45q-216 0 -216 -103z" />
<glyph unicode="&#xe6;" horiz-adv-x="858" d="M36 141q0 80 75 123t214 43q23 0 44 -2q-1 48 -3.5 62.5t-13.5 26.5q-26 27 -86 27q-89 0 -109 -68l-99 12q13 53 45 82q62 56 175 56q53 0 84.5 -11t77.5 -45q70 56 155 56q105 0 166.5 -65.5t61.5 -177.5v-30h-348q1 -55 17 -89q14 -30 42.5 -47t63.5 -17q82 0 113 78 l103 -17q-21 -68 -81.5 -108t-142.5 -40q-64 0 -114.5 26.5t-78.5 75.5q-38 -55 -80 -78.5t-102 -23.5q-82 0 -130.5 41t-48.5 110zM479 305h229q-4 57 -34 88t-81 31q-48 0 -77 -30.5t-37 -88.5zM157 145q0 -33 22.5 -53t60.5 -20q42 0 75.5 24t44.5 61q8 29 8 88 q-78 0 -128 -14q-83 -22 -83 -86z" />
<glyph unicode="&#xe7;" horiz-adv-x="466" d="M186 -85l25 77q-81 13 -128.5 81.5t-47.5 172.5q0 115 61 186t159 71q96 0 147 -62q33 -39 45 -108l-96 -13q-12 92 -90 92q-51 0 -79.5 -45t-28.5 -125q0 -73 27 -114t74 -41q74 0 97 94l96 -10q-17 -86 -67.5 -133t-128.5 -48l-11 -36q44 -3 64 -13q41 -22 41 -65 q0 -33 -27.5 -56.5t-66.5 -23.5q-35 0 -100 29l16 39q42 -24 76 -24q17 0 28 10t11 25q0 19 -20.5 30t-54.5 11q-12 0 -21 -1z" />
<glyph unicode="&#xe8;" horiz-adv-x="524" d="M314 567l-204 86l32 73l192 -107zM35 245q0 115 64 186.5t168 71.5q107 0 164 -70t58 -200h-338v-14q0 -68 31 -105t87 -37q42 0 68 19t43 62l101 -14q-51 -154 -219 -154q-103 0 -165 69.5t-62 185.5zM151 305h223q-3 47 -25 77q-32 43 -86 43q-47 0 -76 -31t-36 -89z " />
<glyph unicode="&#xe9;" horiz-adv-x="524" d="M238 567l-21 52l192 107l32 -73zM35 245q0 115 64 186.5t168 71.5q107 0 164 -70t58 -200h-338v-14q0 -68 31 -105t87 -37q42 0 68 19t43 62l101 -14q-51 -154 -219 -154q-103 0 -165 69.5t-62 185.5zM151 305h223q-3 47 -25 77q-32 43 -86 43q-47 0 -76 -31t-36 -89z " />
<glyph unicode="&#xea;" horiz-adv-x="524" d="M99 580l170 141l170 -141l-89 -10l-81 64l-82 -64zM35 245q0 115 64 186.5t168 71.5q107 0 164 -70t58 -200h-338v-14q0 -68 31 -105t87 -37q42 0 68 19t43 62l101 -14q-51 -154 -219 -154q-103 0 -165 69.5t-62 185.5zM151 305h223q-3 47 -25 77q-32 43 -86 43 q-47 0 -76 -31t-36 -89z" />
<glyph unicode="&#xeb;" horiz-adv-x="524" d="M349 580q-23 0 -38.5 15.5t-15.5 38.5t15.5 39t38.5 16q24 0 39.5 -16t15.5 -40q0 -22 -16 -37.5t-39 -15.5zM186 580q-23 0 -38.5 15.5t-15.5 38.5t15.5 39t38.5 16q24 0 39.5 -16t15.5 -40q0 -22 -16 -37.5t-39 -15.5zM35 245q0 115 64 186.5t168 71.5q107 0 164 -70 t58 -200h-338v-14q0 -68 31 -105t87 -37q42 0 68 19t43 62l101 -14q-51 -154 -219 -154q-103 0 -165 69.5t-62 185.5zM151 305h223q-3 47 -25 77q-32 43 -86 43q-47 0 -76 -31t-36 -89z" />
<glyph unicode="&#xec;" horiz-adv-x="245" d="M154 567l-184 89l36 70l168 -107zM66 0v493h111v-493h-111z" />
<glyph unicode="&#xed;" horiz-adv-x="245" d="M94 567l-20 52l168 107l36 -70zM67 0v493h111v-493h-111z" />
<glyph unicode="&#xee;" horiz-adv-x="245" d="M64 570l-85 10l146 141l147 -141l-85 -10l-62 64zM66 0v493h111v-493h-111z" />
<glyph unicode="&#xef;" horiz-adv-x="245" d="M196 584q-21 0 -35.5 14.5t-14.5 35.5q0 22 14.5 37t36.5 15t36.5 -15t14.5 -37t-14.5 -36t-37.5 -14zM59 584q-21 0 -35.5 14.5t-14.5 35.5q0 22 14.5 37t36.5 15t36.5 -15t14.5 -37t-14.5 -36t-37.5 -14zM67 0v493h111v-493h-111z" />
<glyph unicode="&#xf0;" horiz-adv-x="529" d="M86 78q-51 73 -51 166q0 104 61.5 177t148.5 73q35 0 60 -13t53 -45q-9 36 -30.5 75.5t-45.5 65.5l-94 -47l-29 41l82 44q-24 17 -90 46l21 39q64 -13 132 -54l95 47l35 -38l-86 -44q146 -149 146 -354q0 -119 -64 -192.5t-168 -73.5q-114 0 -176 87zM180 124 q25 -43 83 -43q52 0 81.5 42t29.5 116q0 76 -29 119t-80 43q-65 0 -93 -59q-22 -44 -22 -99q0 -69 30 -119z" />
<glyph unicode="&#xf1;" horiz-adv-x="541" d="M153 589l-34 50q47 57 98 57q24 0 66 -19q46 -21 66 -21q28 0 54 38l34 -50q-14 -24 -42.5 -40.5t-57.5 -16.5t-73 23q-34 18 -50 18q-23 0 -61 -39zM67 0v493h101v-114q31 67 66 95.5t85 28.5q43 0 81 -20.5t54 -52.5q21 -41 21 -112v-318h-111v308q0 45 -21 71.5 t-56 26.5q-28 0 -52.5 -16.5t-38.5 -44.5q-18 -36 -18 -92v-253h-111z" />
<glyph unicode="&#xf2;" horiz-adv-x="529" d="M306 567l-204 86l32 73l192 -107zM84 81q-49 73 -49 167q0 112 65 183.5t166 71.5q123 0 187 -102q41 -65 41 -155q0 -113 -65 -184.5t-169 -71.5q-115 0 -176 91zM264 81q54 0 83 43.5t29 124.5q0 79 -28.5 121t-81.5 42q-54 0 -83.5 -43t-29.5 -122t29 -122.5t82 -43.5 z" />
<glyph unicode="&#xf3;" horiz-adv-x="529" d="M230 567l-21 52l192 107l32 -73zM84 81q-49 73 -49 167q0 112 65 183.5t166 71.5q123 0 187 -102q41 -65 41 -155q0 -113 -65 -184.5t-169 -71.5q-115 0 -176 91zM264 81q54 0 83 43.5t29 124.5q0 79 -28.5 121t-81.5 42q-54 0 -83.5 -43t-29.5 -122t29 -122.5t82 -43.5z " />
<glyph unicode="&#xf4;" horiz-adv-x="529" d="M101 580l170 141l170 -141l-89 -10l-81 64l-82 -64zM84 81q-49 73 -49 167q0 112 65 183.5t166 71.5q123 0 187 -102q41 -65 41 -155q0 -113 -65 -184.5t-169 -71.5q-115 0 -176 91zM264 81q54 0 83 43.5t29 124.5q0 79 -28.5 121t-81.5 42q-54 0 -83.5 -43t-29.5 -122 t29 -122.5t82 -43.5z" />
<glyph unicode="&#xf5;" horiz-adv-x="529" d="M156 589l-34 50q47 57 98 57q24 0 66 -19q46 -21 66 -21q28 0 54 38l34 -50q-14 -24 -42.5 -40.5t-57.5 -16.5t-73 23q-34 18 -50 18q-23 0 -61 -39zM84 81q-49 73 -49 167q0 112 65 183.5t166 71.5q123 0 187 -102q41 -65 41 -155q0 -113 -65 -184.5t-169 -71.5 q-115 0 -176 91zM264 81q54 0 83 43.5t29 124.5q0 79 -28.5 121t-81.5 42q-54 0 -83.5 -43t-29.5 -122t29 -122.5t82 -43.5z" />
<glyph unicode="&#xf6;" horiz-adv-x="529" d="M345 580q-23 0 -38.5 15.5t-15.5 38.5t15.5 39t38.5 16q24 0 39.5 -16t15.5 -40q0 -22 -16 -37.5t-39 -15.5zM182 580q-23 0 -38.5 15.5t-15.5 38.5t15.5 39t38.5 16q24 0 39.5 -16t15.5 -40q0 -22 -16 -37.5t-39 -15.5zM84 81q-49 73 -49 167q0 112 65 183.5t166 71.5 q123 0 187 -102q41 -65 41 -155q0 -113 -65 -184.5t-169 -71.5q-115 0 -176 91zM264 81q54 0 83 43.5t29 124.5q0 79 -28.5 121t-81.5 42q-54 0 -83.5 -43t-29.5 -122t29 -122.5t82 -43.5z" />
<glyph unicode="&#xf7;" d="M292 446q-25 0 -42.5 18t-17.5 43q0 24 18 41.5t43 17.5q24 0 41.5 -17.5t17.5 -42.5t-17.5 -42.5t-42.5 -17.5zM46 290v93h494v-93h-494zM232 167q0 24 18 41.5t43 17.5q24 0 41.5 -17.5t17.5 -42.5t-17.5 -42.5t-42.5 -17.5t-42.5 18t-17.5 43z" />
<glyph unicode="&#xf8;" horiz-adv-x="529" d="M35 -32l65 91q-65 85 -65 189q0 113 65 184t169 71q61 0 120 -34l35 48h70l-63 -86q36 -47 49.5 -86t13.5 -96q0 -117 -64.5 -188t-171.5 -71q-60 0 -115 31l-39 -53h-69zM166 151l164 239q-28 22 -66 22q-52 0 -81.5 -43.5t-29.5 -120.5q0 -44 13 -97zM203 102 q30 -21 61 -21q112 0 112 173q0 48 -15 84z" />
<glyph unicode="&#xf9;" horiz-adv-x="539" d="M319 567l-204 86l32 73l192 -107zM92 50q-25 38 -25 98v345h114v-321q0 -35 10 -54q20 -33 60 -33q29 0 56 19.5t40 49.5q15 38 15 102v237h111v-493h-104v107q-10 -31 -21 -48t-31 -33q-43 -36 -104 -36q-79 0 -121 60z" />
<glyph unicode="&#xfa;" horiz-adv-x="539" d="M232 567l-21 52l192 107l32 -73zM92 50q-25 38 -25 98v345h114v-321q0 -35 10 -54q20 -33 60 -33q29 0 56 19.5t40 49.5q15 38 15 102v237h111v-493h-104v107q-10 -31 -21 -48t-31 -33q-43 -36 -104 -36q-79 0 -121 60z" />
<glyph unicode="&#xfb;" horiz-adv-x="539" d="M104 580l170 141l170 -141l-89 -10l-81 64l-82 -64zM92 50q-25 38 -25 98v345h114v-321q0 -35 10 -54q20 -33 60 -33q29 0 56 19.5t40 49.5q15 38 15 102v237h111v-493h-104v107q-10 -31 -21 -48t-31 -33q-43 -36 -104 -36q-79 0 -121 60z" />
<glyph unicode="&#xfc;" horiz-adv-x="539" d="M360 580q-23 0 -38.5 15.5t-15.5 38.5t15.5 39t38.5 16q24 0 39.5 -16t15.5 -40q0 -22 -16 -37.5t-39 -15.5zM197 580q-23 0 -38.5 15.5t-15.5 38.5t15.5 39t38.5 16q24 0 39.5 -16t15.5 -40q0 -22 -16 -37.5t-39 -15.5zM92 50q-25 38 -25 98v345h114v-321q0 -35 10 -54 q20 -33 60 -33q29 0 56 19.5t40 49.5q15 38 15 102v237h111v-493h-104v107q-10 -31 -21 -48t-31 -33q-43 -36 -104 -36q-79 0 -121 60z" />
<glyph unicode="&#xfd;" horiz-adv-x="442" d="M193 567l-21 52l192 107l32 -73zM45 -86q21 -1 55 -1q50 0 66 28q6 10 13.5 31.5t7.5 26.5q0 3 -11 31l-169 463h116l120 -326l103 326h89l-192 -562q-20 -57 -51.5 -83t-82.5 -26q-16 0 -64 4v88z" />
<glyph unicode="&#xfe;" horiz-adv-x="536" d="M67 -167v834h111v-250q46 86 144 86q81 0 127 -65q53 -76 53 -188q0 -121 -58 -199q-46 -61 -130 -61q-89 0 -136 79v-236h-111zM178 202q0 -54 30 -89t77 -35t73 43.5t26 120.5q0 80 -26 125t-73 45q-46 0 -76.5 -39.5t-30.5 -100.5v-70z" />
<glyph unicode="&#xff;" horiz-adv-x="442" d="M315 580q-23 0 -38.5 15.5t-15.5 38.5t15.5 39t38.5 16q24 0 39.5 -16t15.5 -40q0 -22 -16 -37.5t-39 -15.5zM152 580q-23 0 -38.5 15.5t-15.5 38.5t15.5 39t38.5 16q24 0 39.5 -16t15.5 -40q0 -22 -16 -37.5t-39 -15.5zM45 -86q21 -1 55 -1q50 0 66 28q6 10 13.5 31.5 t7.5 26.5q0 3 -11 31l-169 463h116l120 -326l103 326h89l-192 -562q-20 -57 -51.5 -83t-82.5 -26q-16 0 -64 4v88z" />
<glyph unicode="&#x152;" horiz-adv-x="940" d="M318 -10q-125 0 -202.5 96.5t-77.5 250.5q0 153 75.5 247t199.5 94q84 0 152 -41v30h444v-97h-324v-183h258v-95h-258v-189h324v-103h-444v33q-66 -43 -147 -43zM322 91q64 0 112 43q31 28 31 80v234q0 54 -34 88q-42 44 -104 44q-70 0 -114 -55q-45 -56 -45 -182 q0 -252 154 -252z" />
<glyph unicode="&#x153;" horiz-adv-x="844" d="M97 62q-62 74 -62 185q0 114 63.5 185t165.5 71q101 0 158 -74q31 40 70 57t96 17q103 0 162 -67t59 -185v-17h-337q0 -74 30.5 -113.5t88.5 -39.5q83 0 109 76l102 -16q-11 -38 -43 -75q-36 -41 -76 -58.5t-97 -17.5q-59 0 -97.5 17t-66.5 57q-35 -41 -71.5 -57.5 t-90.5 -16.5q-104 0 -163 72zM473 303h222q-2 55 -31.5 86.5t-78.5 31.5q-101 0 -112 -118zM259 81q54 0 83 44.5t29 128.5q0 73 -22 109q-29 49 -89 49q-52 0 -81 -44.5t-29 -124.5q0 -77 28.5 -119.5t80.5 -42.5z" />
<glyph unicode="&#x178;" horiz-adv-x="544" d="M373 738q-23 0 -38.5 15.5t-15.5 38.5t15.5 39t38.5 16q24 0 39.5 -16t15.5 -40q0 -22 -16 -37.5t-39 -15.5zM203 738q-23 0 -38.5 15.5t-15.5 38.5t15.5 39t38.5 16q24 0 39.5 -16t15.5 -40q0 -22 -16 -37.5t-39 -15.5zM214 0v281l-227 386h145l158 -275l151 275h116 l-216 -386v-281h-127z" />
<glyph unicode="&#x2c6;" horiz-adv-x="500" d="M80 580l170 141l170 -141l-89 -10l-81 64l-82 -64z" />
<glyph unicode="&#x2dc;" horiz-adv-x="500" d="M125 589l-34 50q47 57 98 57q24 0 66 -19q46 -21 66 -21q28 0 54 38l34 -50q-14 -24 -42.5 -40.5t-57.5 -16.5t-73 23q-34 18 -50 18q-23 0 -61 -39z" />
<glyph unicode="&#x2000;" horiz-adv-x="445" />
<glyph unicode="&#x2001;" horiz-adv-x="891" />
<glyph unicode="&#x2002;" horiz-adv-x="445" />
<glyph unicode="&#x2003;" horiz-adv-x="891" />
<glyph unicode="&#x2004;" horiz-adv-x="297" />
<glyph unicode="&#x2005;" horiz-adv-x="222" />
<glyph unicode="&#x2006;" horiz-adv-x="148" />
<glyph unicode="&#x2007;" horiz-adv-x="148" />
<glyph unicode="&#x2008;" horiz-adv-x="111" />
<glyph unicode="&#x2009;" horiz-adv-x="178" />
<glyph unicode="&#x200a;" horiz-adv-x="49" />
<glyph unicode="&#x2010;" horiz-adv-x="241" d="M-2 208v91h245v-91h-245z" />
<glyph unicode="&#x2011;" horiz-adv-x="241" d="M-2 208v91h245v-91h-245z" />
<glyph unicode="&#x2013;" d="M91 207v92h405v-92h-405z" />
<glyph unicode="&#x2014;" horiz-adv-x="667" d="M-35 209v91h736v-91h-736z" />
<glyph unicode="&#x2018;" horiz-adv-x="241" d="M65 426v110l75 131h36l-54 -131h54v-110h-111z" />
<glyph unicode="&#x2019;" horiz-adv-x="241" d="M65 426l54 131h-54v110h111v-110l-75 -131h-36z" />
<glyph unicode="&#x201a;" horiz-adv-x="241" d="M65 0v110h111v-110l-75 -131h-36l54 131h-54z" />
<glyph unicode="&#x201c;" horiz-adv-x="375" d="M204 425v110l73 132h35l-52 -132h52v-110h-108zM63 425v110l73 132h42l-56 -132h47v-110h-106z" />
<glyph unicode="&#x201d;" horiz-adv-x="375" d="M198 425l56 131h-47v111h105v-111l-73 -131h-41zM63 425l52 131h-52v111h108v-111l-73 -131h-35z" />
<glyph unicode="&#x201e;" horiz-adv-x="375" d="M207 0v111h105v-111l-73 -131h-41l56 131h-47zM63 0v111h108v-111l-73 -131h-35l52 131h-52z" />
<glyph unicode="&#x2022;" horiz-adv-x="667" d="M335 200q-58 0 -98.5 40.5t-40.5 97.5q0 58 40.5 98.5t99.5 40.5q56 0 96.5 -41t40.5 -98t-40.5 -97.5t-97.5 -40.5z" />
<glyph unicode="&#x2026;" horiz-adv-x="741" d="M557 0v128h121v-128h-121zM310 0v128h120v-128h-120zM63 0v128h121v-128h-121z" />
<glyph unicode="&#x202f;" horiz-adv-x="178" />
<glyph unicode="&#x2039;" horiz-adv-x="204" d="M115 119l-78 137l78 143h46l-46 -143l46 -137h-46z" />
<glyph unicode="&#x203a;" horiz-adv-x="204" d="M43 119l46 137l-46 143h46l78 -143l-78 -137h-46z" />
<glyph unicode="&#x205f;" horiz-adv-x="222" />
<glyph unicode="&#x20ac;" horiz-adv-x="595" d="M36 224l28 87h46q-1 14 -1 24t1 23h-74l28 87h58q31 111 102 171.5t171 60.5q94 0 164 -54l-41 -128q-35 85 -123 85q-113 0 -144 -135h253l-28 -87h-236q-1 -14 -1 -27q0 -9 1 -20h221l-28 -87h-183q32 -137 141 -137q42 0 76 22.5t53 62.5v-152q-54 -30 -130 -30 q-102 0 -171 60.5t-97 173.5h-86z" />
<glyph unicode="&#x2122;" horiz-adv-x="777" d="M335 287v380h122l80 -228l78 228h123v-380h-84v298l-102 -298h-46l-102 299v-299h-69zM107 287v315h-106v65h301v-65h-107v-315h-88z" />
</font>
</defs>
</svg>
