<?xml version="1.0" standalone="no"?>
<!DOCTYPE svg PUBLIC "-//W3C//DTD SVG 1.1//EN" "http://www.w3.org/Graphics/SVG/1.1/DTD/svg11.dtd" >
<svg xmlns="http://www.w3.org/2000/svg">
<metadata>
This is a custom SVG webfont generated by Fontspring.
Designer    : FontSite.com
Foundry URL : http://www.fontsite.com
</metadata>
<defs>
<font id="webfont" horiz-adv-x="460" >
<font-face units-per-em="1000" ascent="827" descent="-173" />
<missing-glyph horiz-adv-x="187" />
<glyph unicode=" "  horiz-adv-x="187" />
<glyph unicode="&#x09;" horiz-adv-x="187" />
<glyph unicode="&#xa0;" horiz-adv-x="187" />
<glyph unicode="!" horiz-adv-x="341" d="M138 170l56 497h93l-101 -497h-48zM81 0l16 95h96l-15 -95h-97z" />
<glyph unicode="&#x22;" horiz-adv-x="511" d="M324 412l29 255h81l-59 -255h-51zM188 412l29 255h80l-58 -255h-51z" />
<glyph unicode="#" horiz-adv-x="511" d="M54 0l62 212h-92l18 60h91l41 139h-92l17 60h92l58 196h58l-57 -196h117l58 196h59l-57 -196h90l-17 -60h-91l-40 -139h90l-17 -60h-91l-62 -212h-59l62 212h-117l-62 -212h-59zM193 272h116l41 139h-117z" />
<glyph unicode="$" horiz-adv-x="511" d="M36 161l60 33q21 -57 44 -85.5t55 -35.5l41 245q-76 33 -105.5 68t-29.5 91q0 50 24 93t66 66q38 22 102 25l13 74h53l-13 -78q101 -18 140 -122l-59 -32q-34 83 -91 96l-38 -229q88 -33 121 -70.5t33 -102.5q0 -83 -56 -138.5t-140 -55.5q-12 0 -19 1l-15 -90h-54l16 96 q-101 18 -148 151zM248 393l36 211q-52 -5 -80.5 -34.5t-28.5 -79.5q0 -37 16.5 -58.5t56.5 -38.5zM247 65q51 3 77 18q25 14 39.5 41.5t14.5 59.5q0 43 -18.5 66t-73.5 46z" />
<glyph unicode="%" horiz-adv-x="665" d="M184 332q-113 0 -113 135q0 93 43.5 151.5t112.5 58.5q55 0 84 -36t29 -104q0 -92 -43 -148.5t-113 -56.5zM80 0l472 667h57l-472 -667h-57zM188 382q38 0 62.5 46t24.5 117q0 82 -55 82q-32 0 -50 -26q-35 -51 -35 -138q0 -81 53 -81zM351 124q0 94 43.5 152.5 t113.5 58.5q55 0 84 -36t29 -103q0 -95 -43 -150.5t-117 -55.5q-110 0 -110 134zM416 120q0 -80 53 -80q38 0 62.5 46.5t24.5 117.5q0 81 -55 81q-38 0 -61.5 -45.5t-23.5 -119.5z" />
<glyph unicode="&#x26;" horiz-adv-x="579" d="M42 169q0 77 43.5 130.5t137.5 91.5q-32 92 -32 140q0 67 39.5 108.5t103.5 41.5q59 0 94 -36t35 -97q0 -91 -78 -144q-24 -17 -77 -40q49 -133 84 -214q32 37 66 97.5t53 117.5l54 -24q-30 -82 -60 -134t-84 -115q17 -43 52 -43q21 0 50 11l-11 -63q-29 -11 -55 -11 q-29 0 -48.5 14t-35.5 47q-76 -61 -154 -61q-79 0 -128 50.5t-49 132.5zM289 414q33 16 44 23q62 39 62 110q0 35 -16.5 55.5t-45.5 20.5q-31 0 -50 -26t-19 -68q0 -43 25 -115zM120 175q0 -58 28.5 -94t73.5 -36q64 0 121 54l-50 116q-24 57 -49 126q-66 -29 -95 -68 t-29 -98z" />
<glyph unicode="'" horiz-adv-x="341" d="M171 412l29 255h80l-58 -255h-51z" />
<glyph unicode="(" horiz-adv-x="307" d="M32 146q0 146 60 279.5t175 241.5h62q-45 -45 -91 -117q-71 -114 -100.5 -211.5t-29.5 -219.5q0 -152 69 -286h-54q-49 79 -70 150.5t-21 162.5z" />
<glyph unicode=")" horiz-adv-x="307" d="M165 -8q-55 -93 -128 -159h-62q218 230 218 554q0 80 -14.5 140.5t-52.5 139.5h51q92 -137 92 -318q0 -183 -104 -357z" />
<glyph unicode="*" horiz-adv-x="511" d="M237 330l36 138l-128 -60l-19 63l131 32l-113 73l38 53l102 -99l10 143l63 -10l-37 -138l129 60l19 -63l-131 -32l113 -73l-38 -53l-102 99l-10 -143z" />
<glyph unicode="+" horiz-adv-x="511" d="M239 129v175h-175v59h175v175h61v-175h175v-59h-175v-175h-61z" />
<glyph unicode="," horiz-adv-x="238" d="M31 0l18 106h98l-18 -106l-84 -127h-40l68 127h-42z" />
<glyph unicode="-" horiz-adv-x="256" d="M29 227l10 60h190l-10 -60h-190z" />
<glyph unicode="." horiz-adv-x="239" d="M29 0l18 106h96l-17 -106h-97z" />
<glyph unicode="/" horiz-adv-x="426" d="M-32 -167h-61l500 834h61z" />
<glyph unicode="0" horiz-adv-x="511" d="M226 -14q-177 0 -177 253q0 105 27 199t75 157q66 86 167 86q84 0 129 -67t45 -192q0 -215 -98 -349q-63 -87 -168 -87zM229 48q74 0 119 88q62 124 62 306q0 177 -102 177q-67 0 -109 -76q-31 -56 -49.5 -136.5t-18.5 -161.5q0 -197 98 -197z" />
<glyph unicode="1" horiz-adv-x="511" d="M83 0l11 65h114l83 492q-47 -55 -152 -63l11 66q63 10 99 34t78 82h60l-102 -611h122l-11 -65h-313z" />
<glyph unicode="2" horiz-adv-x="511" d="M27 0l13 77q140 111 197 163q90 82 130 145.5t40 125.5q0 47 -29.5 77t-76.5 30q-52 0 -83.5 -35t-55.5 -119l-66 23q20 65 41 101q53 93 166 93q77 0 127.5 -48t50.5 -121q0 -75 -46.5 -149.5t-152.5 -168.5q-54 -48 -151 -123h293l-12 -71h-385z" />
<glyph unicode="3" horiz-adv-x="511" d="M70 48q-40 39 -54 104l68 25q16 -52 38 -78q41 -51 107 -51q58 0 93.5 39.5t35.5 102.5q0 62 -33 94t-96 32h-52l11 66h52q79 0 115 35q40 38 40 103q0 45 -28.5 72t-76.5 27q-44 0 -72 -22t-53 -78l-60 33q28 67 73 98t113 31q88 0 137 -44t49 -123q0 -69 -36 -113 t-102 -56q53 -22 77 -58.5t24 -92.5q0 -94 -57 -151t-152 -57q-97 0 -161 62z" />
<glyph unicode="4" horiz-adv-x="511" d="M23 157l10 59l358 455h85l-76 -452h90l-10 -62h-90l-27 -157h-72l26 157h-294zM111 219h216l60 358z" />
<glyph unicode="5" horiz-adv-x="511" d="M35 138l63 29q39 -118 140 -118q66 0 104 50t38 136q0 75 -31 117t-87 42q-76 0 -110 -89l-71 16l77 346h335l-19 -71h-263l-43 -196q39 54 115 54q82 0 130.5 -58t48.5 -157q0 -116 -60.5 -184.5t-162.5 -68.5q-81 0 -130 36.5t-74 115.5z" />
<glyph unicode="6" horiz-adv-x="511" d="M117 43q-60 72 -60 202q0 90 25 179.5t69 154.5q69 102 181 102q133 0 168 -125l-69 -26q-25 88 -106 88q-139 0 -186 -279q29 53 64 76t88 23q80 0 128 -54.5t48 -145.5q0 -111 -60 -187q-51 -65 -147 -65q-95 0 -143 57zM141 195q0 -68 30.5 -107t82.5 -39 q62 0 96.5 48.5t34.5 135.5q0 68 -28.5 104.5t-80.5 36.5q-58 0 -96.5 -51t-38.5 -128z" />
<glyph unicode="7" horiz-adv-x="511" d="M136 0q-1 136 83.5 308t209.5 288h-314l20 71h388l-9 -55q-150 -159 -216 -297t-78 -315h-84z" />
<glyph unicode="8" horiz-adv-x="511" d="M27 156q0 95 78 150q28 20 80 43q-47 28 -68 60.5t-21 79.5q0 72 49 128q56 64 158 64q80 0 129.5 -43.5t49.5 -114.5q0 -60 -33.5 -101t-105.5 -69q60 -28 86.5 -66t26.5 -94q0 -72 -37 -124q-59 -83 -186 -83q-95 0 -150.5 46t-55.5 124zM263 387l11 -4l10 3 q122 41 122 132q0 47 -31.5 76.5t-82.5 29.5q-53 0 -86.5 -34.5t-33.5 -89.5q0 -42 19.5 -66t71.5 -47zM103 160q0 -53 35 -85t94 -32q67 0 107.5 37t40.5 98q0 67 -56 102q-24 16 -67 35l-26 -9q-128 -44 -128 -146z" />
<glyph unicode="9" horiz-adv-x="511" d="M37 115l68 32q25 -99 111 -99q73 0 122.5 74t68.5 213q-27 -58 -60.5 -80t-92.5 -22q-81 0 -127 54t-46 151q0 109 58 176t151 67q92 0 140 -57q51 -60 51 -198q0 -202 -74 -321t-200 -119q-67 0 -111 33.5t-59 95.5zM184 332q31 -39 83 -39q58 0 98 53t40 129 q0 66 -31.5 105t-84.5 39q-61 0 -97 -49.5t-36 -135.5q0 -67 28 -102z" />
<glyph unicode=":" horiz-adv-x="239" d="M94 387l17 106h97l-18 -106h-96zM29 0l18 106h96l-17 -106h-97z" />
<glyph unicode=";" horiz-adv-x="239" d="M96 387l18 106h96l-17 -106h-97zM31 0l18 106h98l-18 -106l-84 -127h-40l68 127h-42z" />
<glyph unicode="&#x3c;" horiz-adv-x="511" d="M53 306v62l433 202v-71l-356 -162l356 -163v-71z" />
<glyph unicode="=" horiz-adv-x="511" d="M75 362v59h411v-59h-411zM75 246v59h411v-59h-411z" />
<glyph unicode="&#x3e;" horiz-adv-x="511" d="M53 103v71l356 163l-356 162v71l433 -203v-62z" />
<glyph unicode="?" horiz-adv-x="443" d="M150 163q4 40 6.5 58.5t10.5 41t14 31.5t27 26t38.5 27.5l57.5 33.5q70 40 70 128q0 50 -26.5 81t-69.5 31q-94 0 -140 -137l-67 27q52 170 209 170q79 0 124.5 -46.5t45.5 -126.5q0 -85 -50 -137q-19 -20 -37 -32.5t-76 -45.5q-38 -22 -51 -46t-19 -84h-67zM112 0l15 94 h98l-16 -94h-97z" />
<glyph unicode="@" horiz-adv-x="664" d="M55 195q0 103 38 192t107 147q83 71 203 71q115 0 182 -66.5t67 -181.5q0 -137 -76 -227q-25 -29 -62 -47t-73 -18q-61 0 -65 49q-29 -51 -80 -51q-38 0 -60.5 28t-22.5 76q0 60 19.5 120.5t53.5 103.5q40 50 95 50q60 0 66 -63l19 55h53l-63 -202q-21 -68 -21 -87 q0 -25 24 -25q51 0 91 69.5t40 157.5q0 97 -51.5 153.5t-139.5 56.5q-108 0 -180 -75q-49 -50 -76 -123.5t-27 -154.5q0 -116 58.5 -180t164.5 -64q96 0 185 63l11 -54q-86 -58 -200 -58q-133 0 -206.5 74.5t-73.5 210.5zM277 175q0 -55 35 -55q47 0 80 95q23 67 23 116 q0 53 -35 53q-46 0 -79 -90q-24 -63 -24 -119z" />
<glyph unicode="A" horiz-adv-x="477" d="M-28 0l291 667h88l81 -667h-80l-23 195h-195l-84 -195h-78zM162 260h159l-26 325z" />
<glyph unicode="B" horiz-adv-x="511" d="M30 0l112 667h168q179 0 179 -153q0 -61 -26 -99.5t-84 -64.5q46 -24 65 -58t19 -90q0 -110 -73 -161q-59 -41 -178 -41h-182zM172 378h49q95 0 131 21q25 13 41 44.5t16 65.5q0 51 -30.5 72.5t-101.5 21.5h-68zM119 65h77q89 0 124 19q27 13 43 46.5t16 74.5 q0 62 -31 87.5t-105 25.5h-81z" />
<glyph unicode="C" horiz-adv-x="511" d="M248 -14q-101 0 -149.5 65t-48.5 199q0 188 79.5 309.5t203.5 121.5q101 0 148 -75q30 -47 30 -140l-75 -18q-1 73 -18 112q-11 25 -36 40t-55 15q-78 0 -129 -93q-64 -118 -64 -267q0 -203 118 -203q54 0 90 38.5t61 121.5l67 -28q-23 -96 -80 -147t-142 -51z" />
<glyph unicode="D" horiz-adv-x="545" d="M30 0l112 667h138q121 0 176 -46q71 -60 71 -204q0 -113 -38.5 -212.5t-102.5 -151.5q-64 -53 -197 -53h-159zM119 64h60q60 0 92.5 7.5t56.5 27.5q50 41 82.5 134.5t32.5 194.5q0 93 -41 134t-133 41h-60z" />
<glyph unicode="E" d="M30 0l112 667h355l-11 -65h-277l-37 -224h236l-11 -65h-236l-42 -248h299l-11 -65h-377z" />
<glyph unicode="F" horiz-adv-x="409" d="M30 0l112 667h349l-11 -65h-271l-37 -224h232l-12 -65h-231l-53 -313h-78z" />
<glyph unicode="G" horiz-adv-x="545" d="M255 -14q-98 0 -150.5 71t-52.5 202q0 185 90 315q73 107 197 107q82 0 132 -46.5t63 -134.5l-72 -24q-22 139 -126 139q-90 0 -142 -102q-58 -111 -58 -259q0 -97 34.5 -149.5t97.5 -52.5q38 0 70.5 23t52.5 63q26 54 37 136h-138l11 65h215l-57 -339h-43l-7 73 q-46 -87 -154 -87z" />
<glyph unicode="H" horiz-adv-x="545" d="M30 0l112 667h78l-47 -284h245l47 284h79l-112 -667h-78l53 318h-245l-54 -318h-78z" />
<glyph unicode="I" horiz-adv-x="222" d="M30 0l112 667h78l-112 -667h-78z" />
<glyph unicode="J" horiz-adv-x="324" d="M-32 0l11 64q33 -10 64 -10q75 0 105 59q16 32 29 112l74 442h78l-70 -421q-15 -90 -26 -128t-29 -64q-46 -65 -156 -65q-42 0 -80 11z" />
<glyph unicode="K" horiz-adv-x="511" d="M30 0l112 667h78l-62 -369l299 369h94l-211 -242l136 -425h-82l-112 361l-141 -166l-33 -195h-78z" />
<glyph unicode="L" horiz-adv-x="409" d="M30 0l112 667h78l-101 -602h264l-11 -65h-342z" />
<glyph unicode="M" horiz-adv-x="681" d="M30 0l112 667h110l59 -566l250 566h119l-112 -667h-73l99 594l-269 -594h-71l-59 576l-97 -576h-68z" />
<glyph unicode="N" horiz-adv-x="562" d="M30 0l112 667h85l178 -527l83 527h73l-112 -667h-68l-189 565l-89 -565h-73z" />
<glyph unicode="O" horiz-adv-x="562" d="M115 39q-63 65 -63 216q0 95 25 181.5t70 147.5q71 97 188 97q99 0 150 -62q55 -64 55 -202q0 -218 -104 -348q-65 -83 -179 -83q-92 0 -142 53zM264 51q74 0 119 75q75 127 75 309q0 97 -42 144q-35 37 -87 37q-37 0 -71 -23t-57 -62q-67 -116 -67 -276 q0 -99 33.5 -151.5t96.5 -52.5z" />
<glyph unicode="P" horiz-adv-x="477" d="M30 0l112 667h130q137 0 181 -47q43 -45 43 -125q0 -53 -21 -101.5t-55 -76.5q-60 -47 -163 -47h-104l-45 -270h-78zM164 333h70q73 0 108 19q32 17 51 55.5t19 88.5q0 60 -33.5 83t-119.5 23h-50z" />
<glyph unicode="Q" horiz-adv-x="562" d="M138 20q-86 56 -86 235q0 200 95 329q70 97 189 97q98 0 149 -62q55 -64 55 -206q0 -100 -27.5 -191t-76.5 -153t-136 -80q-4 -24 -4 -37q0 -26 15.5 -40.5t44.5 -14.5q21 0 69 9l-10 -60q-41 -9 -80 -9q-112 0 -112 103q0 23 5 48q-55 9 -90 32zM264 51q74 0 119 75 q75 127 75 309q0 97 -42 144q-35 37 -87 37q-37 0 -71 -23t-57 -62q-67 -116 -67 -276q0 -99 33.5 -151.5t96.5 -52.5z" />
<glyph unicode="R" horiz-adv-x="528" d="M30 0l112 667h171q102 0 149.5 -39t47.5 -123q0 -104 -61 -160q-24 -23 -68 -40l81 -305h-84l-74 293h-147l-49 -293h-78zM169 358h100q73 0 110 26q53 39 53 120q0 55 -29 76.5t-103 21.5h-91z" />
<glyph unicode="S" horiz-adv-x="511" d="M21 167l69 29q21 -63 46 -93q40 -51 118 -51q58 0 95 34.5t37 88.5q0 48 -24.5 75.5t-97.5 60.5q-91 40 -122 70q-49 48 -49 119q0 78 53.5 129.5t133.5 51.5q76 0 130 -39.5t79 -113.5l-70 -30q-45 117 -140 117q-45 0 -75.5 -30.5t-30.5 -76.5q0 -44 26 -71.5 t100 -59.5q92 -41 123 -75q43 -47 43 -112q0 -91 -61 -147.5t-158 -56.5q-178 0 -225 181z" />
<glyph unicode="T" horiz-adv-x="375" d="M105 0l101 602h-159l11 65h397l-10 -65h-161l-100 -602h-79z" />
<glyph unicode="U" horiz-adv-x="528" d="M53 151q0 35 15 121l66 395h78l-67 -398q-12 -73 -12 -109q0 -52 26.5 -80t75.5 -28q70 0 104.5 49.5t56.5 183.5l63 382h74l-66 -398q-22 -130 -52 -187q-50 -96 -184 -96q-85 0 -131.5 43t-46.5 122z" />
<glyph unicode="V" horiz-adv-x="443" d="M148 0l-89 667h80l62 -568l230 568h82l-289 -667h-76z" />
<glyph unicode="W" horiz-adv-x="699" d="M117 0l-38 667h79l21 -546l202 546h67l37 -546l190 546h74l-248 -667h-75l-35 518l-192 -518h-82z" />
<glyph unicode="X" horiz-adv-x="426" d="M27 0h-84l239 347l-118 320h85l89 -257l171 257h81l-222 -321l129 -346h-88l-96 279z" />
<glyph unicode="Y" horiz-adv-x="409" d="M126 0l47 280l-130 387h86l95 -312l193 312h83l-249 -387l-47 -280h-78z" />
<glyph unicode="Z" d="M-6 0l11 65l378 537h-279l11 65h376l-9 -52l-383 -550h314l-11 -65h-408z" />
<glyph unicode="[" horiz-adv-x="290" d="M93 -119h80l-8 -48h-151l139 834h151l-8 -48h-80z" />
<glyph unicode="\" horiz-adv-x="409" d="M287 -167l-221 834h56l221 -834h-56z" />
<glyph unicode="]" horiz-adv-x="290" d="M-7 -119h80l124 738h-81l9 48h151l-140 -834h-151z" />
<glyph unicode="^" horiz-adv-x="500" d="M40 366l177 303h95l177 -303h-78l-147 246l-146 -246h-78z" />
<glyph unicode="_" horiz-adv-x="500" d="M0 -66h500v-66h-500v66z" />
<glyph unicode="`" d="M330 537l-165 109l37 58l152 -130z" />
<glyph unicode="a" d="M16 122q0 50 22 91t60 62q59 33 166 33q38 0 75 -5q10 41 10 65q0 37 -26.5 58.5t-72.5 21.5q-40 0 -67 -17t-47 -55l-61 31q54 100 179 100q78 0 120 -34t42 -97q0 -18 -5 -53l-35 -211q-11 -66 -11 -86q0 -14 1 -26h-71v11q0 30 6 61q-32 -48 -64.5 -67t-81.5 -19 q-66 0 -102.5 35.5t-36.5 100.5zM94 128q0 -40 18 -61.5t50 -21.5q38 0 73 25t60 70q25 46 35 106q-46 6 -75 6q-161 0 -161 -124z" />
<glyph unicode="b" horiz-adv-x="477" d="M25 0l112 667h71l-40 -241q40 81 129 81q57 0 94 -32q49 -43 49 -155q0 -163 -73 -262q-54 -72 -140 -72q-93 0 -126 95q-19 -35 -41 -81h-35zM137 178q0 -62 23 -97.5t64 -35.5q29 0 54 17t38 45q46 92 46 234q0 107 -75 107q-58 0 -97 -65q-53 -87 -53 -205z" />
<glyph unicode="c" horiz-adv-x="426" d="M40 194q0 135 61 228q55 85 153 85q90 0 126 -63q20 -37 25 -109l-71 -10q-3 64 -22.5 93.5t-59.5 29.5q-57 0 -95.5 -71t-38.5 -177q0 -155 94 -155q39 0 63 27t41 91l66 -19q-21 -83 -62 -120.5t-112 -37.5q-82 0 -125 53t-43 155z" />
<glyph unicode="d" horiz-adv-x="477" d="M35 175q0 146 62 239t159 93q44 0 70.5 -17.5t43.5 -57.5l39 235h72l-112 -667h-65l11 64q-51 -78 -136 -78q-144 0 -144 189zM197 45q60 0 98 69q52 96 52 212q0 58 -23.5 90t-64.5 32q-58 0 -95 -65q-51 -91 -51 -204q0 -64 22 -99t62 -35z" />
<glyph unicode="e" horiz-adv-x="443" d="M35 196q0 78 23.5 145.5t64.5 110.5q52 55 134 55q157 0 157 -205q0 -27 -4 -63h-294q-3 -31 -3 -49q0 -70 26 -107.5t75 -37.5q37 0 62.5 23t50.5 78l57 -30q-57 -130 -176 -130q-84 0 -128.5 54.5t-44.5 155.5zM123 296h214v27q0 59 -23 92t-63 33q-29 0 -55.5 -16.5 t-42.5 -44.5q-20 -34 -30 -91z" />
<glyph unicode="f" horiz-adv-x="239" d="M36 0l73 436h-70l9 57h70q18 90 32 118q36 69 139 69q20 0 44 -4l-10 -59q-13 2 -27 2q-53 0 -73 -24t-32 -102h95l-10 -57h-95l-74 -436h-71z" />
<glyph unicode="g" horiz-adv-x="443" d="M-15 -64q0 37 19 61.5t65 44.5q-34 22 -34 64q0 45 36 75q18 14 52 35q-46 40 -46 112q0 78 48 128.5t123 50.5q36 0 68 -14q25 106 119 106h6h7l-10 -61h-14q-60 0 -70 -63q54 -45 54 -122q0 -81 -47.5 -133t-122.5 -52q-45 0 -81 21q-28 -15 -38.5 -28.5t-10.5 -34.5 q0 -28 22.5 -38t86.5 -9q78 1 118 -15q28 -12 44.5 -38.5t16.5 -58.5q0 -68 -58.5 -109.5t-153.5 -41.5t-147 31.5t-52 88.5zM238 222q43 0 67.5 33t24.5 91q0 50 -22 78t-61 28q-42 0 -67 -35t-25 -94q0 -101 83 -101zM58 -49q0 -79 140 -79q60 0 92.5 22t32.5 62 q0 26 -13 39t-34.5 17t-77.5 5q-65 0 -88 9q-52 -26 -52 -75z" />
<glyph unicode="h" d="M25 0l112 667h71l-43 -256q47 96 135 96q53 0 84 -34t31 -92q0 -36 -12 -111l-45 -270h-72l48 282q8 46 8 84q0 36 -16.5 59t-42.5 23q-53 0 -93.5 -71.5t-63.5 -201.5l-30 -175h-71z" />
<glyph unicode="i" horiz-adv-x="204" d="M120 583l14 84h77l-14 -84h-77zM25 0l82 493h72l-83 -493h-71z" />
<glyph unicode="j" horiz-adv-x="204" d="M126 583l14 84h75l-14 -84h-75zM32 23l79 470h71l-80 -480q-11 -67 -19 -94t-22 -47q-33 -46 -106 -46q-33 0 -62 7l10 58q41 -6 53 -6q33 0 47.5 26t28.5 112z" />
<glyph unicode="k" horiz-adv-x="409" d="M25 0l112 667h71l-67 -406l200 232h88l-165 -176l95 -317h-78l-68 265l-88 -96l-29 -169h-71z" />
<glyph unicode="l" horiz-adv-x="204" d="M25 0l112 667h71l-112 -667h-71z" />
<glyph unicode="m" horiz-adv-x="699" d="M25 0l82 493h65l-15 -91q44 105 139 105t103 -100q27 53 59 76.5t78 23.5q56 0 87 -33t31 -93q0 -37 -9 -91l-49 -290h-71l46 278q11 70 11 94q0 34 -17 55t-45 21q-22 0 -44.5 -14t-36.5 -36q-34 -54 -55 -176l-38 -222h-71l42 250q15 90 15 122q0 33 -16 54.5t-41 21.5 q-47 0 -85 -60t-55 -161l-39 -227h-71z" />
<glyph unicode="n" d="M25 0l82 493h65l-15 -94q22 51 47 73q40 35 96 35q55 0 85.5 -31.5t30.5 -89.5q0 -33 -12 -109l-46 -277h-72l45 270q12 74 12 96q0 37 -18 59.5t-47 22.5q-26 0 -52.5 -21t-43.5 -56q-33 -67 -57 -203l-29 -168h-71z" />
<glyph unicode="o" d="M196 -14q-161 0 -161 209q0 142 61.5 227t162.5 85q163 0 163 -194q0 -160 -71 -254q-53 -73 -155 -73zM205 45q67 0 100 73q39 88 39 202q0 128 -89 128q-56 0 -90 -55q-52 -85 -52 -215q0 -64 24 -98.5t68 -34.5z" />
<glyph unicode="p" horiz-adv-x="477" d="M109 74l-41 -241h-71l110 660h65l-13 -79q52 93 142 93q66 0 103 -49t37 -136q0 -137 -63 -242q-26 -44 -66 -69t-85 -25q-90 0 -118 88zM222 45q61 0 101 79t40 200q0 120 -80 120q-61 0 -100 -65q-50 -87 -50 -195q0 -64 24 -101.5t65 -37.5z" />
<glyph unicode="q" d="M166 -14q-134 0 -134 190q0 138 64.5 234.5t157.5 96.5q82 0 107 -86l7 15l26 57h40l-7 -44l-8 -46l-95 -570h-72l39 231q-16 -37 -49.5 -57.5t-75.5 -20.5zM181 45q60 0 105 87.5t45 205.5q0 58 -28 86q-24 24 -52 24q-59 0 -100 -77t-41 -187q0 -139 71 -139z" />
<glyph unicode="r" horiz-adv-x="273" d="M25 0l82 493h65l-18 -111q66 125 150 125q9 0 24 -3l-13 -81l-22 1q-89 4 -131 -110q-22 -61 -47 -205l-19 -109h-71z" />
<glyph unicode="s" horiz-adv-x="409" d="M14 120l65 27q12 -48 42.5 -75t73.5 -27q39 0 65 24t26 61q0 27 -17.5 44.5t-72.5 46.5q-73 38 -102 71t-29 78q0 58 45.5 97.5t110.5 39.5q60 0 97.5 -28t59.5 -90l-57 -27q-22 48 -44.5 67t-57.5 19t-58.5 -21t-23.5 -52q0 -29 20 -49t77 -48q75 -38 100 -66t25 -74 q0 -69 -46 -110.5t-123 -41.5q-142 0 -176 134z" />
<glyph unicode="t" horiz-adv-x="273" d="M61 83q0 22 14 106l42 247h-68l10 57h67l20 121l73 7l-21 -128h99l-10 -57h-99l-42 -252q-11 -65 -11 -81q0 -48 58 -48q23 0 50 4l-10 -62q-27 -7 -66 -7q-106 0 -106 93z" />
<glyph unicode="u" d="M41 100q0 33 11 102l49 291h71l-45 -276q-13 -77 -13 -102q0 -31 15.5 -50.5t40.5 -19.5q36 0 71 34.5t57 93.5q19 50 45 205l19 115h72l-83 -493h-64l15 92q-57 -106 -147 -106q-52 0 -83 31t-31 83z" />
<glyph unicode="v" horiz-adv-x="358" d="M101 0l-73 493h74l51 -388l171 388h70l-223 -493h-70z" />
<glyph unicode="w" horiz-adv-x="562" d="M94 0l-51 493h72l27 -375l135 375h69l31 -375l139 375h68l-196 -493h-61l-34 384l-137 -384h-62z" />
<glyph unicode="x" horiz-adv-x="341" d="M27 0h-75l179 265l-97 228h76l69 -170l113 170h74l-158 -235l108 -258h-78l-78 199z" />
<glyph unicode="y" horiz-adv-x="392" d="M-25 -107q32 -4 41 -4q33 0 56 25t53 100l8 20l-80 459h76l52 -372l162 372h72l-235 -506q-47 -101 -80.5 -132t-95.5 -31q-14 0 -40 3z" />
<glyph unicode="z" horiz-adv-x="375" d="M-16 0l7 41l285 395h-213l9 57h308l-7 -43l-284 -389h233l-11 -61h-327z" />
<glyph unicode="{" horiz-adv-x="290" d="M55 8l18 112l6 32q4 26 4 34q0 37 -40 47l9 58q33 6 45.5 27t23.5 89l18 107q16 94 47 124t116 29l-8 -51q-45 -1 -59 -19.5t-26 -88.5l-19 -113q-11 -62 -28.5 -92t-53.5 -44q45 -24 45 -67q0 -14 -11 -82l-18 -109q-9 -56 -9 -78q0 -39 57 -39l-9 -51q-70 1 -95.5 17.5 t-25.5 61.5q0 18 13 96z" />
<glyph unicode="|" horiz-adv-x="500" d="M228 -167v834h72v-834h-72z" />
<glyph unicode="}" horiz-adv-x="290" d="M81 -7l20 116q13 80 30 109t57 44q-27 16 -37 31t-10 39q0 20 12 89l15 89q7 41 7 65q0 22 -13 30.5t-45 10.5l8 51q70 0 96 -18t26 -65q0 -21 -10 -80l-16 -99q-9 -58 -9 -69q0 -44 37 -47l-9 -58q-29 -1 -42.5 -23.5t-23.5 -81.5l-22 -129q-18 -105 -48.5 -135 t-117.5 -29l8 51q6 -1 16 -1q35 0 48 25q11 19 23 85z" />
<glyph unicode="~" horiz-adv-x="667" d="M150 583l-43 28q32 64 62 89t75 25q37 0 112 -34q68 -32 97 -32q28 0 48 15t43 53l44 -26q-27 -53 -55 -77q-40 -34 -89 -34q-21 0 -47 9t-93 39q-40 18 -66 18q-49 0 -88 -73z" />
<glyph unicode="&#xa1;" horiz-adv-x="341" d="M147 398l16 95h96l-16 -95h-96zM53 -174l110 496h48l-66 -496h-92z" />
<glyph unicode="&#xa2;" horiz-adv-x="511" d="M204 -7l20 119q-102 26 -102 178q0 122 49 199t130 82l17 102h49l-18 -105q53 -12 77 -48.5t23 -103.5l-66 -9q0 91 -44 102l-57 -343q50 0 82 102l62 -18q-14 -65 -55 -103t-99 -39l-19 -115h-49zM235 175l56 337q-43 -10 -71 -71.5t-28 -147.5q0 -95 43 -118z" />
<glyph unicode="&#xa3;" horiz-adv-x="511" d="M-2 0l11 64h25q52 0 81 16.5t52 58.5q31 58 32 180h-87l8 51h78q0 129 29 194q49 108 159 108q44 0 72.5 -19t50.5 -63l-52 -41q-25 64 -76 64q-26 0 -49 -17.5t-34 -47.5q-20 -52 -20 -151v-27h117l-9 -51h-109q-4 -102 -28.5 -160t-78.5 -95h115q68 0 101 16t56 62 l51 -39q-27 -56 -71 -79.5t-123 -23.5h-301z" />
<glyph unicode="&#xa4;" horiz-adv-x="511" d="M110 140l-41 41l74 73q-28 43 -28 89t27 89l-74 74l41 41l74 -74q43 26 88 26q46 0 89 -27l74 74l41 -41l-75 -75q27 -41 27 -87t-27 -87l74 -74l-42 -41l-73 74q-42 -28 -88 -28q-44 0 -87 27zM269 250q40 0 67.5 27t27.5 65q0 39 -27 66.5t-66 27.5q-38 0 -65.5 -27.5 t-27.5 -65.5t27 -65.5t64 -27.5z" />
<glyph unicode="&#xa5;" horiz-adv-x="511" d="M180 0l36 215h-157l8 47h156l3 17l-14 46h-134l7 47h112l-91 295h78l94 -316l185 316h76l-182 -295h122l-8 -47h-143l-29 -46l-3 -17h164l-8 -47h-164l-36 -215h-72z" />
<glyph unicode="&#xa6;" horiz-adv-x="500" d="M228 334v333h72v-333h-72zM228 153h72v-320h-72v320z" />
<glyph unicode="&#xa7;" horiz-adv-x="511" d="M15 -28l75 14q16 -49 45.5 -70.5t79.5 -21.5q69 0 101 44q21 31 21 65q0 45 -45 74q-19 12 -86 41q-66 29 -94 61.5t-28 78.5q0 47 25 82.5t83 70.5q-31 29 -42.5 52.5t-11.5 59.5q0 69 48.5 113t125.5 44q87 0 131 -49q22 -24 37 -74l-68 -10q-11 41 -34.5 59.5 t-64.5 18.5q-45 0 -73 -24.5t-28 -64.5q0 -36 21.5 -57.5t90.5 -55.5q66 -31 92 -63t26 -80q0 -85 -93 -145q62 -48 62 -121q0 -79 -56.5 -131.5t-142.5 -52.5q-87 0 -143 48q-35 31 -54 94zM240 185q34 -14 52 -24q78 42 78 105q0 31 -17 51t-61 41q-31 15 -48 25 q-48 -26 -68 -50t-20 -57q0 -30 19 -50.5t65 -40.5z" />
<glyph unicode="&#xa8;" d="M363 574q-20 0 -34.5 14.5t-14.5 35.5q0 20 14.5 34.5t34.5 14.5q21 0 35.5 -14.5t14.5 -35.5q0 -20 -14.5 -34.5t-35.5 -14.5zM220 574q-20 0 -34.5 14.5t-14.5 35.5q0 20 14.5 34.5t35.5 14.5q20 0 34.5 -14.5t14.5 -35.5q0 -20 -14.5 -34.5t-35.5 -14.5z" />
<glyph unicode="&#xa9;" horiz-adv-x="791" d="M60 333q0 143 102 245t246 102q146 0 247.5 -102t101.5 -247q0 -143 -103 -243.5t-251 -100.5q-140 0 -241.5 102.5t-101.5 243.5zM114 333q0 -121 86 -208.5t204 -87.5q124 0 211.5 86t87.5 208q0 124 -86 211.5t-208 87.5t-208.5 -87t-86.5 -210zM260 288q0 111 51 182 t131 71q66 0 99 -45q20 -30 20 -89l-59 -13q-1 47 -11 68q-15 30 -54 30q-47 0 -79.5 -58.5t-32.5 -141.5q0 -118 71 -118q32 0 52.5 22t36.5 74l54 -20q-29 -125 -147 -125q-132 0 -132 163z" />
<glyph unicode="&#xaa;" horiz-adv-x="307" d="M131 259q-41 0 -65 23t-24 62q0 55 40.5 84.5t116.5 29.5q20 0 45 -2q4 19 4 30q0 19 -15.5 30.5t-41.5 11.5q-42 0 -64 -39l-48 23q35 62 117 62q50 0 78 -21.5t28 -59.5q0 -17 -3 -32l-21 -123q-6 -35 -6 -49q0 -2 2 -22h-57q1 24 4 47q-19 -30 -39 -42.5t-51 -12.5z M142 305q33 0 59.5 29.5t34.5 76.5q-19 3 -38 3q-95 0 -95 -65q0 -20 10.5 -32t28.5 -12z" />
<glyph unicode="&#xab;" horiz-adv-x="358" d="M240 103l-62 144l100 151h48l-65 -151l22 -144h-43zM104 103l-62 144l100 151h48l-65 -151l22 -144h-43z" />
<glyph unicode="&#xac;" horiz-adv-x="500" d="M47 200v67h433v-267h-72v200h-361z" />
<glyph unicode="&#xad;" horiz-adv-x="256" d="M29 227l10 60h190l-10 -60h-190z" />
<glyph unicode="&#xae;" horiz-adv-x="791" d="M60 333q0 143 102 245t246 102q146 0 247.5 -102t101.5 -247q0 -143 -103 -243.5t-251 -100.5q-140 0 -241.5 102.5t-101.5 243.5zM114 333q0 -121 86 -208.5t204 -87.5q124 0 211.5 86t87.5 208q0 124 -86 211.5t-208 87.5t-208.5 -87t-86.5 -210zM250 133l67 400h114 q68 0 99.5 -24t31.5 -76q0 -92 -79 -118l54 -182h-66l-49 172h-82l-29 -172h-61zM348 353h57q96 0 96 78q0 31 -17 42.5t-63 11.5h-51z" />
<glyph unicode="&#xaf;" d="M156 597l9 53h263l-9 -53h-263z" />
<glyph unicode="&#xb0;" horiz-adv-x="511" d="M300 379q-62 0 -107.5 44.5t-45.5 105.5q0 63 45 107t110 44t110.5 -44t45.5 -108q0 -62 -46 -105.5t-112 -43.5zM301 432q38 0 66 28.5t28 68.5t-27.5 69t-65.5 29q-37 0 -64.5 -29t-27.5 -68t27.5 -68.5t63.5 -29.5z" />
<glyph unicode="&#xb1;" horiz-adv-x="511" d="M239 129v175h-175v59h175v175h61v-175h175v-59h-175v-175h-61zM64 17v59h411v-59h-411z" />
<glyph unicode="&#xb2;" horiz-adv-x="324" d="M43 267l9 54l13 10l66 49q145 108 145 190q0 25 -17 41t-43 16q-31 0 -48.5 -20t-32.5 -71l-53 16q13 40 28 66q34 57 109 57q50 0 83.5 -29t33.5 -73q0 -110 -207 -253h174l-9 -53h-251z" />
<glyph unicode="&#xb3;" horiz-adv-x="324" d="M176 259q-116 0 -141 105l53 19q26 -76 88 -76q32 0 51.5 20.5t19.5 53.5q0 70 -74 70h-39l8 49h39q87 0 87 73q0 25 -16 39.5t-43 14.5q-26 0 -41.5 -12.5t-32.5 -47.5l-48 24q19 44 48 64t76 20q56 0 89 -27.5t33 -74.5q0 -60 -48 -86q-19 -9 -49 -14q41 -13 58.5 -34 t17.5 -58q0 -53 -38 -87.5t-98 -34.5z" />
<glyph unicode="&#xb4;" d="M249 540l-26 37l152 128l32 -57z" />
<glyph unicode="&#xb5;" d="M99 50l-37 -217h-71l110 660h72l-46 -276q-13 -81 -13 -102q0 -31 16 -50.5t41 -19.5q36 0 70 34.5t57 93.5q16 43 45 205l20 115h71l-82 -493h-65l15 92q-57 -106 -135 -106q-64 0 -68 64z" />
<glyph unicode="&#xb6;" horiz-adv-x="511" d="M261 -167v472h-20q-53 0 -81.5 7.5t-52.5 27.5q-56 46 -56 144q0 49 18.5 91.5t50.5 64.5q39 27 121 27h189v-834h-57v791h-56v-791h-56z" />
<glyph unicode="&#xb7;" horiz-adv-x="239" d="M63 204l18 106h96l-17 -106h-97z" />
<glyph unicode="&#xb8;" d="M149 -85l50 85h41l-24 -48h12q31 0 50.5 -17.5t19.5 -45.5q0 -37 -28.5 -60t-73.5 -23q-54 0 -97 31l22 34q43 -21 73 -21q19 0 32 10.5t13 25.5q0 14 -14.5 23t-38.5 9q-2 0 -37 -3z" />
<glyph unicode="&#xb9;" horiz-adv-x="324" d="M78 267l8 49h71l45 266q-30 -23 -93 -28l9 50q41 6 62.5 19t48.5 49h47l-59 -356h75l-8 -49h-206z" />
<glyph unicode="&#xba;" horiz-adv-x="307" d="M162 259q-107 0 -107 129q0 84 39.5 134.5t105.5 50.5q107 0 107 -121q0 -89 -39 -141t-106 -52zM169 305q35 0 56 41.5t21 109.5q0 71 -51 71q-34 0 -56.5 -41.5t-22.5 -106.5q0 -74 53 -74z" />
<glyph unicode="&#xbb;" horiz-adv-x="358" d="M167 103l65 151l-22 144h43l62 -144l-100 -151h-48zM31 103l65 151l-22 144h43l62 -144l-100 -151h-48z" />
<glyph unicode="&#xbc;" horiz-adv-x="784" d="M70 267l8 49h71l45 266q-30 -23 -93 -28l9 50q41 6 62.5 19t48.5 49h47l-59 -356h75l-8 -49h-206zM148 0l472 667h62l-472 -667h-62zM430 91l7 42l222 270h62l-44 -264h56l-8 -48h-56l-15 -91h-57l15 91h-182zM503 139h117l38 201z" />
<glyph unicode="&#xbd;" horiz-adv-x="784" d="M63 267l8 49h71l45 266q-30 -23 -93 -28l9 50q41 6 62.5 19t48.5 49h47l-59 -356h75l-8 -49h-206zM130 0l471 667h63l-472 -667h-62zM455 0l9 54q115 89 123 96q101 88 101 153q0 25 -17 41t-43 16q-31 0 -48.5 -20t-32.5 -71l-53 16q21 67 52 95t85 28q50 0 83.5 -29 t33.5 -73q0 -56 -49.5 -117t-157.5 -136h174l-9 -53h-251z" />
<glyph unicode="&#xbe;" horiz-adv-x="783" d="M181 259q-116 0 -141 105l53 19q26 -76 88 -76q32 0 51.5 20.5t19.5 53.5q0 70 -74 70h-39l8 49h39q87 0 87 73q0 25 -16 39.5t-43 14.5q-26 0 -41.5 -12.5t-32.5 -47.5l-48 24q19 44 48 64t76 20q56 0 89 -27.5t33 -74.5q0 -60 -48 -86q-19 -9 -49 -14q41 -13 58.5 -34 t17.5 -58q0 -53 -38 -87.5t-98 -34.5zM155 0l472 667h63l-472 -667h-63zM443 91l7 42l222 270h62l-44 -264h56l-8 -48h-56l-15 -91h-57l15 91h-182zM516 139h117l38 201z" />
<glyph unicode="&#xbf;" horiz-adv-x="443" d="M217 399l15 94h98l-16 -94h-97zM-9 -15q0 85 50 138q20 20 37.5 32t75.5 45q38 22 51 45.5t19 84.5h67q-4 -40 -6.5 -58t-10.5 -41t-14 -32t-26.5 -26t-38.5 -27.5l-58 -33.5q-70 -40 -70 -127q0 -51 26 -81.5t70 -30.5q94 0 141 137l66 -28q-52 -169 -209 -169 q-79 0 -124.5 46t-45.5 126z" />
<glyph unicode="&#xc0;" horiz-adv-x="477" d="M354 718l-214 72l21 68l207 -99zM-28 0l291 667h88l81 -667h-80l-23 195h-195l-84 -195h-78zM162 260h159l-26 325z" />
<glyph unicode="&#xc1;" horiz-adv-x="477" d="M277 717l-15 42l206 96l17 -64zM-28 0l291 667h88l81 -667h-80l-23 195h-195l-84 -195h-78zM162 260h159l-26 325z" />
<glyph unicode="&#xc2;" horiz-adv-x="477" d="M142 740l189 107l163 -107l-80 -10l-92 50l-99 -50zM-28 0l291 667h88l81 -667h-80l-23 195h-195l-84 -195h-78zM162 260h159l-26 325z" />
<glyph unicode="&#xc3;" horiz-adv-x="477" d="M208 738l-29 36q22 32 44.5 44.5t56.5 12.5q29 0 69 -15q30 -11 46 -11q30 0 52 25l29 -36q-33 -48 -86 -48q-25 0 -65 15q-37 14 -54 14q-36 0 -63 -37zM-28 0l291 667h88l81 -667h-80l-23 195h-195l-84 -195h-78zM162 260h159l-26 325z" />
<glyph unicode="&#xc4;" horiz-adv-x="477" d="M393 739q-21 0 -35.5 15t-14.5 36q0 22 14.5 36.5t36.5 14.5t36.5 -14.5t14.5 -36.5t-15 -36.5t-37 -14.5zM250 739q-21 0 -35.5 15t-14.5 36q0 22 14.5 36.5t36.5 14.5t36.5 -14.5t14.5 -36.5t-15 -36.5t-37 -14.5zM-28 0l291 667h88l81 -667h-80l-23 195h-195l-84 -195 h-78zM162 260h159l-26 325z" />
<glyph unicode="&#xc5;" horiz-adv-x="477" d="M317 699q-37 0 -63.5 26.5t-26.5 63.5q0 38 26.5 64.5t64.5 26.5q39 0 65.5 -26.5t26.5 -64.5t-27 -64t-66 -26zM318 746q17 0 30 13t13 30q0 19 -12.5 32t-30.5 13q-17 0 -29.5 -13t-12.5 -31t12.5 -31t29.5 -13zM-28 0l291 667h88l81 -667h-80l-23 195h-195l-84 -195 h-78zM162 260h159l-26 325z" />
<glyph unicode="&#xc6;" horiz-adv-x="750" d="M-35 0l440 667h381l-11 -65h-281l-37 -224h239l-11 -65h-239l-42 -248h301l-11 -65h-379l38 227h-155l-150 -227h-83zM238 292h126l60 312z" />
<glyph unicode="&#xc7;" horiz-adv-x="511" d="M171 -92l47 80q-89 16 -128 76.5t-39 184.5q0 189 79.5 310.5t203.5 121.5q101 0 148 -75q30 -47 30 -140l-75 -18q-1 73 -18 112q-11 25 -36 40t-55 15q-78 0 -129 -93q-64 -118 -64 -267q0 -203 118 -203q54 0 90 38.5t61 121.5l67 -28q-20 -89 -74.5 -141t-133.5 -56 l-19 -39h11q32 0 52 -18.5t20 -48.5q0 -37 -30 -62t-75 -25q-56 0 -103 33l24 38q41 -23 76 -23q20 0 34 10.5t14 25.5q0 14 -15 23t-40 9q-13 0 -41 -2z" />
<glyph unicode="&#xc8;" d="M165 790l21 68l207 -99l-14 -41zM30 0l112 667h355l-11 -65h-277l-37 -224h236l-11 -65h-236l-42 -248h299l-11 -65h-377z" />
<glyph unicode="&#xc9;" d="M286 717l-15 42l206 96l17 -64zM30 0l112 667h355l-11 -65h-277l-37 -224h236l-11 -65h-236l-42 -248h299l-11 -65h-377z" />
<glyph unicode="&#xca;" d="M158 740l189 107l163 -107l-80 -10l-92 50l-99 -50zM30 0l112 667h355l-11 -65h-277l-37 -224h236l-11 -65h-236l-42 -248h299l-11 -65h-377z" />
<glyph unicode="&#xcb;" d="M412 739q-21 0 -35.5 15t-14.5 36q0 22 14.5 36.5t36.5 14.5t36.5 -14.5t14.5 -36.5t-15 -36.5t-37 -14.5zM269 739q-21 0 -35.5 15t-14.5 36q0 22 14.5 36.5t36.5 14.5t36.5 -14.5t14.5 -36.5t-15 -36.5t-37 -14.5zM30 0l112 667h355l-11 -65h-277l-37 -224h236l-11 -65 h-236l-42 -248h299l-11 -65h-377z" />
<glyph unicode="&#xcc;" horiz-adv-x="222" d="M208 718l-184 74l26 66l175 -99zM29 0l112 667h78l-111 -667h-79z" />
<glyph unicode="&#xcd;" horiz-adv-x="222" d="M169 717l-15 42l182 96l21 -64zM30 0l112 667h78l-112 -667h-78z" />
<glyph unicode="&#xce;" horiz-adv-x="222" d="M123 730l-78 10l163 107l136 -107l-77 -10l-68 50zM30 0l112 667h78l-112 -667h-78z" />
<glyph unicode="&#xcf;" horiz-adv-x="222" d="M259 741q-20 0 -34 14.5t-14 34.5q0 21 14 35t35 14t35 -14t14 -35t-14.5 -35t-35.5 -14zM129 741q-20 0 -34 14.5t-14 34.5q0 21 14 35t35 14t35 -14t14 -35t-14.5 -35t-35.5 -14zM30 0l112 667h78l-112 -667h-78z" />
<glyph unicode="&#xd0;" horiz-adv-x="545" d="M30 0l53 318h-61l9 57h62l48 292h138q123 0 176 -46q72 -60 72 -205q0 -112 -38.5 -211.5t-102.5 -151.5q-64 -53 -197 -53h-159zM119 64h60q60 0 92.5 7.5t56.5 27.5q50 41 82.5 134.5t32.5 193.5q0 94 -41 135t-133 41h-60l-38 -228h143l-9 -57h-143z" />
<glyph unicode="&#xd1;" horiz-adv-x="562" d="M256 738l-29 36q22 32 44.5 44.5t56.5 12.5q29 0 69 -15q30 -11 46 -11q30 0 52 25l29 -36q-33 -48 -86 -48q-25 0 -65 15q-37 14 -54 14q-36 0 -63 -37zM30 0l112 667h85l178 -527l83 527h73l-112 -667h-68l-189 565l-89 -565h-73z" />
<glyph unicode="&#xd2;" horiz-adv-x="562" d="M203 790l21 68l207 -99l-14 -41zM115 39q-63 65 -63 216q0 95 25 181.5t70 147.5q71 97 188 97q99 0 150 -62q55 -64 55 -202q0 -218 -104 -348q-65 -83 -179 -83q-92 0 -142 53zM264 51q74 0 119 75q75 127 75 309q0 97 -42 144q-35 37 -87 37q-37 0 -71 -23t-57 -62 q-67 -116 -67 -276q0 -99 33.5 -151.5t96.5 -52.5z" />
<glyph unicode="&#xd3;" horiz-adv-x="562" d="M330 717l-15 42l206 96l17 -64zM115 39q-63 65 -63 216q0 95 25 181.5t70 147.5q71 97 188 97q99 0 150 -62q55 -64 55 -202q0 -218 -104 -348q-65 -83 -179 -83q-92 0 -142 53zM264 51q74 0 119 75q75 127 75 309q0 97 -42 144q-35 37 -87 37q-37 0 -71 -23t-57 -62 q-67 -116 -67 -276q0 -99 33.5 -151.5t96.5 -52.5z" />
<glyph unicode="&#xd4;" horiz-adv-x="562" d="M181 740l189 107l163 -107l-80 -10l-92 50l-99 -50zM115 39q-63 65 -63 216q0 95 25 181.5t70 147.5q71 97 188 97q99 0 150 -62q55 -64 55 -202q0 -218 -104 -348q-65 -83 -179 -83q-92 0 -142 53zM264 51q74 0 119 75q75 127 75 309q0 97 -42 144q-35 37 -87 37 q-37 0 -71 -23t-57 -62q-67 -116 -67 -276q0 -99 33.5 -151.5t96.5 -52.5z" />
<glyph unicode="&#xd5;" horiz-adv-x="562" d="M268 738l-29 36q22 32 44.5 44.5t56.5 12.5q29 0 69 -15q30 -11 46 -11q30 0 52 25l29 -36q-33 -48 -86 -48q-25 0 -65 15q-37 14 -54 14q-36 0 -63 -37zM115 39q-63 65 -63 216q0 95 25 181.5t70 147.5q71 97 188 97q99 0 150 -62q55 -64 55 -202q0 -218 -104 -348 q-65 -83 -179 -83q-92 0 -142 53zM264 51q74 0 119 75q75 127 75 309q0 97 -42 144q-35 37 -87 37q-37 0 -71 -23t-57 -62q-67 -116 -67 -276q0 -99 33.5 -151.5t96.5 -52.5z" />
<glyph unicode="&#xd6;" horiz-adv-x="562" d="M444 739q-21 0 -35.5 15t-14.5 36q0 22 14.5 36.5t36.5 14.5t36.5 -14.5t14.5 -36.5t-15 -36.5t-37 -14.5zM301 739q-21 0 -35.5 15t-14.5 36q0 22 14.5 36.5t36.5 14.5t36.5 -14.5t14.5 -36.5t-15 -36.5t-37 -14.5zM115 39q-63 65 -63 216q0 95 25 181.5t70 147.5 q71 97 188 97q99 0 150 -62q55 -64 55 -202q0 -218 -104 -348q-65 -83 -179 -83q-92 0 -142 53zM264 51q74 0 119 75q75 127 75 309q0 97 -42 144q-35 37 -87 37q-37 0 -71 -23t-57 -62q-67 -116 -67 -276q0 -99 33.5 -151.5t96.5 -52.5z" />
<glyph unicode="&#xd7;" horiz-adv-x="511" d="M139 160l-44 42l132 131l-132 132l42 42l131 -132l132 132l44 -42l-131 -132l131 -131l-42 -42l-131 132z" />
<glyph unicode="&#xd8;" horiz-adv-x="562" d="M1 -22l81 110q-30 69 -30 171q0 196 95 325q69 97 187 97q82 0 139 -50l47 63h66l-79 -109q33 -67 33 -174q0 -99 -27.5 -189.5t-76.5 -152.5q-65 -83 -175 -83q-96 0 -149 56l-47 -64h-64zM139 158l287 415q-39 47 -97 47q-38 0 -73.5 -23t-58.5 -63q-68 -120 -68 -281 q0 -46 10 -95zM161 100q40 -52 106 -52q74 0 119 75q77 126 77 304q0 50 -12 94z" />
<glyph unicode="&#xd9;" horiz-adv-x="528" d="M182 790l21 68l207 -99l-14 -41zM53 151q0 35 15 121l66 395h78l-67 -398q-12 -73 -12 -109q0 -52 26.5 -80t75.5 -28q70 0 104.5 49.5t56.5 183.5l63 382h74l-66 -398q-22 -130 -52 -187q-50 -96 -184 -96q-85 0 -131.5 43t-46.5 122z" />
<glyph unicode="&#xda;" horiz-adv-x="528" d="M309 717l-15 42l206 96l17 -64zM53 151q0 35 15 121l66 395h78l-67 -398q-12 -73 -12 -109q0 -52 26.5 -80t75.5 -28q70 0 104.5 49.5t56.5 183.5l63 382h74l-66 -398q-22 -130 -52 -187q-50 -96 -184 -96q-85 0 -131.5 43t-46.5 122z" />
<glyph unicode="&#xdb;" horiz-adv-x="528" d="M176 740l189 107l163 -107l-80 -10l-92 50l-99 -50zM53 151q0 35 15 121l66 395h78l-67 -398q-12 -73 -12 -109q0 -52 26.5 -80t75.5 -28q70 0 104.5 49.5t56.5 183.5l63 382h74l-66 -398q-22 -130 -52 -187q-50 -96 -184 -96q-85 0 -131.5 43t-46.5 122z" />
<glyph unicode="&#xdc;" horiz-adv-x="528" d="M430 739q-21 0 -35.5 15t-14.5 36q0 22 14.5 36.5t36.5 14.5t36.5 -14.5t14.5 -36.5t-15 -36.5t-37 -14.5zM287 739q-21 0 -35.5 15t-14.5 36q0 22 14.5 36.5t36.5 14.5t36.5 -14.5t14.5 -36.5t-15 -36.5t-37 -14.5zM53 151q0 35 15 121l66 395h78l-67 -398 q-12 -73 -12 -109q0 -52 26.5 -80t75.5 -28q70 0 104.5 49.5t56.5 183.5l63 382h74l-66 -398q-22 -130 -52 -187q-50 -96 -184 -96q-85 0 -131.5 43t-46.5 122z" />
<glyph unicode="&#xdd;" horiz-adv-x="409" d="M250 717l-15 42l206 96l17 -64zM126 0l47 280l-130 387h86l95 -312l193 312h83l-249 -387l-47 -280h-78z" />
<glyph unicode="&#xde;" horiz-adv-x="477" d="M30 0l112 667h78l-20 -120h52q137 0 181 -47q43 -45 43 -125q0 -53 -21 -101.5t-55 -76.5q-58 -47 -163 -47h-103l-26 -150h-78zM144 213h70q73 0 108 19q32 17 51 55.5t19 87.5q0 58 -31 83q-29 24 -122 24h-50z" />
<glyph unicode="&#xdf;" horiz-adv-x="477" d="M19 -31l72 429h-54l11 63h53q11 69 25.5 108t41.5 72q25 31 66 49.5t83 18.5q62 0 101.5 -34.5t39.5 -89.5t-36 -98.5t-93 -57.5q-26 -6 -66 -7q-3 -9 -3 -12q0 -10 10 -18t41 -24q74 -40 105 -80t31 -98q0 -88 -57.5 -146t-144.5 -58q-60 0 -103 26l19 52q51 -20 83 -20 q59 0 94.5 37.5t35.5 99.5q0 49 -20.5 75t-95.5 71q-61 37 -61 83q0 26 15 54q58 1 96 13q80 24 80 96q0 35 -20.5 56t-54.5 21q-54 0 -90 -47q-34 -43 -49 -135l-84 -499h-71z" />
<glyph unicode="&#xe0;" d="M307 537l-165 109l37 58l152 -130zM16 122q0 50 22 91t60 62q59 33 166 33q38 0 75 -5q10 41 10 65q0 37 -26.5 58.5t-72.5 21.5q-40 0 -67 -17t-47 -55l-61 31q54 100 179 100q78 0 120 -34t42 -97q0 -18 -5 -53l-35 -211q-11 -66 -11 -86q0 -14 1 -26h-71v11q0 30 6 61 q-32 -48 -64.5 -67t-81.5 -19q-66 0 -102.5 35.5t-36.5 100.5zM94 128q0 -40 18 -61.5t50 -21.5q38 0 73 25t60 70q25 46 35 106q-46 6 -75 6q-161 0 -161 -124z" />
<glyph unicode="&#xe1;" d="M267 540l-26 37l152 128l32 -57zM16 122q0 50 22 91t60 62q59 33 166 33q38 0 75 -5q10 41 10 65q0 37 -26.5 58.5t-72.5 21.5q-40 0 -67 -17t-47 -55l-61 31q54 100 179 100q78 0 120 -34t42 -97q0 -18 -5 -53l-35 -211q-11 -66 -11 -86q0 -14 1 -26h-71v11q0 30 6 61 q-32 -48 -64.5 -67t-81.5 -19q-66 0 -102.5 35.5t-36.5 100.5zM94 128q0 -40 18 -61.5t50 -21.5q38 0 73 25t60 70q25 46 35 106q-46 6 -75 6q-161 0 -161 -124z" />
<glyph unicode="&#xe2;" d="M124 567l156 122l126 -121l-62 -13l-71 64l-87 -65zM16 122q0 50 22 91t60 62q59 33 166 33q38 0 75 -5q10 41 10 65q0 37 -26.5 58.5t-72.5 21.5q-40 0 -67 -17t-47 -55l-61 31q54 100 179 100q78 0 120 -34t42 -97q0 -18 -5 -53l-35 -211q-11 -66 -11 -86q0 -14 1 -26 h-71v11q0 30 6 61q-32 -48 -64.5 -67t-81.5 -19q-66 0 -102.5 35.5t-36.5 100.5zM94 128q0 -40 18 -61.5t50 -21.5q38 0 73 25t60 70q25 46 35 106q-46 6 -75 6q-161 0 -161 -124z" />
<glyph unicode="&#xe3;" d="M178 581l-26 34q33 60 83 60q25 0 70 -22q31 -16 47 -16q13 0 20.5 6t20.5 25l26 -34q-28 -52 -72 -52q-23 0 -64 21q-38 19 -53 19q-30 0 -52 -41zM16 122q0 50 22 91t60 62q59 33 166 33q38 0 75 -5q10 41 10 65q0 37 -26.5 58.5t-72.5 21.5q-40 0 -67 -17t-47 -55 l-61 31q54 100 179 100q78 0 120 -34t42 -97q0 -18 -5 -53l-35 -211q-11 -66 -11 -86q0 -14 1 -26h-71v11q0 30 6 61q-32 -48 -64.5 -67t-81.5 -19q-66 0 -102.5 35.5t-36.5 100.5zM94 128q0 -40 18 -61.5t50 -21.5q38 0 73 25t60 70q25 46 35 106q-46 6 -75 6 q-161 0 -161 -124z" />
<glyph unicode="&#xe4;" d="M347 574q-20 0 -34.5 14.5t-14.5 35.5q0 20 14.5 34.5t34.5 14.5q21 0 35.5 -14.5t14.5 -35.5q0 -20 -14.5 -34.5t-35.5 -14.5zM204 574q-20 0 -34.5 14.5t-14.5 35.5q0 20 14.5 34.5t35.5 14.5q20 0 34.5 -14.5t14.5 -35.5q0 -20 -14.5 -34.5t-35.5 -14.5zM16 122 q0 50 22 91t60 62q59 33 166 33q38 0 75 -5q10 41 10 65q0 37 -26.5 58.5t-72.5 21.5q-40 0 -67 -17t-47 -55l-61 31q54 100 179 100q78 0 120 -34t42 -97q0 -18 -5 -53l-35 -211q-11 -66 -11 -86q0 -14 1 -26h-71v11q0 30 6 61q-32 -48 -64.5 -67t-81.5 -19 q-66 0 -102.5 35.5t-36.5 100.5zM94 128q0 -40 18 -61.5t50 -21.5q38 0 73 25t60 70q25 46 35 106q-46 6 -75 6q-161 0 -161 -124z" />
<glyph unicode="&#xe5;" d="M279 547q-36 0 -61.5 26t-25.5 61q0 37 26 62.5t63 25.5t62.5 -25.5t25.5 -62.5t-26 -62t-64 -25zM280 591q17 0 30 13t13 30q0 18 -12.5 31t-29.5 13t-30 -13t-13 -30t13 -30.5t29 -13.5zM16 122q0 50 22 91t60 62q59 33 166 33q38 0 75 -5q10 41 10 65q0 37 -26.5 58.5 t-72.5 21.5q-40 0 -67 -17t-47 -55l-61 31q54 100 179 100q78 0 120 -34t42 -97q0 -18 -5 -53l-35 -211q-11 -66 -11 -86q0 -14 1 -26h-71v11q0 30 6 61q-32 -48 -64.5 -67t-81.5 -19q-66 0 -102.5 35.5t-36.5 100.5zM94 128q0 -40 18 -61.5t50 -21.5q38 0 73 25t60 70 q25 46 35 106q-46 6 -75 6q-161 0 -161 -124z" />
<glyph unicode="&#xe6;" horiz-adv-x="715" d="M16 121q0 89 61.5 137.5t174.5 48.5q19 0 74 -4q7 46 7 64q0 38 -23.5 59.5t-64.5 21.5q-70 0 -109 -73l-61 32q53 100 175 100q97 0 137 -73q54 73 145 73q155 0 155 -203q0 -33 -4 -65h-294q-3 -31 -3 -49q0 -70 26 -107.5t75 -37.5q36 0 62.5 23.5t50.5 77.5l57 -30 q-57 -130 -175 -130q-120 0 -151 124q-62 -124 -179 -124q-64 0 -100 36t-36 99zM396 296h213q1 12 1 27q0 59 -23 92t-63 33q-29 0 -55.5 -16.5t-42.5 -44.5q-19 -33 -30 -91zM94 126q0 -37 18 -59t48 -22q35 0 68 25t56 69t32 106q-51 6 -69 6q-153 0 -153 -125z" />
<glyph unicode="&#xe7;" horiz-adv-x="426" d="M100 22q-60 54 -60 172q0 135 61 228q55 85 153 85q90 0 126 -63q20 -37 25 -109l-71 -10q-3 64 -22.5 93.5t-59.5 29.5q-57 0 -95.5 -71t-38.5 -177q0 -155 94 -155q39 0 63.5 27.5t40.5 90.5l66 -19q-19 -79 -59 -117t-107 -41l-17 -34h11q31 0 50.5 -17.5t19.5 -45.5 q0 -36 -28.5 -59.5t-72.5 -23.5q-56 0 -97 31l21 34q45 -21 73 -21q19 0 32 10t13 25q0 32 -52 32q-8 0 -37 -2l43 74q-50 9 -75 33z" />
<glyph unicode="&#xe8;" horiz-adv-x="443" d="M291 537l-165 109l37 58l152 -130zM35 196q0 78 23.5 145.5t64.5 110.5q52 55 134 55q157 0 157 -205q0 -27 -4 -63h-294q-3 -31 -3 -49q0 -70 26 -107.5t75 -37.5q37 0 62.5 23t50.5 78l57 -30q-57 -130 -176 -130q-84 0 -128.5 54.5t-44.5 155.5zM123 296h214v27 q0 59 -23 92t-63 33q-29 0 -55.5 -16.5t-42.5 -44.5q-20 -34 -30 -91z" />
<glyph unicode="&#xe9;" horiz-adv-x="443" d="M255 540l-26 37l152 128l32 -57zM35 196q0 78 23.5 145.5t64.5 110.5q52 55 134 55q157 0 157 -205q0 -27 -4 -63h-294q-3 -31 -3 -49q0 -70 26 -107.5t75 -37.5q37 0 62.5 23t50.5 78l57 -30q-57 -130 -176 -130q-84 0 -128.5 54.5t-44.5 155.5zM123 296h214v27 q0 59 -23 92t-63 33q-29 0 -55.5 -16.5t-42.5 -44.5q-20 -34 -30 -91z" />
<glyph unicode="&#xea;" horiz-adv-x="443" d="M125 567l156 122l126 -121l-62 -13l-71 64l-87 -65zM35 196q0 78 23.5 145.5t64.5 110.5q52 55 134 55q157 0 157 -205q0 -27 -4 -63h-294q-3 -31 -3 -49q0 -70 26 -107.5t75 -37.5q37 0 62.5 23t50.5 78l57 -30q-57 -130 -176 -130q-84 0 -128.5 54.5t-44.5 155.5z M123 296h214v27q0 59 -23 92t-63 33q-29 0 -55.5 -16.5t-42.5 -44.5q-20 -34 -30 -91z" />
<glyph unicode="&#xeb;" horiz-adv-x="443" d="M357 574q-20 0 -34.5 14.5t-14.5 35.5q0 20 14.5 34.5t34.5 14.5q21 0 35.5 -14.5t14.5 -35.5q0 -20 -14.5 -34.5t-35.5 -14.5zM214 574q-20 0 -34.5 14.5t-14.5 35.5q0 20 14.5 34.5t35.5 14.5q20 0 34.5 -14.5t14.5 -35.5q0 -20 -14.5 -34.5t-35.5 -14.5zM35 196 q0 78 23.5 145.5t64.5 110.5q52 55 134 55q157 0 157 -205q0 -27 -4 -63h-294q-3 -31 -3 -49q0 -70 26 -107.5t75 -37.5q37 0 62.5 23t50.5 78l57 -30q-57 -130 -176 -130q-84 0 -128.5 54.5t-44.5 155.5zM123 296h214v27q0 59 -23 92t-63 33q-29 0 -55.5 -16.5t-42.5 -44.5 q-20 -34 -30 -91z" />
<glyph unicode="&#xec;" horiz-adv-x="204" d="M167 537l-149 111l40 56l136 -130zM25 0l82 493h72l-83 -493h-71z" />
<glyph unicode="&#xed;" horiz-adv-x="204" d="M142 540l-26 37l152 128l32 -57zM25 0l82 493h72l-83 -493h-71z" />
<glyph unicode="&#xee;" horiz-adv-x="204" d="M87 554l-57 13l136 122l105 -121l-56 -13l-57 64zM25 0l82 493h72l-83 -493h-71z" />
<glyph unicode="&#xef;" horiz-adv-x="204" d="M229 576q-20 0 -33.5 14t-13.5 34t14 33.5t34 13.5t33.5 -14t13.5 -34t-14 -33.5t-34 -13.5zM99 576q-20 0 -33.5 14t-13.5 34t14 33.5t34 13.5t33.5 -14t13.5 -34t-14 -33.5t-34 -13.5zM25 0l82 493h72l-83 -493h-71z" />
<glyph unicode="&#xf0;" d="M35 195q0 136 60 224t152 88q41 0 73 -20q-10 45 -24 85l-72 -26l-15 42l71 25q-12 30 -29 65l56 19q21 -39 32 -63l72 25l14 -41l-68 -25q62 -145 62 -289q0 -148 -59 -233t-161 -85q-83 0 -123.5 51.5t-40.5 157.5zM205 45q67 0 100 73q39 88 39 202q0 128 -89 128 q-56 0 -90 -55q-52 -85 -52 -215q0 -64 24 -98.5t68 -34.5z" />
<glyph unicode="&#xf1;" d="M195 581l-26 34q33 60 83 60q25 0 70 -22q31 -16 47 -16q13 0 20.5 6t20.5 25l26 -34q-28 -52 -72 -52q-23 0 -64 21q-38 19 -53 19q-30 0 -52 -41zM25 0l82 493h65l-15 -94q22 51 47 73q40 35 96 35q55 0 85.5 -31.5t30.5 -89.5q0 -33 -12 -109l-46 -277h-72l45 270 q12 74 12 96q0 37 -18 59.5t-47 22.5q-26 0 -52.5 -21t-43.5 -56q-33 -67 -57 -203l-29 -168h-71z" />
<glyph unicode="&#xf2;" d="M302 537l-165 109l37 58l152 -130zM196 -14q-161 0 -161 209q0 142 61.5 227t162.5 85q163 0 163 -194q0 -160 -71 -254q-53 -73 -155 -73zM205 45q67 0 100 73q39 88 39 202q0 128 -89 128q-56 0 -90 -55q-52 -85 -52 -215q0 -64 24 -98.5t68 -34.5z" />
<glyph unicode="&#xf3;" d="M263 540l-26 37l152 128l32 -57zM196 -14q-161 0 -161 209q0 142 61.5 227t162.5 85q163 0 163 -194q0 -160 -71 -254q-53 -73 -155 -73zM205 45q67 0 100 73q39 88 39 202q0 128 -89 128q-56 0 -90 -55q-52 -85 -52 -215q0 -64 24 -98.5t68 -34.5z" />
<glyph unicode="&#xf4;" d="M133 567l156 122l126 -121l-62 -13l-71 64l-87 -65zM196 -14q-161 0 -161 209q0 142 61.5 227t162.5 85q163 0 163 -194q0 -160 -71 -254q-53 -73 -155 -73zM205 45q67 0 100 73q39 88 39 202q0 128 -89 128q-56 0 -90 -55q-52 -85 -52 -215q0 -64 24 -98.5t68 -34.5z " />
<glyph unicode="&#xf5;" d="M191 581l-26 34q33 60 83 60q25 0 70 -22q31 -16 47 -16q13 0 20.5 6t20.5 25l26 -34q-28 -52 -72 -52q-23 0 -64 21q-38 19 -53 19q-30 0 -52 -41zM196 -14q-161 0 -161 209q0 142 61.5 227t162.5 85q163 0 163 -194q0 -160 -71 -254q-53 -73 -155 -73zM205 45 q67 0 100 73q39 88 39 202q0 128 -89 128q-56 0 -90 -55q-52 -85 -52 -215q0 -64 24 -98.5t68 -34.5z" />
<glyph unicode="&#xf6;" d="M362 574q-20 0 -34.5 14.5t-14.5 35.5q0 20 14.5 34.5t34.5 14.5q21 0 35.5 -14.5t14.5 -35.5q0 -20 -14.5 -34.5t-35.5 -14.5zM219 574q-20 0 -34.5 14.5t-14.5 35.5q0 20 14.5 34.5t35.5 14.5q20 0 34.5 -14.5t14.5 -35.5q0 -20 -14.5 -34.5t-35.5 -14.5zM196 -14 q-161 0 -161 209q0 142 61.5 227t162.5 85q163 0 163 -194q0 -160 -71 -254q-53 -73 -155 -73zM205 45q67 0 100 73q39 88 39 202q0 128 -89 128q-56 0 -90 -55q-52 -85 -52 -215q0 -64 24 -98.5t68 -34.5z" />
<glyph unicode="&#xf7;" horiz-adv-x="511" d="M228 412v92h84v-92h-84zM64 304v59h411v-59h-411zM228 163v92h84v-92h-84z" />
<glyph unicode="&#xf8;" d="M14 -39l53 85q-31 62 -31 150q0 142 61 226.5t163 84.5q46 0 90 -22l34 53h52l-51 -82q22 -31 30 -63t8 -84q0 -155 -71 -250q-56 -73 -152 -73q-57 0 -100 28l-34 -53h-52zM115 111l195 324q-25 18 -54 18q-59 0 -94 -56q-55 -86 -55 -219q0 -36 8 -67zM140 67 q29 -26 68 -26q68 0 103 74q40 85 40 207q0 43 -12 74z" />
<glyph unicode="&#xf9;" d="M303 537l-165 109l37 58l152 -130zM41 100q0 33 11 102l49 291h71l-45 -276q-13 -77 -13 -102q0 -31 15.5 -50.5t40.5 -19.5q36 0 71 34.5t57 93.5q19 50 45 205l19 115h72l-83 -493h-64l15 92q-57 -106 -147 -106q-52 0 -83 31t-31 83z" />
<glyph unicode="&#xfa;" d="M272 540l-26 37l152 128l32 -57zM41 100q0 33 11 102l49 291h71l-45 -276q-13 -77 -13 -102q0 -31 15.5 -50.5t40.5 -19.5q36 0 71 34.5t57 93.5q19 50 45 205l19 115h72l-83 -493h-64l15 92q-57 -106 -147 -106q-52 0 -83 31t-31 83z" />
<glyph unicode="&#xfb;" d="M145 567l156 122l126 -121l-62 -13l-71 64l-87 -65zM41 100q0 33 11 102l49 291h71l-45 -276q-13 -77 -13 -102q0 -31 15.5 -50.5t40.5 -19.5q36 0 71 34.5t57 93.5q19 50 45 205l19 115h72l-83 -493h-64l15 92q-57 -106 -147 -106q-52 0 -83 31t-31 83z" />
<glyph unicode="&#xfc;" d="M361 574q-20 0 -34.5 14.5t-14.5 35.5q0 20 14.5 34.5t34.5 14.5q21 0 35.5 -14.5t14.5 -35.5q0 -20 -14.5 -34.5t-35.5 -14.5zM218 574q-20 0 -34.5 14.5t-14.5 35.5q0 20 14.5 34.5t35.5 14.5q20 0 34.5 -14.5t14.5 -35.5q0 -20 -14.5 -34.5t-35.5 -14.5zM41 100 q0 33 11 102l49 291h71l-45 -276q-13 -77 -13 -102q0 -31 15.5 -50.5t40.5 -19.5q36 0 71 34.5t57 93.5q19 50 45 205l19 115h72l-83 -493h-64l15 92q-57 -106 -147 -106q-52 0 -83 31t-31 83z" />
<glyph unicode="&#xfd;" horiz-adv-x="392" d="M239 540l-26 37l152 128l32 -57zM-25 -107q32 -4 41 -4q33 0 56 25t53 100l8 20l-80 459h76l52 -372l162 372h72l-235 -506q-47 -101 -80.5 -132t-95.5 -31q-14 0 -40 3z" />
<glyph unicode="&#xfe;" horiz-adv-x="477" d="M109 74l-41 -241h-71l139 834h72l-42 -252q23 44 59 68t77 24q65 0 102 -49.5t37 -135.5q0 -137 -63 -242q-26 -44 -66 -69t-85 -25q-90 0 -118 88zM221 45q61 0 101.5 79t40.5 199q0 121 -75 121q-59 0 -107 -80.5t-48 -179.5q0 -64 23.5 -101.5t64.5 -37.5z" />
<glyph unicode="&#xff;" horiz-adv-x="392" d="M326 574q-20 0 -34.5 14.5t-14.5 35.5q0 20 14.5 34.5t34.5 14.5q21 0 35.5 -14.5t14.5 -35.5q0 -20 -14.5 -34.5t-35.5 -14.5zM183 574q-20 0 -34.5 14.5t-14.5 35.5q0 20 14.5 34.5t35.5 14.5q20 0 34.5 -14.5t14.5 -35.5q0 -20 -14.5 -34.5t-35.5 -14.5zM-25 -107 q32 -4 41 -4q33 0 56 25t53 100l8 20l-80 459h76l52 -372l162 372h72l-235 -506q-47 -101 -80.5 -132t-95.5 -31q-14 0 -40 3z" />
<glyph unicode="&#x152;" horiz-adv-x="818" d="M128 28q-79 65 -79 228q0 98 28 186.5t79 150.5q72 88 180 88q54 0 88.5 -22t57.5 -70l13 78h358l-11 -65h-280l-37 -224h236l-11 -65h-236l-41 -248h301l-11 -65h-380l14 79q-27 -49 -61.5 -71t-85.5 -22q-72 0 -122 42zM257 51q101 0 161 158l49 289q-15 52 -39 76 q-39 42 -95 42q-82 0 -142 -109.5t-60 -258.5q0 -93 33.5 -145t92.5 -52z" />
<glyph unicode="&#x153;" horiz-adv-x="750" d="M202 -14q-81 0 -124 57t-43 164q0 136 60.5 218t160.5 82q59 0 94 -23.5t55 -75.5q61 99 162 99q42 0 76.5 -20t52.5 -54q25 -47 25 -128q0 -35 -5 -66h-294q-2 -44 -2 -49q0 -70 26 -107.5t75 -37.5q36 0 61.5 23t51.5 78l56 -30q-56 -130 -173 -130q-111 0 -148 102 q-24 -39 -43 -56q-53 -46 -124 -46zM429 296h214q1 12 1 27q0 59 -23 92t-63 33q-29 0 -55.5 -16.5t-42.5 -44.5q-21 -36 -31 -91zM205 45q68 0 107 72.5t39 198.5q0 132 -96 132q-64 0 -103 -70.5t-39 -184.5q0 -148 92 -148z" />
<glyph unicode="&#x178;" horiz-adv-x="409" d="M361 739q-21 0 -35.5 15t-14.5 36q0 22 14.5 36.5t36.5 14.5t36.5 -14.5t14.5 -36.5t-15 -36.5t-37 -14.5zM218 739q-21 0 -35.5 15t-14.5 36q0 22 14.5 36.5t36.5 14.5t36.5 -14.5t14.5 -36.5t-15 -36.5t-37 -14.5zM126 0l47 280l-130 387h86l95 -312l193 312h83 l-249 -387l-47 -280h-78z" />
<glyph unicode="&#x2c6;" d="M140 567l156 122l126 -121l-62 -13l-71 64l-87 -65z" />
<glyph unicode="&#x2dc;" d="M185 581l-26 34q33 60 83 60q25 0 70 -22q31 -16 47 -16q13 0 20.5 6t20.5 25l26 -34q-28 -52 -72 -52q-23 0 -64 21q-38 19 -53 19q-30 0 -52 -41z" />
<glyph unicode="&#x2000;" horiz-adv-x="440" />
<glyph unicode="&#x2001;" horiz-adv-x="880" />
<glyph unicode="&#x2002;" horiz-adv-x="440" />
<glyph unicode="&#x2003;" horiz-adv-x="880" />
<glyph unicode="&#x2004;" horiz-adv-x="293" />
<glyph unicode="&#x2005;" horiz-adv-x="220" />
<glyph unicode="&#x2006;" horiz-adv-x="146" />
<glyph unicode="&#x2007;" horiz-adv-x="146" />
<glyph unicode="&#x2008;" horiz-adv-x="110" />
<glyph unicode="&#x2009;" horiz-adv-x="176" />
<glyph unicode="&#x200a;" horiz-adv-x="48" />
<glyph unicode="&#x2010;" horiz-adv-x="256" d="M29 227l10 60h190l-10 -60h-190z" />
<glyph unicode="&#x2011;" horiz-adv-x="256" d="M29 227l10 60h190l-10 -60h-190z" />
<glyph unicode="&#x2013;" horiz-adv-x="409" d="M29 230l9 55h343l-9 -55h-343z" />
<glyph unicode="&#x2014;" horiz-adv-x="647" d="M29 230l9 55h582l-9 -55h-582z" />
<glyph unicode="&#x2018;" horiz-adv-x="187" d="M76 445l17 100l87 122h38l-70 -122h36l-17 -100h-91z" />
<glyph unicode="&#x2019;" horiz-adv-x="187" d="M71 445l70 122h-36l17 100h91l-16 -100l-88 -122h-38z" />
<glyph unicode="&#x201a;" horiz-adv-x="187" d="M10 0l17 100h91l-16 -100l-88 -121h-38l70 121h-36z" />
<glyph unicode="&#x201c;" horiz-adv-x="324" d="M212 445l17 100l88 122h38l-70 -122h35l-16 -100h-92zM76 445l17 100l87 122h38l-70 -122h36l-17 -100h-91z" />
<glyph unicode="&#x201d;" horiz-adv-x="324" d="M207 445l70 122h-35l17 100h91l-17 -100l-88 -122h-38zM71 445l70 122h-36l17 100h91l-16 -100l-88 -122h-38z" />
<glyph unicode="&#x201e;" horiz-adv-x="324" d="M147 0l17 100h91l-17 -100l-88 -121h-38l70 121h-35zM10 0l17 100h91l-16 -100l-88 -121h-38l70 121h-36z" />
<glyph unicode="&#x2022;" horiz-adv-x="667" d="M210 338q0 58 41 98.5t100 40.5q55 0 95.5 -41t40.5 -97q0 -58 -40.5 -98.5t-97.5 -40.5t-98 40.5t-41 97.5z" />
<glyph unicode="&#x2026;" horiz-adv-x="716" d="M506 0l18 106h96l-17 -106h-97zM268 0l17 106h97l-18 -106h-96zM29 0l18 106h96l-17 -106h-97z" />
<glyph unicode="&#x202f;" horiz-adv-x="176" />
<glyph unicode="&#x2039;" horiz-adv-x="221" d="M104 103l-62 144l100 151h48l-65 -151l22 -144h-43z" />
<glyph unicode="&#x203a;" horiz-adv-x="221" d="M31 103l65 151l-22 144h43l62 -144l-100 -151h-48z" />
<glyph unicode="&#x205f;" horiz-adv-x="220" />
<glyph unicode="&#x20ac;" horiz-adv-x="604" d="M141 110q-18 57 -18 143h-74l32 60h45q2 20 5 40h-71l31 60h51q31 125 101.5 196.5t163.5 71.5q100 0 148 -75q29 -46 29 -140l-75 -18q0 73 -17 111q-11 25 -36.5 40.5t-55.5 15.5q-116 0 -172 -202h231l-32 -60h-212l-5 -40h195l-32 -60h-166q0 -201 119 -201 q53 0 89 38.5t61 121.5l68 -28q-22 -96 -79.5 -147t-142.5 -51q-140 0 -181 124z" />
<glyph unicode="&#x2122;" horiz-adv-x="716" d="M328 267v380h91l83 -306l84 306h89v-380h-58v322l-90 -322h-56l-88 322v-322h-55zM147 267v331h-88v49h240v-49h-89v-331h-63z" />
</font>
</defs>
</svg>
