<?xml version="1.0" standalone="no"?>
<!DOCTYPE svg PUBLIC "-//W3C//DTD SVG 1.1//EN" "http://www.w3.org/Graphics/SVG/1.1/DTD/svg11.dtd" >
<svg xmlns="http://www.w3.org/2000/svg">
<metadata>
This is a custom SVG webfont generated by Fontspring.
Designer    : FontSite.com
Foundry URL : http://www.fontsite.com
</metadata>
<defs>
<font id="webfont" horiz-adv-x="587" >
<font-face units-per-em="1000" ascent="827" descent="-173" />
<missing-glyph horiz-adv-x="250" />
<glyph unicode=" "  horiz-adv-x="250" />
<glyph unicode="&#x09;" horiz-adv-x="250" />
<glyph unicode="&#xa0;" horiz-adv-x="250" />
<glyph unicode="!" horiz-adv-x="267" d="M103 171l44 496h110l-112 -496h-42zM42 0l16 95h101l-16 -95h-101z" />
<glyph unicode="&#x22;" horiz-adv-x="309" d="M225 412l28 255h75l-57 -255h-46zM94 412l28 255h75l-57 -255h-46z" />
<glyph unicode="#" d="M102 0l47 212h-107l13 60h107l31 139h-107l13 60h107l43 196h64l-43 -196h140l43 196h64l-44 -196h104l-13 -60h-103l-30 -139h102l-13 -60h-103l-47 -212h-63l47 212h-142l-47 -212h-63zM226 272h140l31 139h-141z" />
<glyph unicode="$" d="M36 162l66 34q19 -47 52 -78.5t73 -39.5l39 236q-59 16 -93 36q-71 43 -71 126q0 48 25 89.5t69 66.5q48 28 128 29l15 88h59l-15 -92q56 -8 99.5 -40t65.5 -81l-67 -33q-34 75 -108 92l-37 -219q56 -15 95 -34q89 -46 89 -142q0 -52 -27.5 -95.5t-75.5 -69.5 q-55 -30 -143 -31l-17 -97h-59l18 105q-128 26 -180 150zM279 389l35 213q-63 -2 -100.5 -32.5t-37.5 -79.5q0 -76 103 -101zM285 70q6 -1 14 -1q61 0 102.5 35t41.5 87q0 43 -27.5 68t-92.5 41z" />
<glyph unicode="%" horiz-adv-x="773" d="M214 332q-59 0 -98.5 43.5t-39.5 109.5q0 82 49 138.5t119 56.5q62 0 101 -44t39 -113q0 -77 -51 -134t-119 -57zM108 0l521 667h62l-519 -667h-64zM220 381q40 0 64 31q39 49 39 121q0 46 -21.5 72t-60.5 26q-46 0 -71 -38q-33 -49 -33 -117q0 -42 23 -68.5t60 -26.5z M416 147q0 76 50.5 134t116.5 58q63 0 102.5 -44.5t39.5 -116.5q0 -76 -49 -132.5t-114 -56.5q-64 0 -105 44.5t-41 113.5zM479 137q0 -46 21.5 -72.5t58.5 -26.5q47 0 75.5 42.5t28.5 111.5q0 55 -26 77q-24 21 -55 21q-44 0 -73.5 -43.5t-29.5 -109.5z" />
<glyph unicode="&#x26;" horiz-adv-x="667" d="M31 178q0 57 30.5 104t86.5 75q45 22 96 39q-48 90 -48 149q0 60 45.5 100.5t113.5 40.5t112.5 -40t44.5 -101q0 -86 -83 -136q-34 -20 -94 -46l106 -217q89 89 139 217l59 -23q-27 -68 -72 -135.5t-95 -115.5q28 -44 64 -44q19 0 60 8l-9 -62q-39 -9 -62 -9 q-42 0 -69 21q-11 9 -38 41q-59 -38 -93.5 -50.5t-79.5 -12.5q-90 0 -152 57t-62 140zM315 414l19 9q110 48 110 123q0 35 -25 58.5t-63 23.5q-39 0 -64 -25t-25 -65t48 -124zM114 180q0 -58 40.5 -97.5t99.5 -39.5q63 0 132 56l-118 246q-82 -32 -118 -70t-36 -95z" />
<glyph unicode="'" horiz-adv-x="178" d="M94 412l28 255h75l-57 -255h-46z" />
<glyph unicode="(" horiz-adv-x="293" d="M39 156q0 278 230 511h56q-106 -119 -162.5 -258t-56.5 -281q0 -155 70 -295h-46q-91 139 -91 323z" />
<glyph unicode=")" horiz-adv-x="293" d="M25 -167h-56q106 118 162.5 257t56.5 282q0 155 -70 295h46q91 -139 91 -323q0 -279 -230 -511z" />
<glyph unicode="*" d="M204 279l-41 34l126 135l-155 50l27 55l152 -57l25 171h57l-32 -170l171 56l8 -55l-171 -49l80 -136l-52 -34l-74 140z" />
<glyph unicode="+" d="M271 95v205h-197v68h197v205h73v-205h197v-68h-197v-205h-73z" />
<glyph unicode="," horiz-adv-x="250" d="M29 0l18 112h110l-18 -112l-112 -149h-39l91 149h-50z" />
<glyph unicode="-" horiz-adv-x="250" d="M10 220l9 57h222l-9 -57h-222z" />
<glyph unicode="." horiz-adv-x="250" d="M29 0l19 112h110l-19 -112h-110z" />
<glyph unicode="/" horiz-adv-x="469" d="M-57 -167h-64l562 834h65z" />
<glyph unicode="0" d="M273 -21q-101 0 -161.5 79.5t-60.5 213.5q0 133 57 244q87 172 234 172q101 0 162.5 -80t61.5 -212q0 -127 -51 -232q-46 -95 -116 -146q-56 -39 -126 -39zM277 40q89 0 140 98q64 122 64 275q0 108 -36 160q-17 24 -46.5 38.5t-60.5 14.5q-102 0 -156 -133 q-49 -117 -49 -242q0 -102 37 -156.5t107 -54.5z" />
<glyph unicode="1" d="M52 0l11 65h194l87 512q-20 -32 -79 -56.5t-119 -25.5l11 66q84 13 138 42t88 80h57l-104 -618h204l-11 -65h-477z" />
<glyph unicode="2" d="M16 0l14 82q168 103 281 187q92 68 127.5 115t35.5 101q0 57 -42 96t-104 39q-40 0 -75 -17.5t-56 -47.5q-17 -24 -44 -89l-67 25q68 196 242 196q97 0 163 -60t66 -147q0 -76 -48 -135.5t-175 -142.5q-95 -63 -217 -131h385l-12 -71h-474z" />
<glyph unicode="3" d="M25 150l66 26q19 -43 41 -68q54 -59 139 -59q70 0 116.5 40.5t46.5 100.5q0 50 -30 82t-84 40q-28 4 -114 4l11 66q41 -1 65 -1q68 0 108 15q33 12 54.5 43t21.5 67q0 50 -38 83t-95 33q-102 0 -157 -106l-62 33q74 134 221 134q91 0 151 -50.5t60 -126.5q0 -62 -39 -103 t-114 -57q44 -13 69 -37q53 -48 53 -123q0 -86 -69.5 -144.5t-170.5 -58.5q-90 0 -156 44t-94 123z" />
<glyph unicode="4" d="M27 161l11 67l378 457h97l-77 -458h109l-11 -66h-109l-27 -161h-79l27 161h-319zM110 227h247l63 376z" />
<glyph unicode="5" d="M37 140l64 29q24 -43 46 -65q51 -51 127 -51t126.5 51t50.5 128q0 68 -43 112t-109 44q-88 0 -145 -91l-70 21l79 349h392l-23 -71h-317l-49 -219q33 40 66.5 57t80.5 17q91 0 154 -62.5t63 -154.5q0 -107 -78 -180q-69 -66 -178 -66q-82 0 -144 39.5t-93 112.5z" />
<glyph unicode="6" d="M59 264q0 120 51 231q41 91 107 140t148 49q164 0 217 -151l-73 -19q-45 104 -142 104q-106 0 -170 -122q-34 -67 -56 -176q69 121 192 121q91 0 152.5 -62t61.5 -153q0 -102 -70 -171.5t-172 -69.5q-111 0 -178.5 76.5t-67.5 202.5zM150 205q0 -65 44 -109t108 -44 q68 0 117 50t49 119q0 65 -42 109t-104 44q-71 0 -121.5 -49.5t-50.5 -119.5z" />
<glyph unicode="7" d="M163 -8q14 172 97.5 326t227.5 276h-377l22 73h456l-9 -55q-166 -160 -238.5 -296.5t-89.5 -323.5h-89z" />
<glyph unicode="8" d="M36 167q0 68 41 110t132 69q-103 57 -103 150q0 82 63.5 133.5t163.5 51.5q95 0 155 -44.5t60 -114.5q0 -119 -147 -165q43 -21 64 -36q31 -22 49.5 -58t18.5 -74q0 -88 -71.5 -145t-181.5 -57q-109 0 -176.5 50t-67.5 130zM320 385q83 28 117.5 57t34.5 70 q0 49 -39 78.5t-103 29.5q-65 0 -105 -31t-40 -81q0 -77 135 -123zM115 171q0 -56 45 -88.5t122 -32.5q76 0 123 34.5t47 90.5q0 62 -66 99q-20 11 -94 41q-65 -16 -116 -47q-61 -36 -61 -97z" />
<glyph unicode="9" d="M35 114l66 31q46 -98 146 -98q124 0 184 148q24 60 40 155q-65 -119 -189 -119q-88 0 -148.5 62t-60.5 153q0 101 70.5 169t173.5 68q109 0 172.5 -75t63.5 -203q0 -146 -66 -262q-89 -158 -245 -158q-150 0 -207 129zM296 297q68 0 119 50.5t51 117.5q0 66 -42 110.5 t-105 44.5q-70 0 -119 -49t-49 -120q0 -65 42 -109.5t103 -44.5z" />
<glyph unicode=":" horiz-adv-x="250" d="M91 373l19 112h110l-19 -112h-110zM29 0l19 112h110l-19 -112h-110z" />
<glyph unicode=";" horiz-adv-x="250" d="M91 373l19 112h110l-19 -112h-110zM29 0l18 112h110l-18 -112l-113 -149h-38l91 149h-50z" />
<glyph unicode="&#x3c;" d="M92 298v65l433 203v-74l-353 -162l353 -161v-75z" />
<glyph unicode="=" d="M76 387v67h467v-67h-467zM76 229v67h467v-67h-467z" />
<glyph unicode="&#x3e;" d="M92 94v75l353 161l-353 162v74l433 -203v-65z" />
<glyph unicode="?" horiz-adv-x="498" d="M173 171q4 39 7 60t11 43t16 32.5t27.5 25t40 24.5t58.5 27q42 19 65 51t23 72q0 49 -36 81.5t-92 32.5q-77 0 -122 -61q-19 -27 -38 -73l-68 28q71 172 229 172q90 0 149 -51.5t59 -130.5q0 -80 -55 -132q-37 -34 -127 -69q-45 -18 -58 -40.5t-20 -91.5h-69zM130 0 l16 96h100l-16 -96h-100z" />
<glyph unicode="@" horiz-adv-x="747" d="M210 -41q-74 44 -116.5 123t-42.5 171q0 150 99 250.5t247 100.5q71 0 136.5 -26.5t109.5 -72.5q74 -77 74 -196q0 -98 -50.5 -171.5t-117.5 -73.5q-66 0 -87 62q-27 -35 -51.5 -49.5t-56.5 -14.5q-64 0 -106 50t-42 126q0 85 50 143t123 58q37 0 61 -13t48 -47l9 52h61 l-37 -227q-5 -32 -5 -49q0 -31 33 -31q42 0 75.5 55t33.5 123q0 106 -76.5 175.5t-192.5 69.5q-118 0 -197.5 -83.5t-79.5 -207.5q0 -79 35.5 -145t98.5 -103q66 -40 161 -40q58 0 105 12t106 42l23 -53q-117 -59 -235 -59q-113 0 -196 49zM278 238q0 -50 23.5 -82t60.5 -32 q43 0 75.5 44.5t32.5 103.5q0 46 -24.5 75.5t-63.5 29.5q-44 0 -74 -40.5t-30 -98.5z" />
<glyph unicode="A" horiz-adv-x="564" d="M-28 0l326 667h93l116 -667h-86l-34 195h-243l-96 -195h-76zM175 262h202l-52 307z" />
<glyph unicode="B" horiz-adv-x="611" d="M42 0l112 667h208q67 0 97.5 -6t59.5 -24q65 -43 65 -128q0 -78 -57 -124q-28 -21 -73 -36q105 -37 105 -154q0 -99 -74 -156q-32 -24 -67.5 -31.5t-114.5 -7.5h-261zM187 379h126q64 0 95 6.5t54 25.5q42 35 42 95q0 34 -16.5 58t-45.5 33q-21 7 -80 7h-10l-128 -1z M134 66h145q74 0 104 5.5t52 24.5q44 36 44 109q0 61 -41 88q-21 15 -43.5 19t-83.5 4h-135z" />
<glyph unicode="C" horiz-adv-x="576" d="M166 25q-53 35 -83 102.5t-30 150.5q0 134 67 252q89 154 240 154q56 0 104.5 -23.5t79.5 -65.5q33 -45 45 -133l-73 -18q-8 65 -28 102q-19 34 -53 52.5t-75 18.5q-96 0 -150 -90q-32 -53 -51.5 -125t-19.5 -137q0 -97 42.5 -153t116.5 -56q76 0 131 69q19 24 49 88 l67 -26q-75 -198 -249 -198q-77 0 -130 36z" />
<glyph unicode="D" horiz-adv-x="648" d="M42 0l112 667h184q79 0 126.5 -18.5t87.5 -64.5q69 -81 69 -211q0 -175 -107 -288q-44 -47 -95.5 -66t-130.5 -19h-246zM135 68l134 -1h4q84 0 136 29t87 96q43 81 43 187q0 105 -49 165q-51 61 -162 60l-104 -1z" />
<glyph unicode="E" horiz-adv-x="559" d="M42 0l112 667h415l-11 -66h-334l-37 -220h286l-11 -66h-286l-41 -244h361l-12 -71h-442z" />
<glyph unicode="F" horiz-adv-x="507" d="M42 0l112 667h407l-11 -68h-326l-37 -220h281l-11 -66h-281l-53 -313h-81z" />
<glyph unicode="G" horiz-adv-x="651" d="M55 283q0 140 68 252q90 149 243 149q121 0 191 -84q34 -41 55 -106l-72 -25q-45 150 -174 150q-58 0 -105.5 -35.5t-77.5 -101.5q-43 -96 -43 -207q0 -104 47.5 -165.5t127.5 -61.5q106 0 159 107q20 41 32 113h-174l11 65h253l-57 -341h-45l-10 81q-62 -90 -176 -90 q-113 0 -183 83.5t-70 216.5z" />
<glyph unicode="H" horiz-adv-x="656" d="M42 0l112 667h81l-47 -281h327l47 281h81l-112 -667h-81l53 315h-327l-53 -315h-81z" />
<glyph unicode="I" horiz-adv-x="248" d="M42 0l112 667h81l-112 -667h-81z" />
<glyph unicode="J" horiz-adv-x="369" d="M-41 0l11 68q39 -7 74 -7q62 0 103 29q23 17 35.5 47t23.5 97l72 433h85l-69 -412q-17 -97 -33 -139t-50 -73q-58 -53 -152 -53q-45 0 -100 10z" />
<glyph unicode="K" horiz-adv-x="623" d="M42 0l112 667h81l-64 -380l367 380h93l-226 -233l158 -434h-85l-135 376l-189 -194l-31 -182h-81z" />
<glyph unicode="L" horiz-adv-x="509" d="M42 0l112 667h81l-100 -596h331l-12 -71h-412z" />
<glyph unicode="M" horiz-adv-x="815" d="M42 0l112 667h123l109 -547l285 547h131l-111 -667h-82l103 612l-320 -612h-62l-119 602l-101 -602h-68z" />
<glyph unicode="N" horiz-adv-x="655" d="M42 0l112 667h91l242 -532l89 532h66l-112 -667h-65l-262 570l-95 -570h-66z" />
<glyph unicode="O" horiz-adv-x="642" d="M55 286q0 130 63 239q89 155 247 155q115 0 184 -79.5t69 -213.5q0 -117 -50 -220q-88 -180 -260 -180q-114 0 -183.5 82t-69.5 217zM141 269q0 -99 45 -157t122 -58q69 0 120.5 49t79.5 140q25 85 25 166q0 92 -47 148t-124 56q-132 0 -190 -167q-31 -88 -31 -177z" />
<glyph unicode="P" horiz-adv-x="557" d="M42 0l112 667h182q109 0 154 -28q37 -22 60 -65.5t23 -91.5q0 -44 -20 -88t-53 -73q-60 -52 -197 -52h-135l-45 -269h-81zM180 336h91q69 0 98.5 4t51.5 15q30 16 48.5 51t18.5 75q0 36 -15.5 66t-39.5 41q-29 13 -98 13h-111z" />
<glyph unicode="Q" horiz-adv-x="639" d="M129 60q-75 81 -75 218q0 121 51 223q89 179 259 179q114 0 183 -79.5t69 -210.5q0 -141 -69 -258q-77 -128 -202 -142q-3 -20 -3 -27q0 -61 77 -61q5 0 22.5 2t46.5 4l17 1l-10 -61q-59 -10 -92 -10q-60 0 -92 28.5t-32 82.5q0 11 3 38q-97 13 -153 73zM143 257 q0 -94 44.5 -149.5t119.5 -55.5q104 0 164 104q25 42 41 111t16 130q0 103 -43 159.5t-121 56.5q-98 0 -150 -83q-33 -52 -52 -125t-19 -148z" />
<glyph unicode="R" horiz-adv-x="633" d="M42 0l112 667h208q109 0 159 -29q82 -49 82 -148q0 -70 -42 -120t-113 -63l94 -307h-86l-87 292h-197l-49 -292h-81zM183 359h153q100 0 143 35q41 34 41 98q0 110 -143 110h-153z" />
<glyph unicode="S" horiz-adv-x="572" d="M85 45q-52 40 -81 126l73 27q22 -63 51 -92q55 -53 149 -53q74 0 121.5 37.5t47.5 95.5q0 64 -57 92q-23 12 -101 30q-93 22 -139 53q-72 45 -72 136q0 83 61.5 135.5t158.5 52.5q184 0 247 -157l-70 -27q-46 121 -175 121q-63 0 -101.5 -32t-38.5 -85q0 -48 36 -73 q21 -15 36 -20.5t79 -21.5q109 -28 141 -49q78 -50 78 -146q0 -95 -69.5 -152t-184.5 -57q-114 0 -190 59z" />
<glyph unicode="T" horiz-adv-x="488" d="M162 0l100 599h-193l11 68h468l-11 -68h-193l-101 -599h-81z" />
<glyph unicode="U" horiz-adv-x="615" d="M65 172q0 25 17 126l61 369h82l-65 -387q-14 -84 -14 -103q0 -57 39 -91t104 -34q82 0 127 47q23 23 35.5 55.5t23.5 98.5l69 414h67l-67 -406q-15 -90 -34.5 -137.5t-53.5 -79.5q-64 -59 -171 -59q-103 0 -161.5 49.5t-58.5 137.5z" />
<glyph unicode="V" horiz-adv-x="529" d="M197 0l-132 667h89l104 -539l260 539h77l-325 -667h-73z" />
<glyph unicode="W" horiz-adv-x="812" d="M146 0l-65 667h82l53 -551l225 551h62l69 -551l222 551h69l-270 -667h-82l-64 532l-214 -532h-87z" />
<glyph unicode="X" horiz-adv-x="538" d="M-39 0l274 342l-156 325h91l121 -258l204 258h86l-256 -318l169 -349h-94l-132 281l-222 -281h-85z" />
<glyph unicode="Y" horiz-adv-x="512" d="M175 0l47 279l-170 388h90l138 -316l230 316h82l-286 -388l-47 -279h-84z" />
<glyph unicode="Z" horiz-adv-x="525" d="M-18 0l12 71l433 529h-334l11 67h444l-10 -55l-442 -541h376l-11 -71h-479z" />
<glyph unicode="[" horiz-adv-x="293" d="M80 -122h112l-8 -45h-181l139 834h182l-8 -45h-112z" />
<glyph unicode="\" horiz-adv-x="469" d="M397 -167l-284 834h56l283 -834h-55z" />
<glyph unicode="]" horiz-adv-x="293" d="M-21 -122h112l124 744h-112l7 45h182l-140 -834h-181z" />
<glyph unicode="^" horiz-adv-x="500" d="M40 364l176 305h99l176 -305h-81l-145 246l-144 -246h-81z" />
<glyph unicode="_" horiz-adv-x="500" d="M0 -66h500v-67h-500v67z" />
<glyph unicode="`" horiz-adv-x="500" d="M377 570l-189 92l30 59l180 -112z" />
<glyph unicode="a" horiz-adv-x="535" d="M16 134q0 53 33.5 94t94.5 61q56 19 173 19q41 0 63 -2l11 -1q5 35 5 53q0 45 -29.5 69t-84.5 24q-50 0 -83.5 -20t-58.5 -64l-73 31q59 113 209 113q88 0 143.5 -38t55.5 -97q0 -17 -38 -263q-10 -61 -10 -93q0 -9 1 -20h-77q-1 12 -1 25q0 36 9 72q-76 -111 -185 -111 q-68 0 -113 42t-45 106zM100 131q0 -38 24 -60t64 -22q89 0 152 93q28 41 42 107q-40 2 -67 2q-94 0 -143 -20q-72 -31 -72 -100z" />
<glyph unicode="b" horiz-adv-x="538" d="M35 0l112 667h76l-42 -251q63 92 153 92q77 0 122.5 -57.5t45.5 -154.5q0 -88 -39 -168q-32 -68 -83 -104.5t-113 -36.5q-52 0 -88.5 24t-65.5 77l-45 -88h-33zM146 190q0 -64 33 -104t86 -40q81 0 124 101q33 77 33 155q0 70 -26.5 107.5t-76.5 37.5q-67 0 -115 -72 q-58 -87 -58 -185z" />
<glyph unicode="c" horiz-adv-x="474" d="M36 209q0 102 48 183q70 119 190 119q75 0 126.5 -48t58.5 -126l-74 -16q-8 59 -38.5 91t-76.5 32q-76 0 -114 -79t-38 -170q0 -67 30.5 -105.5t82.5 -38.5q86 0 136 119l62 -23q-26 -78 -80 -120.5t-126 -42.5q-85 0 -136 61t-51 164z" />
<glyph unicode="d" horiz-adv-x="538" d="M198 -13q-74 0 -118.5 57t-44.5 152t45 179q70 132 191 132q100 0 144 -93l42 253h75l-112 -667h-69l18 98q-40 -62 -78 -86.5t-93 -24.5zM115 184q0 -63 28 -99.5t76 -36.5q70 0 122.5 77t52.5 181q0 59 -26 93q-37 48 -93 48q-77 0 -120 -86q-40 -83 -40 -177z" />
<glyph unicode="e" horiz-adv-x="520" d="M33 213q0 127 73 212.5t182 85.5q92 0 144.5 -57t52.5 -156q0 -26 -5 -57h-364q-3 -27 -3 -39q0 -69 36 -110.5t96 -41.5q48 0 79.5 20.5t69.5 75.5l64 -30q-42 -68 -93 -99t-121 -31q-96 0 -153.5 62t-57.5 165zM125 297h282l1 24q2 59 -32.5 95t-91.5 36 q-59 0 -102 -42t-57 -113z" />
<glyph unicode="f" horiz-adv-x="300" d="M50 0l73 435h-92l10 60h92q16 98 63.5 142.5t138.5 44.5q15 0 45 -3l-10 -61q-26 3 -36 3q-58 0 -87.5 -30t-37.5 -96h120l-10 -60h-120l-73 -435h-76z" />
<glyph unicode="g" horiz-adv-x="503" d="M-24 -71q0 74 91 107q-39 24 -39 64q0 36 24.5 61.5t78.5 47.5q-55 43 -55 115q0 77 56 126t143 49q31 0 77 -13q21 61 51 85t83 24q17 0 42 -4l-11 -64q-29 1 -41 1q-66 0 -84 -63q65 -52 65 -122q0 -77 -55.5 -128.5t-140.5 -51.5q-46 0 -95 21q-64 -30 -64 -67 q0 -20 22 -27q18 -6 113 -7q75 -2 110 -7t56 -19q53 -33 53 -95q0 -152 -237 -152q-243 0 -243 119zM258 218q53 0 87.5 32.5t34.5 83.5q0 49 -30 78.5t-79 29.5q-53 0 -86 -33t-33 -85q0 -48 29 -77t77 -29zM51 -54q0 -37 48.5 -58t136.5 -21q147 0 147 80q0 32 -29 44.5 t-106 13.5q-79 0 -134 10q-63 -20 -63 -69z" />
<glyph unicode="h" horiz-adv-x="545" d="M35 0l112 667h76l-45 -264q38 56 77 81t89 25q62 0 101.5 -37.5t39.5 -96.5q0 -28 -8 -71l-51 -304h-75l51 304q6 34 6 61q0 38 -22.5 61t-59.5 23q-78 0 -136 -103q-31 -56 -45 -143l-34 -203h-76z" />
<glyph unicode="i" horiz-adv-x="230" d="M122 576l16 91h99l-15 -91h-100zM36 0l83 495h77l-83 -495h-77z" />
<glyph unicode="j" horiz-adv-x="229" d="M121 576l15 91h100l-16 -91h-99zM40 31l78 464h76l-78 -464q-12 -72 -20.5 -98.5t-25.5 -49.5q-44 -55 -124 -55q-22 0 -67 6l10 59q36 -4 52 -4q64 0 82 56q5 18 17 86z" />
<glyph unicode="k" horiz-adv-x="490" d="M35 0l112 667h76l-71 -421l264 249h89l-190 -177l123 -318h-81l-104 267l-117 -116l-25 -151h-76z" />
<glyph unicode="l" horiz-adv-x="229" d="M35 0l112 667h76l-112 -667h-76z" />
<glyph unicode="m" horiz-adv-x="817" d="M35 0l83 495h72l-13 -82q41 53 73.5 73.5t75.5 20.5q101 0 130 -107q70 108 162 108q60 0 99 -37.5t39 -94.5q0 -34 -7 -72l-51 -304h-76l48 286q8 51 8 73q0 39 -22.5 62.5t-59.5 23.5q-51 0 -97 -61q-40 -53 -58 -162l-37 -222h-77l47 284q10 60 10 78q0 38 -21.5 61.5 t-57.5 23.5q-61 0 -107 -79q-20 -34 -27.5 -61t-25.5 -129l-32 -178h-78z" />
<glyph unicode="n" horiz-adv-x="548" d="M35 0l83 495h66l-19 -110q68 124 175 124q62 0 104 -40t42 -99q0 -25 -9 -84l-47 -286h-73l48 285q8 46 8 70q0 42 -25 67.5t-67 25.5q-75 0 -127 -83q-36 -60 -58 -188l-30 -177h-71z" />
<glyph unicode="o" horiz-adv-x="521" d="M37 214q0 122 73 207.5t176 85.5q90 0 144 -61t54 -164q0 -124 -72 -210.5t-176 -86.5q-90 0 -144.5 62.5t-54.5 166.5zM119 195q0 -70 32 -109.5t89 -39.5q73 0 113 65q50 81 50 187q0 69 -25 102q-34 47 -96 47q-73 0 -115 -67q-48 -80 -48 -185z" />
<glyph unicode="p" horiz-adv-x="536" d="M123 73l-40 -240h-76l110 660h71l-16 -101q72 112 166 112q72 0 117 -58t45 -151q0 -126 -68 -217t-162 -91q-91 0 -147 86zM144 186q0 -62 31 -99.5t83 -37.5q77 0 114 70q45 82 45 183q0 55 -19 89q-29 50 -87 50q-64 0 -115.5 -79t-51.5 -176z" />
<glyph unicode="q" horiz-adv-x="533" d="M34 191q0 127 70 220t166 93q50 0 85 -22t64 -71l44 84h34l-110 -662h-76l43 260q-64 -108 -156 -108q-73 0 -118.5 57t-45.5 149zM115 182q0 -60 28.5 -97.5t74.5 -37.5q70 0 119 85q23 39 37.5 87.5t14.5 84.5q0 64 -31.5 102.5t-83.5 38.5q-69 0 -110 -69 q-49 -84 -49 -194z" />
<glyph unicode="r" horiz-adv-x="339" d="M35 0l83 495h76l-24 -130q43 79 84.5 111.5t100.5 32.5h17l-13 -78h-21q-101 0 -158 -125q-27 -58 -50 -195l-19 -111h-76z" />
<glyph unicode="s" horiz-adv-x="461" d="M-4 122l71 24q36 -98 149 -98q52 0 83.5 23.5t31.5 61.5q0 35 -27 54q-21 13 -70 24l-26 6q-77 18 -111 43q-48 35 -48 96q0 66 50 107.5t129 41.5q146 0 191 -116l-64 -27q-32 83 -129 83q-43 0 -71 -21.5t-28 -55.5q0 -41 37 -56q20 -9 66 -19l30 -7q72 -17 100 -39 q47 -38 47 -101q0 -70 -54 -114.5t-140 -44.5q-162 0 -217 135z" />
<glyph unicode="t" horiz-adv-x="307" d="M60 98q0 30 12 103l39 234h-75l10 60h77l20 120l75 6l-21 -126h112l-10 -60h-112l-45 -268q-7 -44 -7 -61q0 -26 16.5 -40.5t45.5 -14.5q32 0 52 3l15 2l-8 -61l-14 -1l-26 -3q-22 -2 -32 -2q-124 0 -124 109z" />
<glyph unicode="u" horiz-adv-x="543" d="M61 126q0 31 10 92l48 277h76l-50 -301q-9 -54 -9 -64q0 -36 22 -58t59 -22q72 0 129 89q41 63 58 166l32 190h71l-83 -495h-67l20 120q-37 -70 -79.5 -101.5t-99.5 -31.5q-61 0 -99 38.5t-38 100.5z" />
<glyph unicode="v" horiz-adv-x="444" d="M148 0l-101 495h82l75 -388l195 388h68l-248 -495h-71z" />
<glyph unicode="w" horiz-adv-x="674" d="M130 0l-76 495h75l55 -372l156 372h63l59 -372l163 372h65l-221 -495h-57l-62 377l-158 -377h-62z" />
<glyph unicode="x" horiz-adv-x="436" d="M-31 0l205 257l-124 238h87l90 -177l137 177h74l-181 -230l139 -265h-86l-103 204l-161 -204h-77z" />
<glyph unicode="y" horiz-adv-x="425" d="M6 -109q79 0 121 88l16 34l-103 482h78l80 -376l195 376h66l-271 -522q-39 -75 -72 -105q-46 -42 -115 -42q-15 0 -49 3l11 67q25 -5 43 -5z" />
<glyph unicode="z" horiz-adv-x="419" d="M-18 0l9 52l326 380h-253l10 63h356l-9 -51l-330 -382h277l-10 -62h-376z" />
<glyph unicode="{" horiz-adv-x="293" d="M69 -24l27 160q3 15 3 33q0 45 -45 58l8 48q33 9 49 28.5t23 59.5l29 173q11 69 49 100t110 31h21l-8 -52q-54 -1 -76.5 -19t-30.5 -68l-28 -169q-8 -48 -25 -71t-55 -39q46 -25 46 -75q0 -19 -3 -37l-27 -162q-5 -28 -5 -41q0 -32 32 -43q17 -6 49 -6l-8 -52h-21 q-62 0 -90.5 22t-28.5 71q0 19 5 50z" />
<glyph unicode="|" horiz-adv-x="500" d="M228 -167v834h75v-834h-75z" />
<glyph unicode="}" horiz-adv-x="293" d="M66 -28l28 169q8 48 25.5 71.5t54.5 38.5q-46 25 -46 75q0 16 3 37l28 162q4 28 4 41q0 32 -32 43q-17 6 -49 6l8 52h21q62 0 90.5 -22t28.5 -71q0 -22 -5 -50l-27 -160q-3 -18 -3 -32q0 -46 45 -59l-8 -48q-33 -9 -49 -28.5t-23 -59.5l-29 -173q-11 -69 -49 -100 t-110 -31h-21l9 52q53 1 75.5 19t30.5 68z" />
<glyph unicode="~" d="M107 256q-14 0 -39 30q29 62 61 89t76 27q41 0 112 -34q66 -31 97 -31q26 0 50.5 16.5t33.5 39.5q5 12 11 12q14 0 40 -28q-28 -53 -56 -80q-35 -33 -82 -33q-41 0 -124 40q-55 26 -89 26q-23 0 -47 -18.5t-33 -43.5q-4 -12 -11 -12z" />
<glyph unicode="&#xa1;" horiz-adv-x="267" d="M110 405l16 95h100l-16 -95h-100zM11 -167l113 496h42l-45 -496h-110z" />
<glyph unicode="&#xa2;" d="M226 -50l27 162q-61 15 -94.5 64.5t-33.5 123.5q0 101 57.5 171.5t142.5 71.5l22 130h51l-23 -136q92 -20 122 -131l-56 -18q-28 85 -75 95l-54 -322q64 2 106 93l51 -23q-53 -125 -166 -125l-26 -156h-51zM262 168l53 318q-52 -6 -85 -60.5t-33 -135.5q0 -99 65 -122z " />
<glyph unicode="&#xa3;" d="M-29 0l12 71q82 -1 122 18.5t74 75.5q19 33 21 152h-106l9 56h98q2 78 8 112.5t25 71.5q27 53 75 84t102 31q48 0 81.5 -19.5t63.5 -65.5l-60 -41q-31 61 -87 61q-66 0 -101 -61q-16 -29 -19 -78q-1 -7 -2 -77q0 -8 -1 -18h141l-9 -56h-133q-2 -95 -28.5 -151.5 t-86.5 -94.5h82h58q61 0 84.5 3.5t45.5 15.5q24 13 55 57l55 -41q-37 -55 -73 -77q-29 -18 -60 -23.5t-106 -5.5h-340z" />
<glyph unicode="&#xa4;" horiz-adv-x="667" d="M114 80l-44 45l95 95q-50 71 -50 143q0 68 49 140l-96 96l45 45l96 -96q44 30 74.5 40.5t69.5 10.5t69 -10.5t73 -39.5l96 95l45 -45l-96 -95q29 -45 39.5 -74.5t10.5 -67.5t-10.5 -68t-38.5 -73l96 -96l-44 -45l-96 96q-73 -50 -143 -50q-37 0 -68 10.5t-76 38.5z M352 193q70 0 119.5 49.5t49.5 119.5t-49 120t-117 50q-72 0 -121.5 -49.5t-49.5 -120.5q0 -70 49.5 -119.5t118.5 -49.5z" />
<glyph unicode="&#xa5;" horiz-adv-x="586" d="M214 0l37 217h-189l8 50h189l2 12l-34 84h-140l8 50h112l-103 254h85l127 -316l219 316h77l-178 -254h122l-8 -50h-150l-59 -84l-2 -12h195l-9 -50h-194l-37 -217h-78z" />
<glyph unicode="&#xa6;" horiz-adv-x="500" d="M228 333v334h75v-334h-75zM228 153h75v-320h-75v320z" />
<glyph unicode="&#xa7;" d="M17 -35l85 13q47 -90 158 -90q60 0 98.5 29t38.5 75q0 26 -12 43t-43 33q-29 15 -137 50q-118 38 -118 134q0 46 27.5 81.5t89.5 68.5q-59 44 -59 113q0 73 53 119t139 46q96 0 153 -46q36 -28 55 -83l-78 -9q-31 78 -125 78q-53 0 -85 -24.5t-32 -65.5q0 -37 26.5 -56.5 t125.5 -56.5q75 -28 100 -59q31 -36 31 -85q0 -41 -22.5 -71t-81.5 -69q27 -17 35 -23.5t17 -19.5q25 -41 25 -84q0 -83 -62 -134.5t-162 -51.5q-86 0 -150.5 39t-89.5 106zM169 272q0 -31 23 -50.5t88 -42.5l62 -22q88 38 88 97q0 39 -34 64q-21 16 -96 41q-25 9 -37 14 q-94 -46 -94 -101z" />
<glyph unicode="&#xa8;" horiz-adv-x="500" d="M391 587q-20 0 -35 15t-15 36t15 35.5t36 14.5q20 0 35 -15t15 -35q0 -21 -15 -36t-36 -15zM236 587q-21 0 -35.5 15t-14.5 35q0 21 14.5 35.5t35.5 14.5q20 0 35 -15t15 -35t-15 -35t-35 -15z" />
<glyph unicode="&#xa9;" horiz-adv-x="773" d="M56 336q0 142 102 242t248 100q139 0 239 -102t100 -242q0 -143 -100.5 -244t-243.5 -101q-144 0 -244.5 101t-100.5 246zM105 336q0 -124 86 -211t210 -87q122 0 208.5 87t86.5 209q0 120 -86.5 207.5t-204.5 87.5q-135 0 -224 -98q-76 -84 -76 -195zM229 303 q0 101 56.5 171t138.5 70q43 0 78.5 -20t51.5 -54q12 -22 18 -63l-56 -13q-7 54 -29.5 79t-64.5 25q-55 0 -87 -52q-42 -69 -42 -151q0 -56 25.5 -89t69.5 -33q35 0 59 21t48 74l51 -19q-45 -122 -160 -122q-71 0 -114 48t-43 128z" />
<glyph unicode="&#xaa;" horiz-adv-x="352" d="M167 364q-45 0 -74.5 26t-29.5 65q0 52 49 80q47 26 141 26q21 0 42 -2q3 18 3 26q0 53 -67 53q-31 0 -49.5 -11t-35.5 -40l-54 22q39 71 136 71q58 0 93.5 -23.5t35.5 -62.5q0 -14 -22 -152q-6 -38 -6 -53q0 -5 1 -17h-58q-1 6 -1 21q0 10 1 20l-8 -8q-41 -41 -97 -41z M176 408q40 0 71 30.5t42 80.5q-19 2 -37 2q-126 0 -126 -67q0 -21 13.5 -33.5t36.5 -12.5z" />
<glyph unicode="&#xab;" horiz-adv-x="337" d="M230 105l-65 137l99 141h47l-73 -141l29 -137h-37zM108 105l-69 137l99 141h43l-70 -141l33 -137h-36z" />
<glyph unicode="&#xac;" d="M143 199l-51 49v18h433v-266h-75v199h-307z" />
<glyph unicode="&#xad;" horiz-adv-x="250" d="M10 220l9 57h222l-9 -57h-222z" />
<glyph unicode="&#xae;" horiz-adv-x="773" d="M56 336q0 142 102 242t248 100q139 0 239 -102t100 -242q0 -143 -100.5 -244t-243.5 -101q-144 0 -244.5 101t-100.5 246zM105 336q0 -124 86 -211t210 -87q122 0 208.5 87t86.5 209q0 120 -86.5 207.5t-204.5 87.5q-135 0 -224 -98q-76 -84 -76 -195zM223 133l67 400 h134q69 0 100 -17q55 -30 55 -91q0 -40 -26 -70.5t-68 -38.5l60 -183h-64l-56 173h-112l-29 -173h-61zM320 352h90q55 0 81 18t26 56q0 62 -84 62h-90z" />
<glyph unicode="&#xaf;" horiz-adv-x="500" d="M161 604l9 53h300l-9 -53h-300z" />
<glyph unicode="&#xb0;" d="M341 416q-53 0 -91.5 39t-38.5 93q0 55 39 93.5t94 38.5t93.5 -38.5t38.5 -93.5t-39.5 -93.5t-95.5 -38.5zM342 473q32 0 54.5 22t22.5 54q0 31 -22.5 53t-53.5 22t-53 -22.5t-22 -53.5t21.5 -53t52.5 -22z" />
<glyph unicode="&#xb1;" d="M258 95v205h-197v68h197v205h73v-205h197v-68h-197v-205h-73zM61 -33v68h467v-68h-467z" />
<glyph unicode="&#xb2;" horiz-adv-x="387" d="M47 266l9 54q159 94 216 143t57 92q0 33 -25.5 55.5t-63.5 22.5q-51 0 -77 -37q-12 -16 -28 -55l-47 17q42 122 153 122q61 0 103.5 -36.5t42.5 -89.5q0 -56 -54.5 -106t-207.5 -133h230l-8 -49h-300z" />
<glyph unicode="&#xb3;" horiz-adv-x="387" d="M211 257q-58 0 -99.5 27t-60.5 77l48 17q35 -76 110 -76q41 0 68.5 22.5t27.5 56.5q0 29 -18 47.5t-51 22.5q-12 2 -73 2l8 46q29 -1 42 -1q44 0 67 8q19 7 31.5 24t12.5 37q0 28 -23.5 47t-57.5 19q-61 0 -95 -63l-44 23q47 83 141 83q58 0 96.5 -31t38.5 -77 q0 -67 -84 -94q30 -10 48.5 -36t18.5 -58q0 -52 -44 -87.5t-108 -35.5z" />
<glyph unicode="&#xb4;" horiz-adv-x="500" d="M265 570l-21 39l187 112l30 -59z" />
<glyph unicode="&#xb5;" d="M142 68l-39 -235h-76l111 662h76l-47 -277q-6 -38 -6 -62q0 -44 27.5 -73t69.5 -29q68 0 111 57q29 39 41 113l45 271h76l-83 -495h-69l14 82q-34 -53 -65 -74t-76 -21q-42 0 -67 18.5t-43 62.5z" />
<glyph unicode="&#xb6;" d="M249 -167l87 521h-53q-95 0 -129 21q-54 32 -54 116q0 93 64 140q28 21 64.5 28.5t108.5 7.5h263l-8 -47h-66l-132 -787h-49l132 787h-48l-132 -787h-48zM295 401h49l36 219h-34q-62 0 -90 -7.5t-47 -29.5q-28 -35 -28 -91q0 -49 26.5 -70t87.5 -21z" />
<glyph unicode="&#xb7;" horiz-adv-x="129" d="M0 191l19 112h110l-19 -112h-110z" />
<glyph unicode="&#xb8;" horiz-adv-x="500" d="M163 -81l35 81h37l-20 -48q7 1 17 1q32 0 53 -17.5t21 -43.5q0 -35 -29 -56t-76 -21q-45 0 -85 22l15 32q37 -17 67 -17q25 0 40.5 10.5t15.5 27.5q0 32 -58 32q-9 0 -33 -3z" />
<glyph unicode="&#xb9;" horiz-adv-x="387" d="M83 266l7 45h108l48 289q-17 -18 -51.5 -30t-69.5 -12l8 46q101 13 141 72h40l-61 -365h113l-7 -45h-276z" />
<glyph unicode="&#xba;" horiz-adv-x="343" d="M205 366q-58 0 -93.5 38.5t-35.5 100.5q0 73 46 124t113 51q57 0 92.5 -37.5t35.5 -98.5q0 -75 -45.5 -126.5t-112.5 -51.5zM208 409q41 0 67.5 40.5t26.5 104.5q0 40 -18.5 62t-52.5 22q-41 0 -67.5 -40.5t-26.5 -102.5q0 -41 18.5 -63.5t52.5 -22.5z" />
<glyph unicode="&#xbb;" horiz-adv-x="337" d="M156 105l69 141l-32 137h36l68 -137l-99 -141h-42zM25 105l73 141l-28 137h36l66 -137l-100 -141h-47z" />
<glyph unicode="&#xbc;" horiz-adv-x="880" d="M64 266l7 45h108l48 289q-17 -18 -51.5 -30t-69.5 -12l8 46q101 13 141 72h40l-61 -365h113l-7 -45h-276zM166 0l514 667h63l-514 -667h-63zM521 95l8 43l233 273h65l-45 -271h68l-7 -45h-68l-16 -95h-56l16 95h-198zM583 140h144l35 208z" />
<glyph unicode="&#xbd;" horiz-adv-x="880" d="M64 266l7 45h108l48 289q-17 -18 -51.5 -30t-69.5 -12l8 46q101 13 141 72h40l-61 -365h113l-7 -45h-276zM166 0l514 667h63l-514 -667h-63zM515 0l9 54q161 95 217 143t56 92q0 32 -25.5 54.5t-62.5 22.5q-52 0 -78 -37q-12 -17 -28 -55l-47 17q42 121 154 121 q62 0 104 -36.5t42 -89.5q0 -45 -30 -81t-109 -85q-68 -42 -123 -71h229l-8 -49h-300z" />
<glyph unicode="&#xbe;" horiz-adv-x="880" d="M192 257q-58 0 -99.5 27t-60.5 77l48 17q35 -76 110 -76q41 0 68.5 22.5t27.5 56.5q0 29 -18 47.5t-51 22.5q-12 2 -73 2l8 46q29 -1 42 -1q44 0 67 8q19 7 31.5 24t12.5 37q0 28 -23.5 47t-57.5 19q-61 0 -95 -63l-44 23q47 83 141 83q58 0 96.5 -31t38.5 -77 q0 -67 -84 -94q30 -10 48.5 -36t18.5 -58q0 -52 -44 -87.5t-108 -35.5zM186 0l513 667h64l-514 -667h-63zM521 95l7 43l234 273h65l-45 -271h68l-8 -45h-68l-16 -95h-55l16 95h-198zM583 140h144l34 208z" />
<glyph unicode="&#xbf;" horiz-adv-x="497" d="M253 404l16 96h100l-16 -96h-100zM-2 -4q0 80 55 132q35 32 127 69q44 17 57.5 40.5t19.5 91.5h69q-8 -75 -19.5 -106.5t-38.5 -52t-101 -53.5q-87 -39 -87 -123q0 -49 36 -81.5t91 -32.5q76 0 121 61q19 27 38 73l68 -28q-69 -172 -229 -172q-89 0 -148 51.5t-59 130.5z " />
<glyph unicode="&#xc0;" horiz-adv-x="564" d="M375 730l-189 86l30 58l180 -105zM-28 0l326 667h93l116 -667h-86l-34 195h-243l-96 -195h-76zM175 262h202l-52 307z" />
<glyph unicode="&#xc1;" horiz-adv-x="564" d="M330 730l-21 39l187 105l30 -58zM-28 0l326 667h93l116 -667h-86l-34 195h-243l-96 -195h-76zM175 262h202l-52 307z" />
<glyph unicode="&#xc2;" horiz-adv-x="564" d="M198 743l180 120l137 -120l-71 -10l-78 60l-98 -60zM-28 0l326 667h93l116 -667h-86l-34 195h-243l-96 -195h-76zM175 262h202l-52 307z" />
<glyph unicode="&#xc3;" horiz-adv-x="564" d="M238 749l-40 29q42 62 108 62q17 0 27.5 -3t56.5 -23q21 -9 44 -9q30 0 57 26l37 -36q-28 -28 -48.5 -38.5t-48.5 -10.5q-18 0 -28.5 3.5t-55.5 23.5q-21 9 -44 9q-36 0 -65 -33zM-28 0l326 667h93l116 -667h-86l-34 195h-243l-96 -195h-76zM175 262h202l-52 307z" />
<glyph unicode="&#xc4;" horiz-adv-x="564" d="M438 743q-20 0 -35 15t-15 36t15 35.5t36 14.5q20 0 35 -15t15 -35q0 -21 -15 -36t-36 -15zM283 743q-21 0 -35.5 15t-14.5 35q0 21 14.5 35.5t35.5 14.5q20 0 35 -15t15 -35t-15 -35t-35 -15zM-28 0l326 667h93l116 -667h-86l-34 195h-243l-96 -195h-76zM175 262h202 l-52 307z" />
<glyph unicode="&#xc5;" horiz-adv-x="564" d="M361 711q-37 0 -63 26t-26 62q0 37 26 62.5t64 25.5q35 0 60.5 -26t25.5 -63q0 -36 -25.5 -61.5t-61.5 -25.5zM361 754q18 0 30.5 13t12.5 31q0 19 -12.5 32t-30.5 13q-19 0 -32 -13t-13 -31q0 -19 13 -32t32 -13zM-28 0l326 667h93l116 -667h-86l-34 195h-243l-96 -195 h-76zM175 262h202l-52 307z" />
<glyph unicode="&#xc6;" horiz-adv-x="874" d="M29 0h-84l499 667h441l-11 -66h-337l-37 -220h288l-11 -65h-288l-41 -245h363l-12 -71h-444l39 230h-194zM245 293h159l47 281z" />
<glyph unicode="&#xc7;" horiz-adv-x="576" d="M188 -142q42 -19 73 -19q28 0 44.5 11t16.5 30q0 35 -63 35q-10 0 -37 -3l35 79q-94 13 -149 90.5t-55 196.5q0 135 67 251q89 155 240 155q56 0 104.5 -23.5t79.5 -65.5q33 -45 45 -133l-73 -19q-8 66 -28 103q-19 34 -53 52.5t-75 18.5q-96 0 -150 -90 q-32 -53 -51.5 -125t-19.5 -137q0 -97 42.5 -153t116.5 -56q76 0 131 69q19 24 49 88l67 -26q-34 -96 -98.5 -147.5t-151.5 -51.5l-17 -40l20 1q34 1 57 -18t23 -48q0 -38 -31.5 -61t-83.5 -23q-47 0 -92 24z" />
<glyph unicode="&#xc8;" horiz-adv-x="559" d="M418 730l-189 86l30 58l180 -105zM42 0l112 667h415l-11 -66h-334l-37 -220h286l-11 -66h-286l-41 -244h361l-12 -71h-442z" />
<glyph unicode="&#xc9;" horiz-adv-x="559" d="M340 730l-21 39l187 105l30 -58zM42 0l112 667h415l-11 -66h-334l-37 -220h286l-11 -66h-286l-41 -244h361l-12 -71h-442z" />
<glyph unicode="&#xca;" horiz-adv-x="559" d="M227 743l180 120l137 -120l-71 -10l-78 60l-98 -60zM42 0l112 667h415l-11 -66h-334l-37 -220h286l-11 -66h-286l-41 -244h361l-12 -71h-442z" />
<glyph unicode="&#xcb;" horiz-adv-x="559" d="M462 743q-20 0 -35 15t-15 36t15 35.5t36 14.5q20 0 35 -15t15 -35q0 -21 -15 -36t-36 -15zM306 743q-21 0 -35.5 15t-14.5 35q0 21 14.5 35.5t35.5 14.5q20 0 35 -15t15 -35t-15 -35t-35 -15zM42 0l112 667h415l-11 -66h-334l-37 -220h286l-11 -66h-286l-41 -244h361 l-12 -71h-442z" />
<glyph unicode="&#xcc;" horiz-adv-x="248" d="M227 730l-169 86l32 58l158 -105zM42 0l112 667h81l-112 -667h-81z" />
<glyph unicode="&#xcd;" horiz-adv-x="248" d="M194 730l-21 39l166 105l31 -56zM42 0l112 667h81l-112 -667h-81z" />
<glyph unicode="&#xce;" horiz-adv-x="248" d="M134 733l-63 10l153 120l111 -120l-64 -10l-59 60zM42 0l112 667h81l-112 -667h-81z" />
<glyph unicode="&#xcf;" horiz-adv-x="248" d="M276 743q-20 0 -35 15t-15 36t15 35.5t36 14.5q20 0 35 -15t15 -35q0 -21 -15 -36t-36 -15zM144 743q-21 0 -35.5 15t-14.5 35q0 21 14.5 35.5t35.5 14.5q20 0 35 -15t15 -35t-15 -35t-35 -15zM42 0l112 667h81l-112 -667h-81z" />
<glyph unicode="&#xd0;" horiz-adv-x="648" d="M42 0l52 321h-67l10 60h66l46 286h185q79 0 126.5 -18.5t87.5 -64.5q71 -81 71 -215q0 -175 -105 -285q-43 -46 -94 -65t-131 -19h-247zM135 68l134 -1h4q85 0 136.5 28.5t86.5 96.5q41 82 41 183q0 108 -50 169q-51 61 -163 60l-104 -1l-35 -222h159l-10 -60h-159z" />
<glyph unicode="&#xd1;" horiz-adv-x="655" d="M305 749l-40 29q42 62 108 62q17 0 27 -3t57 -23q21 -9 44 -9q30 0 57 26l37 -36q-28 -28 -49 -38.5t-49 -10.5q-17 0 -27.5 3.5t-55.5 23.5q-21 9 -45 9q-36 0 -64 -33zM42 0l112 667h91l242 -532l89 532h66l-112 -667h-65l-262 570l-95 -570h-66z" />
<glyph unicode="&#xd2;" horiz-adv-x="642" d="M442 730l-189 86l30 58l180 -105zM55 286q0 130 63 239q89 155 247 155q115 0 184 -79.5t69 -213.5q0 -117 -50 -220q-88 -180 -260 -180q-114 0 -183.5 82t-69.5 217zM141 269q0 -99 45 -157t122 -58q69 0 120.5 49t79.5 140q25 85 25 166q0 92 -47 148t-124 56 q-132 0 -190 -167q-31 -88 -31 -177z" />
<glyph unicode="&#xd3;" horiz-adv-x="642" d="M384 730l-21 39l186 105l30 -58zM55 286q0 130 63 239q89 155 247 155q115 0 184 -79.5t69 -213.5q0 -117 -50 -220q-88 -180 -260 -180q-114 0 -183.5 82t-69.5 217zM141 269q0 -99 45 -157t122 -58q69 0 120.5 49t79.5 140q25 85 25 166q0 92 -47 148t-124 56 q-132 0 -190 -167q-31 -88 -31 -177z" />
<glyph unicode="&#xd4;" horiz-adv-x="642" d="M233 743l179 120l138 -120l-71 -10l-79 60l-97 -60zM55 286q0 130 63 239q89 155 247 155q115 0 184 -79.5t69 -213.5q0 -117 -50 -220q-88 -180 -260 -180q-114 0 -183.5 82t-69.5 217zM141 269q0 -99 45 -157t122 -58q69 0 120.5 49t79.5 140q25 85 25 166 q0 92 -47 148t-124 56q-132 0 -190 -167q-31 -88 -31 -177z" />
<glyph unicode="&#xd5;" horiz-adv-x="642" d="M306 749l-41 29q42 62 108 62q17 0 27.5 -3t56.5 -23q21 -9 44 -9q29 0 58 26l36 -36q-28 -28 -48.5 -38.5t-48.5 -10.5q-18 0 -28.5 3.5t-55.5 23.5q-21 9 -44 9q-36 0 -64 -33zM55 286q0 130 63 239q89 155 247 155q115 0 184 -79.5t69 -213.5q0 -117 -50 -220 q-88 -180 -260 -180q-114 0 -183.5 82t-69.5 217zM141 269q0 -99 45 -157t122 -58q69 0 120.5 49t79.5 140q25 85 25 166q0 92 -47 148t-124 56q-132 0 -190 -167q-31 -88 -31 -177z" />
<glyph unicode="&#xd6;" horiz-adv-x="642" d="M491 743q-20 0 -35 15t-15 36t15 35.5t36 14.5q20 0 35 -15t15 -35q0 -21 -15 -36t-36 -15zM335 743q-21 0 -35.5 15t-14.5 35q0 21 14.5 35.5t35.5 14.5q20 0 35 -15t15 -35t-15 -35t-35 -15zM55 286q0 130 63 239q89 155 247 155q115 0 184 -79.5t69 -213.5 q0 -117 -50 -220q-88 -180 -260 -180q-114 0 -183.5 82t-69.5 217zM141 269q0 -99 45 -157t122 -58q69 0 120.5 49t79.5 140q25 85 25 166q0 92 -47 148t-124 56q-132 0 -190 -167q-31 -88 -31 -177z" />
<glyph unicode="&#xd7;" d="M157 135l-48 48l151 151l-151 151l48 48l151 -151l150 151l48 -48l-151 -151l151 -151l-48 -48l-150 151z" />
<glyph unicode="&#xd8;" horiz-adv-x="642" d="M24 -23l85 112q-54 84 -54 198q0 128 63 238q90 155 246 155q89 0 161 -55l55 68h73l-88 -112q53 -80 53 -191q0 -133 -54 -233q-90 -170 -253 -170q-93 0 -165 58l-51 -68h-71zM163 149l311 421q-50 43 -113 43q-49 0 -91 -27t-70 -76q-59 -107 -59 -245q0 -62 22 -116z M196 99q49 -45 111 -45q54 0 99 30.5t72 85.5q55 110 55 242q0 55 -24 110z" />
<glyph unicode="&#xd9;" horiz-adv-x="615" d="M431 730l-189 86l30 58l180 -105zM65 172q0 25 17 126l61 369h82l-65 -387q-14 -84 -14 -103q0 -57 39 -91t104 -34q82 0 127 47q23 23 35.5 55.5t23.5 98.5l69 414h67l-67 -406q-15 -90 -34.5 -137.5t-53.5 -79.5q-64 -59 -171 -59q-103 0 -161.5 49.5t-58.5 137.5z" />
<glyph unicode="&#xda;" horiz-adv-x="615" d="M365 730l-20 39l186 105l30 -58zM65 172q0 25 17 126l61 369h82l-65 -387q-14 -84 -14 -103q0 -57 39 -91t104 -34q82 0 127 47q23 23 35.5 55.5t23.5 98.5l69 414h67l-67 -406q-15 -90 -34.5 -137.5t-53.5 -79.5q-64 -59 -171 -59q-103 0 -161.5 49.5t-58.5 137.5z" />
<glyph unicode="&#xdb;" horiz-adv-x="615" d="M239 743l180 120l137 -120l-71 -10l-78 60l-98 -60zM65 172q0 25 17 126l61 369h82l-65 -387q-14 -84 -14 -103q0 -57 39 -91t104 -34q82 0 127 47q23 23 35.5 55.5t23.5 98.5l69 414h67l-67 -406q-15 -90 -34.5 -137.5t-53.5 -79.5q-64 -59 -171 -59q-103 0 -161.5 49.5 t-58.5 137.5z" />
<glyph unicode="&#xdc;" horiz-adv-x="615" d="M477 743q-20 0 -35 15t-15 36t15 35.5t36 14.5q20 0 35 -15t15 -35q0 -21 -15 -36t-36 -15zM321 743q-21 0 -35.5 15t-14.5 35q0 21 14.5 35.5t35.5 14.5q20 0 35 -15t15 -35t-15 -35t-35 -15zM65 172q0 25 17 126l61 369h82l-65 -387q-14 -84 -14 -103q0 -57 39 -91 t104 -34q82 0 127 47q23 23 35.5 55.5t23.5 98.5l69 414h67l-67 -406q-15 -90 -34.5 -137.5t-53.5 -79.5q-64 -59 -171 -59q-103 0 -161.5 49.5t-58.5 137.5z" />
<glyph unicode="&#xdd;" horiz-adv-x="512" d="M318 730l-21 39l187 105l30 -58zM175 0l47 279l-170 388h90l138 -316l230 316h82l-286 -388l-47 -279h-84z" />
<glyph unicode="&#xde;" horiz-adv-x="563" d="M42 0l112 667h81l-16 -97h101q106 0 154 -28q37 -22 60 -65.5t23 -91.5q0 -44 -20 -88t-53 -72q-60 -52 -198 -52h-134l-29 -173h-81zM163 240h92q69 0 98.5 4t51.5 15q30 16 48.5 51t18.5 74q0 36 -15.5 66t-39.5 41q-31 14 -99 14l-110 -1z" />
<glyph unicode="&#xdf;" horiz-adv-x="554" d="M30 -29l72 428h-51l10 62l51 -1q23 109 66 166q63 83 176 83q70 0 116 -37t46 -94q0 -51 -34.5 -90t-91.5 -53q-50 -12 -103 -12q-8 -7 -8 -13q0 -15 41 -30q75 -28 105.5 -43.5t50.5 -36.5q43 -46 43 -105q0 -55 -30.5 -104.5t-79.5 -75.5q-51 -27 -120 -27 q-62 0 -119 25l21 58q47 -19 98 -19q63 0 104.5 35.5t41.5 88.5q0 38 -21 60t-91 56q-69 34 -90 52t-21 46q0 38 33 74q83 9 128 28q29 12 47.5 35t18.5 48q0 32 -26 52t-67 20q-73 0 -115 -57q-17 -23 -25.5 -50.5t-19.5 -91.5l-80 -477h-76z" />
<glyph unicode="&#xe0;" horiz-adv-x="535" d="M357 570l-189 92l30 59l180 -112zM16 134q0 53 33.5 94t94.5 61q56 19 173 19q41 0 63 -2l11 -1q5 35 5 53q0 45 -29.5 69t-84.5 24q-50 0 -83.5 -20t-58.5 -64l-73 31q59 113 209 113q88 0 143.5 -38t55.5 -97q0 -17 -38 -263q-10 -61 -10 -93q0 -9 1 -20h-77 q-1 12 -1 25q0 36 9 72q-76 -111 -185 -111q-68 0 -113 42t-45 106zM100 131q0 -38 24 -60t64 -22q89 0 152 93q28 41 42 107q-40 2 -67 2q-94 0 -143 -20q-72 -31 -72 -100z" />
<glyph unicode="&#xe1;" horiz-adv-x="535" d="M286 570l-21 39l187 112l30 -59zM16 134q0 53 33.5 94t94.5 61q56 19 173 19q41 0 63 -2l11 -1q5 35 5 53q0 45 -29.5 69t-84.5 24q-50 0 -83.5 -20t-58.5 -64l-73 31q59 113 209 113q88 0 143.5 -38t55.5 -97q0 -17 -38 -263q-10 -61 -10 -93q0 -9 1 -20h-77 q-1 12 -1 25q0 36 9 72q-76 -111 -185 -111q-68 0 -113 42t-45 106zM100 131q0 -38 24 -60t64 -22q89 0 152 93q28 41 42 107q-40 2 -67 2q-94 0 -143 -20q-72 -31 -72 -100z" />
<glyph unicode="&#xe2;" horiz-adv-x="535" d="M152 583l181 127l136 -127l-71 -10l-77 67l-99 -67zM16 134q0 53 33.5 94t94.5 61q56 19 173 19q41 0 63 -2l11 -1q5 35 5 53q0 45 -29.5 69t-84.5 24q-50 0 -83.5 -20t-58.5 -64l-73 31q59 113 209 113q88 0 143.5 -38t55.5 -97q0 -17 -38 -263q-10 -61 -10 -93 q0 -9 1 -20h-77q-1 12 -1 25q0 36 9 72q-76 -111 -185 -111q-68 0 -113 42t-45 106zM100 131q0 -38 24 -60t64 -22q89 0 152 93q28 41 42 107q-40 2 -67 2q-94 0 -143 -20q-72 -31 -72 -100z" />
<glyph unicode="&#xe3;" horiz-adv-x="535" d="M198 593l-41 29q44 62 108 62q17 0 28 -3t57 -23q20 -9 43 -9q29 0 58 25l37 -35q-29 -28 -49.5 -38.5t-48.5 -10.5q-18 0 -28.5 3.5t-55.5 23.5q-21 9 -44 9q-35 0 -64 -33zM16 134q0 53 33.5 94t94.5 61q56 19 173 19q41 0 63 -2l11 -1q5 35 5 53q0 45 -29.5 69 t-84.5 24q-50 0 -83.5 -20t-58.5 -64l-73 31q59 113 209 113q88 0 143.5 -38t55.5 -97q0 -17 -38 -263q-10 -61 -10 -93q0 -9 1 -20h-77q-1 12 -1 25q0 36 9 72q-76 -111 -185 -111q-68 0 -113 42t-45 106zM100 131q0 -38 24 -60t64 -22q89 0 152 93q28 41 42 107 q-40 2 -67 2q-94 0 -143 -20q-72 -31 -72 -100z" />
<glyph unicode="&#xe4;" horiz-adv-x="535" d="M394 587q-20 0 -35 15t-15 36t15 35.5t36 14.5q20 0 35 -15t15 -35q0 -21 -15 -36t-36 -15zM239 587q-21 0 -35.5 15t-14.5 35q0 21 14.5 35.5t35.5 14.5q20 0 35 -15t15 -35t-15 -35t-35 -15zM16 134q0 53 33.5 94t94.5 61q56 19 173 19q41 0 63 -2l11 -1q5 35 5 53 q0 45 -29.5 69t-84.5 24q-50 0 -83.5 -20t-58.5 -64l-73 31q59 113 209 113q88 0 143.5 -38t55.5 -97q0 -17 -38 -263q-10 -61 -10 -93q0 -9 1 -20h-77q-1 12 -1 25q0 36 9 72q-76 -111 -185 -111q-68 0 -113 42t-45 106zM100 131q0 -38 24 -60t64 -22q89 0 152 93 q28 41 42 107q-40 2 -67 2q-94 0 -143 -20q-72 -31 -72 -100z" />
<glyph unicode="&#xe5;" horiz-adv-x="535" d="M321 563q-35 0 -60 25t-25 60t25.5 60t60.5 25q34 0 58.5 -25.5t24.5 -60.5t-24.5 -59.5t-59.5 -24.5zM321 603q18 0 31 13t13 32q0 18 -13 31.5t-30 13.5q-19 0 -32.5 -13t-13.5 -32q0 -18 13.5 -31.5t31.5 -13.5zM16 134q0 53 33.5 94t94.5 61q56 19 173 19q41 0 63 -2 l11 -1q5 35 5 53q0 45 -29.5 69t-84.5 24q-50 0 -83.5 -20t-58.5 -64l-73 31q59 113 209 113q88 0 143.5 -38t55.5 -97q0 -17 -38 -263q-10 -61 -10 -93q0 -9 1 -20h-77q-1 12 -1 25q0 36 9 72q-76 -111 -185 -111q-68 0 -113 42t-45 106zM100 131q0 -38 24 -60t64 -22 q89 0 152 93q28 41 42 107q-40 2 -67 2q-94 0 -143 -20q-72 -31 -72 -100z" />
<glyph unicode="&#xe6;" horiz-adv-x="841" d="M14 131q0 49 27 88.5t76 61.5q60 26 173 26q20 0 88 -4q6 26 6 50q0 98 -113 98q-88 0 -135 -82l-70 29q62 111 200 111q118 0 172 -75q75 74 172 74q91 0 143.5 -56t52.5 -153q0 -23 -4 -58h-361q-4 -27 -4 -43q0 -66 37 -108t96 -42q84 0 147 95l63 -27 q-74 -131 -208 -131q-145 0 -199 133q-86 -131 -205 -131q-67 0 -110.5 40.5t-43.5 103.5zM450 295h280q1 10 1 22q0 62 -34 98.5t-91 36.5q-59 0 -101 -42t-55 -115zM94 130q0 -37 23.5 -59.5t61.5 -22.5q67 0 124 60t67 140l-11 2q-33 3 -59 3q-93 0 -141 -23 q-29 -14 -47 -41.5t-18 -58.5z" />
<glyph unicode="&#xe7;" horiz-adv-x="474" d="M160 -81l29 68q-72 13 -112.5 71.5t-40.5 149.5q0 103 48 184q70 119 190 119q75 0 126.5 -48t58.5 -126l-74 -16q-8 59 -38.5 91t-76.5 32q-76 0 -114 -79t-38 -170q0 -67 30.5 -105.5t82.5 -38.5q86 0 136 119l62 -23q-23 -74 -78 -118t-126 -45l-14 -32q8 1 18 1 q32 0 53 -17.5t21 -43.5q0 -35 -29 -56t-77 -21q-44 0 -84 22l15 32q37 -17 67 -17q25 0 40.5 10.5t15.5 27.5q0 32 -58 32q-11 0 -33 -3z" />
<glyph unicode="&#xe8;" horiz-adv-x="520" d="M347 570l-189 92l30 59l180 -112zM33 213q0 127 73 212.5t182 85.5q92 0 144.5 -57t52.5 -156q0 -26 -5 -57h-364q-3 -27 -3 -39q0 -69 36 -110.5t96 -41.5q48 0 79.5 20.5t69.5 75.5l64 -30q-42 -68 -93 -99t-121 -31q-96 0 -153.5 62t-57.5 165zM125 297h282l1 24 q2 59 -32.5 95t-91.5 36q-59 0 -102 -42t-57 -113z" />
<glyph unicode="&#xe9;" horiz-adv-x="520" d="M285 570l-21 39l187 112l30 -59zM33 213q0 127 73 212.5t182 85.5q92 0 144.5 -57t52.5 -156q0 -26 -5 -57h-364q-3 -27 -3 -39q0 -69 36 -110.5t96 -41.5q48 0 79.5 20.5t69.5 75.5l64 -30q-42 -68 -93 -99t-121 -31q-96 0 -153.5 62t-57.5 165zM125 297h282l1 24 q2 59 -32.5 95t-91.5 36q-59 0 -102 -42t-57 -113z" />
<glyph unicode="&#xea;" horiz-adv-x="520" d="M151 583l181 127l136 -127l-71 -10l-77 67l-99 -67zM33 213q0 127 73 212.5t182 85.5q92 0 144.5 -57t52.5 -156q0 -26 -5 -57h-364q-3 -27 -3 -39q0 -69 36 -110.5t96 -41.5q48 0 79.5 20.5t69.5 75.5l64 -30q-42 -68 -93 -99t-121 -31q-96 0 -153.5 62t-57.5 165z M125 297h282l1 24q2 59 -32.5 95t-91.5 36q-59 0 -102 -42t-57 -113z" />
<glyph unicode="&#xeb;" horiz-adv-x="520" d="M408 587q-20 0 -35 15t-15 36t15 35.5t36 14.5q20 0 35 -15t15 -35q0 -21 -15 -36t-36 -15zM253 587q-21 0 -35.5 15t-14.5 35q0 21 14.5 35.5t35.5 14.5q20 0 35 -15t15 -35t-15 -35t-35 -15zM33 213q0 127 73 212.5t182 85.5q92 0 144.5 -57t52.5 -156q0 -26 -5 -57 h-364q-3 -27 -3 -39q0 -69 36 -110.5t96 -41.5q48 0 79.5 20.5t69.5 75.5l64 -30q-42 -68 -93 -99t-121 -31q-96 0 -153.5 62t-57.5 165zM125 297h282l1 24q2 59 -32.5 95t-91.5 36q-59 0 -102 -42t-57 -113z" />
<glyph unicode="&#xec;" horiz-adv-x="230" d="M194 570l-168 95l31 56l158 -112zM35 0l83 495h76l-83 -495h-76z" />
<glyph unicode="&#xed;" horiz-adv-x="230" d="M158 570l-21 39l165 112l31 -56zM36 0l83 495h76l-83 -495h-76z" />
<glyph unicode="&#xee;" horiz-adv-x="230" d="M97 573l-63 10l154 127l110 -127l-64 -10l-58 67zM35 0l83 495h76l-83 -495h-76z" />
<glyph unicode="&#xef;" horiz-adv-x="230" d="M237 587q-20 0 -35 15t-15 36t15 35.5t36 14.5q20 0 35 -15t15 -35q0 -21 -15 -36t-36 -15zM109 587q-21 0 -35.5 15t-14.5 35q0 21 14.5 35.5t35.5 14.5q20 0 35 -15t15 -35t-15 -35t-35 -15zM36 0l83 495h76l-83 -495h-76z" />
<glyph unicode="&#xf0;" horiz-adv-x="511" d="M78 64q-44 64 -44 147q0 55 21 109.5t57 95.5q68 77 163 77q59 0 105 -42q-18 65 -56 122l-81 -41l-25 42l69 36q-28 24 -73 44l29 44q62 -22 106 -57l83 41l26 -43l-73 -35q99 -117 99 -291q0 -146 -69.5 -236.5t-181.5 -90.5q-101 0 -155 78zM116 198q0 -72 31 -111 t89 -39q82 0 124 81q39 78 39 166q0 62 -33.5 100.5t-88.5 38.5q-74 0 -116 -69q-45 -74 -45 -167z" />
<glyph unicode="&#xf1;" horiz-adv-x="548" d="M226 593l-41 29q44 62 108 62q17 0 28 -3t57 -23q20 -9 43 -9q29 0 58 25l37 -35q-29 -28 -49.5 -38.5t-48.5 -10.5q-18 0 -28.5 3.5t-55.5 23.5q-21 9 -44 9q-35 0 -64 -33zM35 0l83 495h66l-19 -110q68 124 175 124q62 0 104 -40t42 -99q0 -25 -9 -84l-47 -286h-73 l48 285q8 46 8 70q0 42 -25 67.5t-67 25.5q-75 0 -127 -83q-36 -60 -58 -188l-30 -177h-71z" />
<glyph unicode="&#xf2;" horiz-adv-x="521" d="M354 570l-189 92l30 59l180 -112zM37 214q0 122 73 207.5t176 85.5q90 0 144 -61t54 -164q0 -124 -72 -210.5t-176 -86.5q-90 0 -144.5 62.5t-54.5 166.5zM119 195q0 -70 32 -109.5t89 -39.5q73 0 113 65q50 81 50 187q0 69 -25 102q-34 47 -96 47q-73 0 -115 -67 q-48 -80 -48 -185z" />
<glyph unicode="&#xf3;" horiz-adv-x="521" d="M296 570l-21 39l187 112l30 -59zM37 214q0 122 73 207.5t176 85.5q90 0 144 -61t54 -164q0 -124 -72 -210.5t-176 -86.5q-90 0 -144.5 62.5t-54.5 166.5zM119 195q0 -70 32 -109.5t89 -39.5q73 0 113 65q50 81 50 187q0 69 -25 102q-34 47 -96 47q-73 0 -115 -67 q-48 -80 -48 -185z" />
<glyph unicode="&#xf4;" horiz-adv-x="521" d="M158 583l181 127l136 -127l-71 -10l-77 67l-99 -67zM37 214q0 122 73 207.5t176 85.5q90 0 144 -61t54 -164q0 -124 -72 -210.5t-176 -86.5q-90 0 -144.5 62.5t-54.5 166.5zM119 195q0 -70 32 -109.5t89 -39.5q73 0 113 65q50 81 50 187q0 69 -25 102q-34 47 -96 47 q-73 0 -115 -67q-48 -80 -48 -185z" />
<glyph unicode="&#xf5;" horiz-adv-x="521" d="M217 593l-41 29q44 62 108 62q17 0 27.5 -3t57.5 -23q19 -9 43 -9q29 0 58 25l37 -35q-29 -28 -49.5 -38.5t-48.5 -10.5q-18 0 -28.5 3.5t-55.5 23.5q-21 9 -44 9q-35 0 -64 -33zM37 214q0 122 73 207.5t176 85.5q90 0 144 -61t54 -164q0 -124 -72 -210.5t-176 -86.5 q-90 0 -144.5 62.5t-54.5 166.5zM119 195q0 -70 32 -109.5t89 -39.5q73 0 113 65q50 81 50 187q0 69 -25 102q-34 47 -96 47q-73 0 -115 -67q-48 -80 -48 -185z" />
<glyph unicode="&#xf6;" horiz-adv-x="521" d="M411 587q-20 0 -35 15t-15 36t15 35.5t36 14.5q20 0 35 -15t15 -35q0 -21 -15 -36t-36 -15zM256 587q-21 0 -35.5 15t-14.5 35q0 21 14.5 35.5t35.5 14.5q20 0 35 -15t15 -35t-15 -35t-35 -15zM37 214q0 122 73 207.5t176 85.5q90 0 144 -61t54 -164q0 -124 -72 -210.5 t-176 -86.5q-90 0 -144.5 62.5t-54.5 166.5zM119 195q0 -70 32 -109.5t89 -39.5q73 0 113 65q50 81 50 187q0 69 -25 102q-34 47 -96 47q-73 0 -115 -67q-48 -80 -48 -185z" />
<glyph unicode="&#xf7;" d="M307 437q-19 0 -33 13.5t-14 33.5t14 33.5t34 13.5q19 0 32.5 -14t13.5 -33q0 -20 -14 -33.5t-33 -13.5zM74 300v68h467v-68h-467zM260 189q0 20 14 33.5t34 13.5q19 0 32.5 -14t13.5 -33t-14 -33t-33 -14t-33 14t-14 33z" />
<glyph unicode="&#xf8;" horiz-adv-x="521" d="M2 -27l76 93q-41 66 -41 148q0 116 69 202q71 91 180 91q72 0 127 -44l51 59h68l-85 -98q37 -63 37 -141q0 -124 -71.5 -211t-174.5 -87q-70 0 -126 43l-48 -55h-62zM130 123l236 291q-37 33 -85 33q-72 0 -111 -63q-51 -81 -51 -191q0 -37 11 -70zM158 78q35 -31 80 -31 q76 0 117 68q48 77 48 187q0 36 -9 68z" />
<glyph unicode="&#xf9;" horiz-adv-x="543" d="M370 570l-189 92l30 59l180 -112zM61 126q0 31 10 92l48 277h76l-50 -301q-9 -54 -9 -64q0 -36 22 -58t59 -22q72 0 129 89q41 63 58 166l32 190h71l-83 -495h-67l20 120q-37 -70 -79.5 -101.5t-99.5 -31.5q-61 0 -99 38.5t-38 100.5z" />
<glyph unicode="&#xfa;" horiz-adv-x="543" d="M308 570l-21 39l187 112l30 -59zM61 126q0 31 10 92l48 277h76l-50 -301q-9 -54 -9 -64q0 -36 22 -58t59 -22q72 0 129 89q41 63 58 166l32 190h71l-83 -495h-67l20 120q-37 -70 -79.5 -101.5t-99.5 -31.5q-61 0 -99 38.5t-38 100.5z" />
<glyph unicode="&#xfb;" horiz-adv-x="543" d="M167 583l181 127l136 -127l-71 -10l-77 67l-99 -67zM61 126q0 31 10 92l48 277h76l-50 -301q-9 -54 -9 -64q0 -36 22 -58t59 -22q72 0 129 89q41 63 58 166l32 190h71l-83 -495h-67l20 120q-37 -70 -79.5 -101.5t-99.5 -31.5q-61 0 -99 38.5t-38 100.5z" />
<glyph unicode="&#xfc;" horiz-adv-x="543" d="M418 587q-20 0 -35 15t-15 36t15 35.5t36 14.5q20 0 35 -15t15 -35q0 -21 -15 -36t-36 -15zM263 587q-21 0 -35.5 15t-14.5 35q0 21 14.5 35.5t35.5 14.5q20 0 35 -15t15 -35t-15 -35t-35 -15zM61 126q0 31 10 92l48 277h76l-50 -301q-9 -54 -9 -64q0 -36 22 -58t59 -22 q72 0 129 89q41 63 58 166l32 190h71l-83 -495h-67l20 120q-37 -70 -79.5 -101.5t-99.5 -31.5q-61 0 -99 38.5t-38 100.5z" />
<glyph unicode="&#xfd;" horiz-adv-x="425" d="M245 570l-21 39l187 112l30 -59zM6 -109q79 0 121 88l16 34l-103 482h78l80 -376l195 376h66l-271 -522q-39 -75 -72 -105q-46 -42 -115 -42q-15 0 -49 3l11 67q25 -5 43 -5z" />
<glyph unicode="&#xfe;" horiz-adv-x="536" d="M124 73l-41 -246h-77l140 840h77l-44 -261q73 98 160 98q72 0 117 -58t45 -151q0 -126 -68 -217t-162 -91q-93 0 -147 86zM145 186q0 -62 31 -99.5t83 -37.5q77 0 114 70q45 83 45 183q0 55 -19 89q-29 50 -87 50q-64 0 -115.5 -79t-51.5 -176z" />
<glyph unicode="&#xff;" horiz-adv-x="425" d="M351 587q-20 0 -35 15t-15 36t15 35.5t36 14.5q20 0 35 -15t15 -35q0 -21 -15 -36t-36 -15zM196 587q-21 0 -35.5 15t-14.5 35q0 21 14.5 35.5t35.5 14.5q20 0 35 -15t15 -35t-15 -35t-35 -15zM6 -109q79 0 121 88l16 34l-103 482h78l80 -376l195 376h66l-271 -522 q-39 -75 -72 -105q-46 -42 -115 -42q-15 0 -49 3l11 67q25 -5 43 -5z" />
<glyph unicode="&#x152;" horiz-adv-x="977" d="M55 286q0 137 67 248q89 147 248 147q67 0 117 -25q4 -2 10 -4.5t8.5 -4t8 -4.5t10.5 -7.5l12.5 -11.5l17.5 -17l6 -6l11 66h416l-11 -67h-335l-36 -219h285l-11 -65h-285l-41 -245h361l-12 -71h-443l5 41q-68 -52 -150 -52q-117 0 -188 81.5t-71 215.5zM140 273 q0 -100 48 -158t130 -58q57 0 101 30t69 86l55 326q-47 115 -173 115q-107 0 -168 -103q-62 -105 -62 -238z" />
<glyph unicode="&#x153;" horiz-adv-x="896" d="M37 216q0 109 64 193q73 99 193 99q60 0 101 -23t75 -76q45 54 90 78t103 24q93 0 145 -58.5t52 -163.5q0 -19 -4 -48h-363q-3 -29 -3 -41q0 -68 36.5 -109t97.5 -41q45 0 78.5 21.5t68.5 73.5l64 -31q-43 -62 -79 -87q-57 -40 -132 -40q-117 0 -184 103 q-75 -104 -195 -104q-91 0 -149.5 64.5t-58.5 165.5zM502 296h282l1 24q2 60 -32.5 97t-91.5 37q-60 0 -101 -41t-58 -117zM124 197q0 -70 33.5 -109.5t93.5 -39.5q77 0 121 71q47 76 47 176q0 74 -33 113t-95 39q-75 0 -116 -62q-51 -79 -51 -188z" />
<glyph unicode="&#x178;" horiz-adv-x="512" d="M418 743q-20 0 -35 15t-15 36t15 35.5t36 14.5q20 0 35 -15t15 -35q0 -21 -15 -36t-36 -15zM263 743q-21 0 -35.5 15t-14.5 35q0 21 14.5 35.5t35.5 14.5q20 0 35 -15t15 -35t-15 -35t-35 -15zM175 0l47 279l-170 388h90l138 -316l230 316h82l-286 -388l-47 -279h-84z " />
<glyph unicode="&#x2c6;" horiz-adv-x="500" d="M148 583l181 127l136 -127l-71 -10l-77 67l-99 -67z" />
<glyph unicode="&#x2dc;" horiz-adv-x="500" d="M190 593l-41 29q44 62 108 62q17 0 28 -3t57 -23q20 -9 43 -9q29 0 58 25l37 -35q-29 -28 -49.5 -38.5t-48.5 -10.5q-18 0 -28.5 3.5t-55.5 23.5q-21 9 -44 9q-35 0 -64 -33z" />
<glyph unicode="&#x2000;" horiz-adv-x="443" />
<glyph unicode="&#x2001;" horiz-adv-x="887" />
<glyph unicode="&#x2002;" horiz-adv-x="443" />
<glyph unicode="&#x2003;" horiz-adv-x="887" />
<glyph unicode="&#x2004;" horiz-adv-x="295" />
<glyph unicode="&#x2005;" horiz-adv-x="221" />
<glyph unicode="&#x2006;" horiz-adv-x="147" />
<glyph unicode="&#x2007;" horiz-adv-x="147" />
<glyph unicode="&#x2008;" horiz-adv-x="110" />
<glyph unicode="&#x2009;" horiz-adv-x="177" />
<glyph unicode="&#x200a;" horiz-adv-x="49" />
<glyph unicode="&#x2010;" horiz-adv-x="250" d="M10 220l9 57h222l-9 -57h-222z" />
<glyph unicode="&#x2011;" horiz-adv-x="250" d="M10 220l9 57h222l-9 -57h-222z" />
<glyph unicode="&#x2013;" d="M91 220l9 57h396l-10 -57h-395z" />
<glyph unicode="&#x2014;" horiz-adv-x="667" d="M-3 220l9 57h664l-10 -57h-663z" />
<glyph unicode="&#x2018;" horiz-adv-x="250" d="M110 445l16 94l98 128h39l-84 -128h43l-15 -94h-97z" />
<glyph unicode="&#x2019;" horiz-adv-x="250" d="M91 445l84 128h-43l15 94h97l-16 -94l-98 -128h-39z" />
<glyph unicode="&#x201a;" horiz-adv-x="250" d="M36 0l15 94h97l-16 -94l-98 -128h-39l84 128h-43z" />
<glyph unicode="&#x201c;" horiz-adv-x="373" d="M243 454l15 91l95 122h37l-80 -122h44l-16 -91h-95zM105 454l15 91l97 122h37l-79 -122h43l-16 -91h-97z" />
<glyph unicode="&#x201d;" horiz-adv-x="373" d="M224 454l79 122h-42l15 91h97l-15 -91l-96 -122h-38zM88 454l80 122h-43l15 91h96l-15 -91l-96 -122h-37z" />
<glyph unicode="&#x201e;" horiz-adv-x="373" d="M165 0l15 91h97l-15 -91l-96 -121h-38l79 121h-42zM29 0l15 91h96l-15 -91l-96 -121h-37l80 121h-43z" />
<glyph unicode="&#x2022;" horiz-adv-x="667" d="M213 338q0 58 40.5 98.5t99.5 40.5q56 0 96.5 -41t40.5 -98t-40.5 -97.5t-97.5 -40.5q-58 0 -98.5 40.5t-40.5 97.5z" />
<glyph unicode="&#x2026;" horiz-adv-x="749" d="M528 0l19 112h110l-19 -112h-110zM279 0l19 112h109l-19 -112h-109zM29 0l19 112h110l-19 -112h-110z" />
<glyph unicode="&#x202f;" horiz-adv-x="177" />
<glyph unicode="&#x2039;" horiz-adv-x="212" d="M105 105l-66 137l100 141h47l-73 -141l28 -137h-36z" />
<glyph unicode="&#x203a;" horiz-adv-x="212" d="M25 105l73 141l-28 137h36l66 -137l-100 -141h-47z" />
<glyph unicode="&#x205f;" horiz-adv-x="221" />
<glyph unicode="&#x20ac;" horiz-adv-x="621" d="M51 254l24 58h40q1 22 4 36h-58l24 58h45q32 127 111 200.5t184 73.5q108 0 175 -70l-35 -81q-22 40 -59.5 62t-83.5 22q-147 0 -203 -207h294l-24 -57l-282 -1l-5 -36h270l-24 -58h-248q4 -67 26 -111q45 -89 141 -89q95 0 155 89l-14 -118q-62 -38 -141 -38 q-107 0 -174 71.5t-77 195.5h-65z" />
<glyph unicode="&#x2122;" horiz-adv-x="795" d="M349 287l64 380h84l69 -295l164 295h89l-63 -380h-61l54 318l-177 -318h-46l-72 313l-53 -313h-52zM125 287l56 335h-118l7 45h297l-8 -45h-118l-56 -335h-60z" />
</font>
</defs>
</svg>
