<?xml version="1.0" standalone="no"?>
<!DOCTYPE svg PUBLIC "-//W3C//DTD SVG 1.1//EN" "http://www.w3.org/Graphics/SVG/1.1/DTD/svg11.dtd" >
<svg xmlns="http://www.w3.org/2000/svg">
<metadata>
This is a custom SVG webfont generated by Fontspring.
Designer    : FontSite.com
Foundry URL : http://www.fontsite.com
</metadata>
<defs>
<font id="webfont" horiz-adv-x="587" >
<font-face units-per-em="1000" ascent="827" descent="-173" />
<missing-glyph horiz-adv-x="250" />
<glyph unicode=" "  horiz-adv-x="250" />
<glyph unicode="&#x09;" horiz-adv-x="250" />
<glyph unicode="&#xa0;" horiz-adv-x="250" />
<glyph unicode="!" horiz-adv-x="269" d="M113 166l-36 501h115l-38 -501h-41zM84 0v103h102v-103h-102z" />
<glyph unicode="&#x22;" horiz-adv-x="316" d="M201 409l-14 258h78l-15 -258h-49zM67 409l-15 258h78l-15 -258h-48z" />
<glyph unicode="#" d="M100 0l38 212h-107l11 60h106l25 139h-107l11 60h107l34 196h64l-35 -196h141l35 196h63l-35 -196h104l-11 -60h-102l-25 -139h102l-10 -60h-103l-37 -212h-64l38 212h-142l-38 -212h-63zM212 272h141l24 139h-140z" />
<glyph unicode="$" d="M47 174l66 26q37 -104 143 -112v227q-77 20 -113 41q-32 19 -50.5 53t-18.5 75q0 46 23 84t63 59q38 19 96 28v81h59v-81q143 -13 189 -128l-66 -22q-26 80 -123 86v-209q78 -17 116 -37q39 -20 62.5 -60t23.5 -85q0 -46 -24.5 -87t-65.5 -63q-38 -20 -112 -29v-94h-59 v94q-164 18 -209 153zM256 391v200q-53 -6 -82 -31.5t-29 -66.5q0 -80 111 -102zM315 88q60 4 93.5 32t33.5 74q0 54 -45 81q-26 17 -82 26v-213z" />
<glyph unicode="%" horiz-adv-x="720" d="M175 327q-61 0 -99.5 48.5t-38.5 125.5q0 78 37.5 125.5t98.5 47.5q62 0 100.5 -48.5t38.5 -126.5q0 -75 -39 -123.5t-98 -48.5zM128 0l404 667h61l-403 -667h-62zM176 366q38 0 60.5 34.5t22.5 93.5q0 67 -23 104.5t-63 37.5t-62 -35t-22 -98q0 -65 23 -101t64 -36z M410 167q0 78 37.5 125.5t98.5 47.5q62 0 100 -48.5t38 -126.5q0 -75 -38.5 -123.5t-98.5 -48.5t-98.5 49t-38.5 125zM461 169q0 -65 23 -101t64 -36q39 0 61.5 34t22.5 94q0 67 -23 104.5t-64 37.5q-40 0 -62 -35t-22 -98z" />
<glyph unicode="&#x26;" horiz-adv-x="667" d="M43 185q0 70 45 122.5t128 81.5q-64 94 -64 151q0 61 42.5 100.5t107.5 39.5q68 0 111 -39.5t43 -102.5q0 -56 -32 -95.5t-108 -77.5l140 -213q68 87 91 213l71 -15q-10 -60 -46.5 -135t-76.5 -115q19 -20 34.5 -27t39.5 -7q13 0 61 4v-70q-46 -7 -73 -7q-32 0 -51 10 t-60 50q-47 -37 -85.5 -51.5t-90.5 -14.5q-98 0 -162.5 56.5t-64.5 141.5zM282 413q44 25 57 34q54 36 54 86q0 36 -25.5 60.5t-62.5 24.5q-35 0 -58.5 -21.5t-23.5 -53.5q0 -23 11 -47t48 -83zM126 189q0 -64 40.5 -101.5t110.5 -37.5q41 0 69.5 11.5t61.5 41.5l-160 236 q-68 -31 -95 -64t-27 -86z" />
<glyph unicode="'" horiz-adv-x="181" d="M67 409l-15 258h78l-15 -258h-48z" />
<glyph unicode="(" horiz-adv-x="293" d="M52 250q0 220 143 417h51q-123 -190 -123 -413q0 -220 124 -421h-51q-144 187 -144 417z" />
<glyph unicode=")" horiz-adv-x="293" d="M47 -167q123 190 123 413q0 221 -124 421h51q144 -189 144 -417q0 -220 -143 -417h-51z" />
<glyph unicode="*" d="M203 271l-61 43l125 137l-189 38l23 70l173 -76l-19 184h76l-19 -184l173 76l23 -70l-189 -38l125 -137l-61 -43l-90 158z" />
<glyph unicode="+" d="M257 95v205h-197v68h197v205h73v-205h197v-68h-197v-205h-73z" />
<glyph unicode="," horiz-adv-x="250" d="M72 0v111h107v-100l-73 -136h-42l58 125h-50z" />
<glyph unicode="-" horiz-adv-x="250" d="M15 220v60h221v-60h-221z" />
<glyph unicode="." horiz-adv-x="250" d="M71 0v109h109v-109h-109z" />
<glyph unicode="/" horiz-adv-x="454" d="M18 -167h-65l402 834h66z" />
<glyph unicode="0" d="M294 -13q-112 0 -182.5 97t-70.5 251q0 125 49 217q66 128 201 128q137 0 204 -127q51 -100 51 -223q0 -119 -54 -220q-32 -59 -83.5 -91t-114.5 -32zM295 52q97 0 138 105q27 71 27 162q0 118 -34 198q-41 98 -135 98q-79 0 -122 -73t-43 -205q0 -134 44.5 -209.5 t124.5 -75.5z" />
<glyph unicode="1" d="M92 0v62h200v515q-88 -91 -183 -144v84q127 66 203 163h60v-618h187v-62h-467z" />
<glyph unicode="2" d="M52 0v69q146 109 220 171q97 81 132.5 131t35.5 107q0 58 -43 97t-107 39q-80 0 -128 -64q-27 -35 -32 -89l-78 24q11 45 24 71t35 50q66 74 180 74q100 0 166 -57.5t66 -143.5q0 -70 -41 -130t-149 -147q-88 -73 -176 -133h368v-69h-473z" />
<glyph unicode="3" d="M107 42q-29 23 -45.5 45.5t-31.5 61.5l78 26q19 -56 47 -81q45 -39 131 -39q83 0 125 40q38 36 38 88q0 61 -47.5 95.5t-131.5 34.5h-76v67h76q74 0 114.5 30.5t40.5 86.5q0 52 -39 84.5t-100 32.5q-73 0 -119 -46q-22 -22 -37 -62l-76 21q29 68 75 103q67 50 163 50 q94 0 156 -50t62 -127q0 -58 -34 -98.5t-94 -53.5q72 -14 113 -58t41 -108q0 -88 -70 -143t-183 -55q-103 0 -176 55z" />
<glyph unicode="4" d="M31 159v56l305 466h105v-456h108v-66h-108v-159h-81v159h-329zM118 225h242v315q0 41 2 74q-27 -49 -36 -63z" />
<glyph unicode="5" d="M99 55q-38 35 -56 89l71 25q48 -116 165 -116q78 0 125.5 46.5t47.5 122.5q0 71 -44 116t-113 45q-95 0 -157 -91l-66 14l22 361h395l-7 -72h-328l-14 -216q44 41 80 57t83 16q97 0 163.5 -66.5t66.5 -164.5q0 -101 -72 -167.5t-182 -66.5q-107 0 -180 68z" />
<glyph unicode="6" d="M309 -13q-119 0 -188.5 89.5t-69.5 241.5q0 172 80 276q67 86 190 86q160 0 215 -150l-75 -20q-22 53 -55.5 77t-85.5 24q-113 0 -161 -115q-30 -69 -31 -194q25 53 61 84q60 51 141 51q90 0 153 -64t63 -156q0 -98 -68.5 -164t-168.5 -66zM147 208q0 -65 47 -109.5 t114 -44.5q68 0 114.5 45t46.5 111q0 67 -44 113.5t-109 46.5q-68 0 -118.5 -48t-50.5 -114z" />
<glyph unicode="7" d="M195 0v19q0 155 76 326q64 144 160 249h-362l9 73h440v-50q-75 -89 -136 -205q-46 -88 -73.5 -193t-27.5 -197v-22h-86z" />
<glyph unicode="8" d="M36 173q0 112 158 173q-126 55 -126 161q0 77 64 125t166 48q101 0 162 -46.5t61 -123.5q0 -106 -129 -152q62 -30 92 -51q31 -23 48.5 -58t17.5 -74q0 -84 -70.5 -136t-184.5 -52t-186.5 52t-72.5 134zM295 388q81 21 117 50.5t36 75.5q0 47 -39.5 75t-107.5 28 q-67 0 -107.5 -28.5t-40.5 -74.5q0 -43 38.5 -76.5t103.5 -49.5zM117 169q0 -54 48 -86.5t128 -32.5q79 0 127 31.5t48 83.5q0 50 -44 85t-138 61q-169 -40 -169 -142z" />
<glyph unicode="9" d="M119 31q-22 18 -35 37t-27 54l67 24q41 -93 139 -93q92 0 142 76.5t52 221.5q-37 -62 -84 -91t-113 -29q-94 0 -156.5 63t-62.5 157q0 98 67 163.5t167 65.5q111 0 176 -68q40 -41 62 -110.5t22 -152.5q0 -152 -66 -256q-32 -50 -86.5 -78.5t-119.5 -28.5q-85 0 -144 45z M279 298q66 0 113.5 47t47.5 112q0 67 -45 110.5t-114 43.5q-71 0 -115 -44t-44 -115q0 -67 44.5 -110.5t112.5 -43.5z" />
<glyph unicode=":" horiz-adv-x="250" d="M71 384v109h109v-109h-109zM71 0v110h109v-110h-109z" />
<glyph unicode=";" horiz-adv-x="250" d="M71 385v108h107v-108h-107zM71 0v111h107v-100l-74 -136h-40l57 125h-50z" />
<glyph unicode="&#x3c;" d="M67 298v65l433 203v-74l-353 -162l353 -161v-75z" />
<glyph unicode="=" d="M60 387v67h467v-67h-467zM60 229v67h467v-67h-467z" />
<glyph unicode="&#x3e;" d="M87 94v75l353 161l-353 162v74l433 -203v-65z" />
<glyph unicode="?" horiz-adv-x="505" d="M192 166v16v51q0 63 33 95q14 14 45 30l39 21q71 38 71 114q0 52 -38 85.5t-97 33.5q-74 0 -114 -50q-24 -32 -38 -94l-73 15q9 48 22 76.5t39 55.5q61 65 166 65q98 0 158.5 -52.5t60.5 -137.5q0 -106 -125 -174q-56 -30 -67.5 -45.5t-11.5 -60.5v-20v-24h-70zM180 0v96 h99v-96h-99z" />
<glyph unicode="@" horiz-adv-x="745" d="M208 -43q-78 45 -123 125.5t-45 174.5q0 146 100.5 246t247.5 100q135 0 226 -85.5t91 -212.5q0 -98 -50 -170t-118 -72q-58 0 -79 59q-27 -34 -51 -47.5t-58 -13.5q-66 0 -110 52t-44 130q0 84 49.5 140.5t122.5 56.5q66 0 105 -57l6 49h65l-27 -228q-3 -24 -3 -44 q0 -34 33 -34q38 0 68.5 53t30.5 120q0 106 -72.5 175t-184.5 69q-119 0 -201 -82.5t-82 -203.5q0 -78 37 -144.5t101 -103.5t158 -37q102 0 198 45l21 9l21 -59q-118 -57 -239 -57q-114 0 -194 47zM271 241q0 -50 23.5 -82.5t58.5 -32.5q42 0 74 43t32 100q0 47 -24 76.5 t-61 29.5q-44 0 -73.5 -38.5t-29.5 -95.5z" />
<glyph unicode="A" horiz-adv-x="551" d="M3 0l216 667h96l217 -667h-86l-67 195h-247l-59 -195h-70zM156 258h205l-102 320z" />
<glyph unicode="B" horiz-adv-x="605" d="M83 0v667h264q77 0 125 -31q71 -48 71 -132q0 -69 -47 -113q-22 -21 -71 -37q57 -16 85 -43q53 -53 53 -126q0 -104 -84 -155q-50 -30 -133 -30h-263zM164 381h145q77 0 110 25q41 31 41 89q0 50 -34 77t-96 27h-166v-218zM164 73h179q64 0 100 30.5t36 85.5q0 54 -35 91 q-35 38 -113 38h-167v-245z" />
<glyph unicode="C" horiz-adv-x="579" d="M130 68q-88 105 -88 272q0 155 75.5 247.5t201.5 92.5q188 0 240 -214l-78 -15q-25 83 -63.5 120.5t-99.5 37.5q-87 0 -136 -73.5t-49 -204.5q0 -125 49.5 -199t132.5 -74q36 0 69.5 16.5t53.5 44.5q26 36 45 105l76 -17q-24 -91 -67 -142q-66 -78 -179 -78 q-114 0 -183 81z" />
<glyph unicode="D" horiz-adv-x="647" d="M83 0v667h223q121 0 198 -73q101 -96 101 -258q0 -145 -77 -240.5t-194 -95.5h-251zM166 71h136q94 0 146 55q34 35 53 91.5t19 118.5q0 125 -70 203q-54 58 -149 58h-135v-526z" />
<glyph unicode="E" horiz-adv-x="548" d="M83 0v667h422v-73h-339v-213h269v-68h-269v-240h348v-73h-431z" />
<glyph unicode="F" horiz-adv-x="508" d="M83 0v667h408v-73h-325v-211h270v-67h-270v-316h-83z" />
<glyph unicode="G" horiz-adv-x="647" d="M127 71q-85 98 -85 255q0 159 79.5 256.5t209.5 97.5q114 0 182 -77q37 -43 58 -116l-79 -19q-15 59 -44 89q-49 52 -125 52q-47 0 -85.5 -22.5t-60.5 -63.5q-44 -80 -44 -194q0 -113 43 -189q23 -40 64 -63t88 -23q74 0 119.5 48.5t45.5 127.5q0 22 -1 36h-165v70h251 v-345h-52l-22 84q-66 -89 -187 -89q-117 0 -190 85z" />
<glyph unicode="H" horiz-adv-x="643" d="M83 0v667h83v-276h310v276h83v-667h-83v318h-310v-318h-83z" />
<glyph unicode="I" horiz-adv-x="250" d="M83 0v667h83v-667h-83z" />
<glyph unicode="J" horiz-adv-x="373" d="M0 0v68q51 -9 89 -9q75 0 104 38q13 17 17 36.5t4 70.5v463h83v-463q0 -111 -49 -164t-152 -53q-43 0 -96 13z" />
<glyph unicode="K" horiz-adv-x="628" d="M83 0v667h83v-387l302 387h90l-181 -234l233 -433h-92l-199 368l-153 -190v-178h-83z" />
<glyph unicode="L" horiz-adv-x="490" d="M83 0v667h85v-594h308v-73h-393z" />
<glyph unicode="M" horiz-adv-x="810" d="M83 0v667h124l200 -533l197 533h122v-667h-81v582l-216 -582h-57l-218 582v-582h-71z" />
<glyph unicode="N" horiz-adv-x="657" d="M83 0v667h104l323 -544l-1 46q-1 25 -1 49v449h66v-667h-81l-345 581l1 -44q1 -22 1 -42v-495h-67z" />
<glyph unicode="O" horiz-adv-x="631" d="M125 73q-83 101 -83 259q0 154 76.5 251t197.5 97q123 0 198 -95t75 -251q0 -158 -89 -263q-71 -84 -186 -84q-120 0 -189 86zM316 55q84 0 135 77t51 203q0 130 -49.5 203.5t-137.5 73.5q-85 0 -135.5 -76.5t-50.5 -204.5q0 -125 51 -200.5t136 -75.5z" />
<glyph unicode="P" horiz-adv-x="559" d="M83 0v667h236q91 0 143 -42q33 -26 53 -68.5t20 -88.5q0 -86 -58 -141.5t-149 -55.5h-162v-271h-83zM166 340h153q59 0 95 35t36 93q0 57 -35 93t-90 36h-159v-257z" />
<glyph unicode="Q" horiz-adv-x="637" d="M164 40q-122 92 -122 291q0 157 76.5 253t200.5 96t200.5 -94.5t76.5 -249.5q0 -166 -92 -267q-46 -49 -116 -69v-16q0 -27 15 -45q20 -27 76 -27q38 0 74 6v-67q-39 -11 -72 -11q-74 0 -116 35q-38 33 -45 114q-55 4 -89 15t-67 36zM313 59q93 0 142 70q51 75 51 202 q0 133 -48.5 204.5t-137.5 71.5q-93 0 -139 -68q-50 -76 -50 -211q0 -126 48.5 -197.5t133.5 -71.5z" />
<glyph unicode="R" horiz-adv-x="613" d="M83 0v667h262q94 0 152.5 -52t58.5 -135q0 -72 -46 -123q-25 -29 -78 -48l131 -309h-88l-123 289h-191v-289h-78zM161 357h174q68 0 104 37q34 36 34 88t-34.5 82t-93.5 30h-184v-237z" />
<glyph unicode="S" horiz-adv-x="569" d="M87 54q-46 42 -77 124l75 16q46 -136 197 -136q74 0 117 32.5t43 89.5q0 37 -27 65t-75 40l-133 34q-75 19 -110 50q-54 51 -54 129q0 82 62 132t163 50q182 0 238 -164l-75 -21q-12 46 -42 72q-51 45 -124 45q-61 0 -101 -31t-40 -78q0 -40 25.5 -63.5t83.5 -37.5 l124 -30q172 -42 172 -184q0 -92 -67.5 -146.5t-180.5 -54.5q-123 0 -194 67z" />
<glyph unicode="T" horiz-adv-x="485" d="M201 0v594h-191v73h465v-73h-191v-594h-83z" />
<glyph unicode="U" horiz-adv-x="606" d="M113 66q-40 59 -40 165v436h83v-436q0 -86 27 -122q38 -49 124 -49q82 0 123 49q33 39 33 122v436h69v-436q0 -106 -45 -165q-59 -79 -187 -79q-132 0 -187 79z" />
<glyph unicode="V" horiz-adv-x="537" d="M228 0l-225 667h87l186 -550l184 550h73l-225 -667h-80z" />
<glyph unicode="W" horiz-adv-x="817" d="M188 0l-169 667h86l134 -540l142 540h67l153 -540l124 540h73l-160 -667h-84l-145 517l-136 -517h-85z" />
<glyph unicode="X" horiz-adv-x="520" d="M2 0l214 345l-191 322h93l147 -247l149 247h76l-187 -305l214 -362h-94l-169 284l-174 -284h-78z" />
<glyph unicode="Y" horiz-adv-x="510" d="M213 0v281l-223 386h98l177 -307l178 307h76l-223 -386v-281h-83z" />
<glyph unicode="Z" horiz-adv-x="521" d="M27 0v71l362 523h-345v68h442v-55l-366 -536h377v-71h-470z" />
<glyph unicode="[" horiz-adv-x="293" d="M79 -167v834h173v-50h-106v-731h106v-53h-173z" />
<glyph unicode="\" horiz-adv-x="454" d="M435 -167l-402 834h65l403 -834h-66z" />
<glyph unicode="]" horiz-adv-x="293" d="M41 -117h106v731h-106v53h173v-834h-173v50z" />
<glyph unicode="^" horiz-adv-x="500" d="M25 364l176 305h99l176 -305h-81l-145 246l-144 -246h-81z" />
<glyph unicode="_" horiz-adv-x="500" d="M0 -66h500v-67h-500v67z" />
<glyph unicode="`" horiz-adv-x="500" d="M295 570l-203 92l30 59l193 -112z" />
<glyph unicode="a" horiz-adv-x="529" d="M33 136q0 42 22.5 79t60.5 56q68 36 198 36q33 0 64 -2v16q0 62 -19 87q-30 40 -110 40q-112 0 -132 -90l-71 12q9 49 37 77q59 60 183 60q110 0 153 -58q33 -45 33 -144v-209q0 -55 11 -96h-76q-6 27 -9 89q-30 -55 -70 -78.5t-103 -23.5q-76 0 -124 41.5t-48 107.5z M115 134q0 -40 28.5 -64t76.5 -24q67 0 113 49t46 120q0 19 -1 32q-52 2 -65 2q-96 0 -147 -29.5t-51 -85.5z" />
<glyph unicode="b" horiz-adv-x="537" d="M77 0v667h77v-256q30 51 63.5 73t81.5 22q89 0 144.5 -71t55.5 -186t-57 -188.5t-146 -73.5q-97 0 -154 95l-28 -82h-37zM184 101q18 -23 46.5 -37t57.5 -14q59 0 94.5 51.5t35.5 137.5q0 99 -40 158q-31 46 -90 46q-54 0 -95 -46q-30 -35 -39 -93v-111q6 -59 30 -92z " />
<glyph unicode="c" horiz-adv-x="466" d="M246 -13q-95 0 -151.5 70.5t-56.5 188.5q0 117 58.5 188.5t153.5 71.5q76 0 124 -44t63 -128l-69 -13q-8 48 -26 75q-34 47 -93 47q-60 0 -95.5 -52.5t-35.5 -142.5q0 -93 34.5 -145.5t95.5 -52.5q94 0 120 123l69 -12q-9 -45 -21.5 -71t-36.5 -50q-52 -53 -133 -53z" />
<glyph unicode="d" horiz-adv-x="538" d="M235 -14q-87 0 -142.5 72t-55.5 184q0 117 56.5 191t145.5 74q46 0 79 -18.5t66 -62.5v241h77v-667h-70v84q-31 -53 -67 -75.5t-89 -22.5zM248 49q56 0 100 50q36 43 36 101v103q0 55 -29 92q-17 23 -46 37t-58 14q-59 0 -94.5 -53t-35.5 -141q0 -96 33.5 -149.5 t93.5 -53.5z" />
<glyph unicode="e" horiz-adv-x="520" d="M143 125q16 -34 51 -54.5t75 -20.5q64 0 103 45q15 16 30 52l71 -15q-24 -68 -79 -106.5t-130 -38.5q-101 0 -163.5 71t-62.5 186q0 116 64 189t165 73q62 0 111 -30t75 -84q28 -59 29 -152h-359q0 -74 20 -115zM127 297h271q-1 59 -28 98q-37 52 -102 52t-106 -52 q-28 -35 -35 -98z" />
<glyph unicode="f" horiz-adv-x="300" d="M90 0v433h-87v60h87q2 74 16 110q13 36 48 57t83 21q25 0 73 -7v-62q-29 7 -46 7q-76 0 -94 -47q-9 -24 -9 -79h120v-60h-120v-433h-71z" />
<glyph unicode="g" horiz-adv-x="491" d="M25 -56q0 69 75 98q-48 33 -48 80q0 30 15 49.5t53 37.5q-34 30 -49 60t-15 71q0 72 53.5 120t134.5 48q54 0 101 -23q7 42 31 64q22 22 83 22q10 0 20 -1v-61q-49 1 -69 -11t-25 -45q47 -55 47 -119q0 -72 -53 -118t-136 -46q-19 0 -34 3q-27 5 -32 5q-20 0 -36 -14.5 t-16 -32.5q0 -23 25 -36q20 -9 128 -13q76 -2 109.5 -8t56.5 -21q54 -35 54 -98q0 -141 -248 -141q-110 0 -167.5 33t-57.5 97zM245 229q48 0 79 30t31 76q0 48 -31 80t-78 32q-49 0 -80 -31t-31 -79q0 -49 30 -78.5t80 -29.5zM99 -48q0 -25 19 -42q45 -37 138 -37 q61 0 117 18q52 17 52 61q0 32 -34 47q-18 8 -36 10t-83 4q-77 2 -119 7q-30 -15 -42 -30t-12 -38z" />
<glyph unicode="h" horiz-adv-x="540" d="M77 0v667h77v-265q30 56 65.5 80.5t85.5 24.5q86 0 129 -65q19 -27 24.5 -54t5.5 -89v-299h-77v299q0 64 -10 89t-33.5 40t-52.5 15q-55 0 -96 -47t-41 -130v-266h-77z" />
<glyph unicode="i" horiz-adv-x="229" d="M73 582v85h83v-85h-83zM76 0v493h77v-493h-77z" />
<glyph unicode="j" horiz-adv-x="229" d="M70 582v85h87v-85h-87zM76 -16v515h77v-515q0 -155 -144 -155q-23 0 -70 10v61q33 -8 56 -8q43 0 62 21.5t19 70.5z" />
<glyph unicode="k" horiz-adv-x="501" d="M77 0v667h77v-427l229 253h82l-154 -174l174 -319h-80l-144 275l-107 -123v-152h-77z" />
<glyph unicode="l" horiz-adv-x="230" d="M77 0v667h77v-667h-77z" />
<glyph unicode="m" horiz-adv-x="814" d="M77 0v493h66v-95q55 108 152 108q51 0 87.5 -31t50.5 -87q51 118 156 118q39 0 72.5 -19t53.5 -51q23 -37 23 -130v-306h-75v306q0 63 -16 90q-12 20 -33.5 32t-45.5 12q-48 0 -88 -43q-38 -43 -38 -119v-278h-74v324q0 54 -23 83q-30 36 -74 36q-51 0 -86 -43t-35 -105 v-295h-73z" />
<glyph unicode="n" horiz-adv-x="542" d="M77 0v493h71v-91q38 59 72.5 81.5t85.5 22.5q97 0 142 -86q18 -35 18 -135v-285h-72v317q0 60 -26 91.5t-76 31.5q-59 0 -98.5 -48t-39.5 -121v-271h-77z" />
<glyph unicode="o" horiz-adv-x="519" d="M88 73q-50 73 -50 175q0 114 62 186t161 72q100 0 160 -72t60 -193q0 -111 -64 -182.5t-164 -71.5q-106 0 -165 86zM259 50q64 0 101 52t37 144q0 95 -35 143q-39 54 -104 54q-29 0 -57.5 -14.5t-44.5 -39.5q-34 -49 -34 -140q0 -95 36 -147t101 -52z" />
<glyph unicode="p" horiz-adv-x="534" d="M154 75v-242h-77v660h69v-96q29 57 66.5 83t89.5 26q87 0 141 -71.5t54 -187.5t-54.5 -188t-142.5 -72q-48 0 -81.5 20t-64.5 68zM154 179q9 -55 46.5 -92t84.5 -37q25 0 50 13t41 33q37 49 37 146q0 93 -34 145t-94 52q-46 0 -81 -32.5t-50 -89.5v-138z" />
<glyph unicode="q" horiz-adv-x="536" d="M233 -13q-88 0 -141.5 70.5t-53.5 185.5q0 118 56.5 191t146.5 73q51 0 83 -20t66 -75l30 88h39v-667h-77v257q-49 -103 -149 -103zM249 53q70 0 108 69q25 44 25 97v66q-5 46 -13 70.5t-27 45.5q-39 42 -92 42q-57 0 -92.5 -54.5t-35.5 -142.5q0 -89 34.5 -141t92.5 -52 z" />
<glyph unicode="r" horiz-adv-x="329" d="M77 0v493h67v-115q29 59 51 86q36 43 97 43q6 0 28 -2v-73q-70 6 -118 -43t-48 -128v-261h-77z" />
<glyph unicode="s" horiz-adv-x="464" d="M61 42q-35 30 -51 86l73 15q11 -39 32 -56q45 -37 121 -37q52 0 84 22t32 58q0 61 -85 76l-104 19q-63 11 -98 47t-35 89q0 65 51 105t135 40q157 0 194 -125l-70 -15q-34 77 -126 77q-48 0 -77 -20t-29 -53q0 -56 77 -69l97 -17q150 -27 150 -146q0 -68 -56 -109.5 t-147 -41.5q-104 0 -168 55z" />
<glyph unicode="t" horiz-adv-x="308" d="M86 136v297h-87v60h87l3 124l72 6v-130h111v-60h-111v-309q0 -77 80 -77q27 0 59 6v-61q-41 -6 -73 -6q-141 0 -141 150z" />
<glyph unicode="u" horiz-adv-x="541" d="M77 178v315h77v-315q0 -65 25 -94q28 -34 72 -34q57 0 97 48.5t40 116.5v278h77v-493h-69v94q-54 -107 -157 -107q-75 0 -118.5 51.5t-43.5 139.5z" />
<glyph unicode="v" horiz-adv-x="450" d="M188 0l-176 493h85l137 -401l136 401h68l-170 -493h-80z" />
<glyph unicode="w" horiz-adv-x="664" d="M167 0l-148 493h77l107 -367l103 367h56l110 -369l111 369h62l-142 -493h-62l-110 366l-101 -366h-63z" />
<glyph unicode="x" horiz-adv-x="424" d="M3 0l166 256l-150 237h88l106 -168l107 168h74l-144 -221l170 -272h-89l-125 200l-128 -200h-75z" />
<glyph unicode="y" horiz-adv-x="415" d="M14 -107q35 -7 51 -7q52 0 78 42q15 24 33 81l-171 484h78l132 -371l135 371h65l-198 -551q-25 -69 -68 -99q-26 -19 -77 -19q-23 0 -58 8v61z" />
<glyph unicode="z" horiz-adv-x="423" d="M33 0v59l262 374h-242v60h343v-42l-271 -392h271v-59h-363z" />
<glyph unicode="{" horiz-adv-x="293" d="M115 -24v160q0 41 -13 62t-44 29v48q31 8 44 28.5t13 59.5v173q0 69 32.5 100t105.5 31h21v-52q-54 -1 -73 -19t-19 -68v-169q0 -46 -13.5 -69.5t-48.5 -40.5q34 -16 48 -41.5t14 -70.5v-162q0 -53 18.5 -71t73.5 -19v-52h-21q-75 0 -106.5 32.5t-31.5 110.5z" />
<glyph unicode="|" horiz-adv-x="500" d="M213 -167v834h75v-834h-75z" />
<glyph unicode="}" horiz-adv-x="293" d="M112 -28v169q0 46 13.5 69.5t48.5 40.5q-34 16 -48 41.5t-14 70.5v162q0 53 -18.5 71t-73.5 19v52h21q75 0 106.5 -32.5t31.5 -110.5v-160q0 -41 13 -62t44 -29v-48q-31 -8 -44 -28.5t-13 -59.5v-173q0 -69 -32.5 -100t-105.5 -31h-21v52q54 1 73 19t19 68z" />
<glyph unicode="~" d="M97 257l-44 29q29 62 61 89t76 27q41 0 112 -34q66 -31 97 -31q28 0 48 15t42 52l45 -27q-28 -53 -56 -80q-35 -33 -82 -33q-40 0 -124 40q-55 26 -88 26q-25 0 -45 -16.5t-42 -56.5z" />
<glyph unicode="&#xa1;" horiz-adv-x="269" d="M84 390v103h102v-103h-102zM77 -167l38 501h41l36 -501h-115z" />
<glyph unicode="&#xa2;" d="M169 155q-73 67 -73 185q0 121 70 186q38 35 105 47v122h55v-122q61 -7 104 -48.5t54 -103.5l-67 -13q-8 43 -34.5 74.5t-56.5 33.5v-346q34 6 58.5 34.5t32.5 70.5l67 -10q-31 -136 -158 -155v-138h-55v138q-65 12 -102 45zM271 170v344q-46 -9 -72 -55.5t-26 -119.5 q0 -141 98 -169z" />
<glyph unicode="&#xa3;" d="M-2 0v72q11 1 24 1q51 1 77.5 9t50.5 31q42 41 42 108q0 32 -9 96l-107 -1v58h101q-9 55 -9 94q0 94 50.5 153t131.5 59q93 0 160 -91l-55 -42q-30 38 -51.5 52t-49.5 14q-43 0 -71 -33.5t-28 -83.5q0 -37 6 -85l4 -37h143v-58l-136 1q3 -53 3 -69q0 -60 -18 -100 t-60 -75h156q65 0 100 16.5t59 59.5l64 -41q-26 -52 -70.5 -80t-102.5 -28h-405z" />
<glyph unicode="&#xa4;" horiz-adv-x="667" d="M95 80l-44 45l95 95q-50 71 -50 143q0 68 49 140l-96 96l45 45l96 -96q44 30 74.5 40.5t69.5 10.5t69 -10.5t73 -39.5l96 95l45 -45l-96 -95q29 -45 39.5 -74.5t10.5 -67.5t-10.5 -68t-38.5 -73l96 -96l-44 -45l-96 96q-73 -50 -143 -50q-37 0 -68 10.5t-76 38.5z M333 193q70 0 119.5 49.5t49.5 119.5t-49 120t-117 50q-72 0 -121.5 -49.5t-49.5 -120.5q0 -70 49.5 -119.5t118.5 -49.5z" />
<glyph unicode="&#xa5;" d="M52 220v58l201 1l-44 77h-157v57h124l-147 254h98l177 -307l178 307h76l-146 -254h123v-57h-157l-43 -77l200 -1v-58h-201v-220h-80v220h-202z" />
<glyph unicode="&#xa6;" horiz-adv-x="500" d="M213 333v334h75v-334h-75zM213 153h75v-320h-75v320z" />
<glyph unicode="&#xa7;" d="M66 -35l86 12q18 -38 43 -58q47 -36 108 -36q59 0 99 30.5t40 75.5q0 67 -103 95l-101 27q-79 21 -115 55.5t-36 88.5q0 44 21.5 77t72.5 67q-43 25 -61.5 55.5t-18.5 73.5q0 70 51 111.5t137 41.5t144 -45q39 -28 58 -85l-74 -9q-36 83 -130 83q-49 0 -80 -24t-31 -61 q0 -72 119 -106l90 -25q57 -16 89.5 -52.5t32.5 -84.5q0 -36 -18.5 -66.5t-61.5 -67.5q95 -45 95 -137q0 -78 -64 -129.5t-161 -51.5q-104 0 -169 55q-38 32 -62 90zM164 278q0 -64 106 -94l96 -27q69 36 69 94q0 29 -24 54t-63 37l-108 33q-76 -41 -76 -97z" />
<glyph unicode="&#xa8;" horiz-adv-x="500" d="M326 587q-20 0 -35 15t-15 36t15 35.5t36 14.5q20 0 35 -15t15 -35q0 -21 -15 -36t-36 -15zM171 587q-21 0 -35.5 15t-14.5 35q0 21 14.5 35.5t35.5 14.5q20 0 35 -15t15 -35t-15 -35t-35 -15z" />
<glyph unicode="&#xa9;" horiz-adv-x="773" d="M42 336q0 142 102 242t248 100q139 0 239 -102t100 -242q0 -143 -100.5 -244t-243.5 -101q-144 0 -244.5 101t-100.5 246zM91 336q0 -124 86 -211t210 -87q122 0 208.5 87t86.5 209q0 120 -86.5 207.5t-204.5 87.5q-135 0 -224 -98q-76 -84 -76 -195zM206 337 q0 93 48.5 148.5t129.5 55.5q123 0 156 -132l-59 -11q-15 50 -38 72.5t-60 22.5q-51 0 -80.5 -43t-29.5 -118q0 -72 29.5 -115.5t78.5 -43.5q38 0 65 26t37 74l57 -12q-37 -136 -159 -136q-79 0 -127 58.5t-48 153.5z" />
<glyph unicode="&#xaa;" horiz-adv-x="349" d="M137 366q-50 0 -81.5 25.5t-31.5 66.5q0 26 15 48t40 35q43 21 125 21h35q1 43 -15 59.5t-59 16.5q-36 0 -53.5 -12t-24.5 -41l-55 9q6 27 16 40q35 46 125 46q67 0 95 -27.5t28 -94.5v-124q0 -29 8 -60h-59q-4 19 -5 40q-33 -48 -103 -48zM146 408q40 0 67 27.5t27 68.5 q0 9 -1 16l-35 1q-118 3 -118 -65q0 -22 16 -35t44 -13z" />
<glyph unicode="&#xab;" horiz-adv-x="344" d="M253 117l-85 143l84 138h45l-52 -138l52 -143h-44zM124 117l-84 143l84 138h44l-52 -138l52 -143h-44z" />
<glyph unicode="&#xac;" d="M77 199v67h433v-266h-75v199h-358z" />
<glyph unicode="&#xad;" horiz-adv-x="250" d="M15 220v60h221v-60h-221z" />
<glyph unicode="&#xae;" horiz-adv-x="773" d="M42 336q0 142 102 242t248 100q139 0 239 -102t100 -242q0 -143 -100.5 -244t-243.5 -101q-144 0 -244.5 101t-100.5 246zM91 336q0 -124 86 -211t210 -87q122 0 208.5 87t86.5 209q0 120 -86.5 207.5t-204.5 87.5q-135 0 -224 -98q-76 -84 -76 -195zM238 133v400h169 q60 0 98 -32t38 -82q0 -76 -77 -103l83 -183h-66l-76 170h-110v-170h-59zM297 350h103q37 0 58.5 19t21.5 51q0 29 -19.5 46t-53.5 17h-110v-133z" />
<glyph unicode="&#xaf;" horiz-adv-x="500" d="M98 604v53h303v-53h-303z" />
<glyph unicode="&#xb0;" d="M291 416q-53 0 -91.5 39t-38.5 93q0 55 39 93.5t94 38.5t93.5 -38.5t38.5 -93.5t-39.5 -93.5t-95.5 -38.5zM292 473q32 0 54.5 22t22.5 54q0 31 -22.5 53t-53.5 22t-53 -22.5t-22 -53.5t21.5 -53t52.5 -22z" />
<glyph unicode="&#xb1;" d="M257 95v205h-197v68h197v205h73v-205h197v-68h-197v-205h-73zM60 -20v68h467v-68h-467z" />
<glyph unicode="&#xb2;" horiz-adv-x="387" d="M40 267v45q154 110 197.5 153t43.5 87q0 33 -26 55t-64 22q-40 0 -66 -24.5t-31 -66.5l-55 16q31 121 153 121q63 0 105 -35t42 -87t-48 -104t-171 -135h220v-47h-300z" />
<glyph unicode="&#xb3;" horiz-adv-x="387" d="M186 259q-120 0 -161 102l55 17q14 -39 38.5 -55.5t70.5 -16.5q45 0 71.5 19.5t26.5 52.5q0 35 -28.5 54.5t-79.5 19.5h-51v45h51q44 0 68.5 17.5t24.5 48.5q0 29 -23 47.5t-60 18.5q-70 0 -96 -65l-53 14q41 97 153 97q60 0 99 -31t39 -78q0 -65 -68 -89q39 -9 61.5 -35 t22.5 -63q0 -53 -44.5 -86.5t-116.5 -33.5z" />
<glyph unicode="&#xb4;" horiz-adv-x="500" d="M206 570l-21 39l193 112l30 -59z" />
<glyph unicode="&#xb5;" d="M176 64v-231h-77v660h77v-277q0 -73 24 -110q33 -51 91 -51q65 0 97 56q22 37 22 112v270h77v-493h-70v77q-27 -50 -54.5 -70t-69.5 -20q-75 0 -117 77z" />
<glyph unicode="&#xb6;" d="M318 -167v521h-73q-95 0 -133 17q-76 36 -76 130q0 49 21 88.5t57 58.5q38 19 132 19h284v-47h-67v-787h-49v787h-47v-787h-49zM249 401h69v219h-54q-54 0 -79 -6t-41 -23q-27 -27 -27 -83q0 -57 31 -82t101 -25z" />
<glyph unicode="&#xb7;" horiz-adv-x="109" d="M0 199v109h109v-109h-109z" />
<glyph unicode="&#xb8;" horiz-adv-x="500" d="M188 -79l26 79h32l-13 -45q38 -2 58 -10q17 -7 28 -22.5t11 -33.5q0 -33 -25 -52t-69 -19q-48 0 -86 22l12 32q36 -18 68 -18q23 0 37 9.5t14 25.5q0 34 -60 34q-1 0 -33 -2z" />
<glyph unicode="&#xb9;" horiz-adv-x="387" d="M78 267v43h110v293q-53 -52 -113 -83v57q79 40 128 98h42v-365h102v-43h-269z" />
<glyph unicode="&#xba;" horiz-adv-x="344" d="M167 367q-62 0 -100.5 43.5t-38.5 114.5q0 68 40 111.5t104 43.5q65 0 104 -43.5t39 -115.5q0 -67 -41.5 -110.5t-106.5 -43.5zM171 411q38 0 59.5 30t21.5 82q0 53 -21.5 83t-59.5 30q-37 0 -58.5 -29.5t-21.5 -81.5q0 -54 21 -84t59 -30z" />
<glyph unicode="&#xbb;" horiz-adv-x="344" d="M176 117l52 138l-52 143h44l84 -143l-84 -138h-44zM47 117l52 138l-52 143h45l84 -143l-84 -138h-45z" />
<glyph unicode="&#xbc;" horiz-adv-x="880" d="M53 267v43h110v293q-53 -52 -113 -83v57q79 40 128 98h42v-365h102v-43h-269zM201 0l404 667h60l-403 -667h-61zM513 93v38l190 277h70v-269h68v-46h-68v-93h-57v93h-203zM576 139h140v183v30q-9 -17 -15 -25z" />
<glyph unicode="&#xbd;" horiz-adv-x="880" d="M46 267v43h110v293q-53 -52 -113 -83v57q79 40 128 98h42v-365h102v-43h-269zM194 0l404 667h60l-403 -667h-61zM538 0v45q154 110 197.5 153t43.5 87q0 33 -26 55t-64 22q-41 0 -66.5 -24.5t-29.5 -66.5l-56 15q31 122 153 122q63 0 105.5 -35t42.5 -87 q0 -51 -49 -104.5t-171 -134.5h221v-47h-301z" />
<glyph unicode="&#xbe;" horiz-adv-x="880" d="M181 259q-121 0 -161 102l55 17q14 -39 38.5 -55.5t70.5 -16.5q45 0 71.5 19.5t26.5 52.5q0 35 -28.5 54.5t-79.5 19.5h-51v45h51q44 0 68.5 17.5t24.5 48.5q0 29 -23 47.5t-60 18.5q-70 0 -96 -65l-53 14q41 97 153 97q60 0 99 -31t39 -78q0 -65 -68 -89q39 -9 61.5 -35 t22.5 -63q0 -53 -44.5 -86.5t-116.5 -33.5zM235 0l403 667h61l-403 -667h-61zM526 93v38l191 277h70v-269h67v-46h-67v-93h-57v93h-204zM589 139h141v183v30l-15 -25z" />
<glyph unicode="&#xbf;" horiz-adv-x="505" d="M227 397v96h99v-96h-99zM40 10q0 106 125 174q57 31 68.5 46.5t10.5 59.5q-1 20 -1 44h71q-1 -7 -1 -16v-51q0 -63 -32 -95q-12 -12 -45 -30l-38 -21q-71 -40 -71 -114q0 -52 38 -85.5t97 -33.5q72 0 112 50q25 31 39 94l72 -15q-14 -84 -60 -132q-61 -65 -167 -65 q-97 0 -157.5 52.5t-60.5 137.5z" />
<glyph unicode="&#xc0;" horiz-adv-x="551" d="M293 730l-202 86l30 58l193 -105zM3 0l216 667h96l217 -667h-86l-67 195h-247l-59 -195h-70zM156 258h205l-102 320z" />
<glyph unicode="&#xc1;" horiz-adv-x="551" d="M237 730l-21 39l193 105l30 -58zM3 0l216 667h96l217 -667h-86l-67 195h-247l-59 -195h-70zM156 258h205l-102 320z" />
<glyph unicode="&#xc2;" horiz-adv-x="551" d="M109 743l163 120l161 -120l-69 -10l-93 59l-90 -59zM3 0l216 667h96l217 -667h-86l-67 195h-247l-59 -195h-70zM156 258h205l-102 320z" />
<glyph unicode="&#xc3;" horiz-adv-x="551" d="M152 749l-41 29q42 62 109 62q17 0 27.5 -3t57.5 -23q21 -9 42 -9q27 0 60 26l37 -36q-31 -28 -52 -38.5t-48 -10.5q-16 0 -26.5 3.5t-56.5 23.5q-21 9 -45 9q-36 0 -64 -33zM3 0l216 667h96l217 -667h-86l-67 195h-247l-59 -195h-70zM156 258h205l-102 320z" />
<glyph unicode="&#xc4;" horiz-adv-x="551" d="M350 743q-20 0 -35 15t-15 36t15 35.5t36 14.5q20 0 35 -15t15 -35q0 -21 -15 -36t-36 -15zM195 743q-21 0 -35.5 15t-14.5 35q0 21 14.5 35.5t35.5 14.5q20 0 35 -15t15 -35t-15 -35t-35 -15zM3 0l216 667h96l217 -667h-86l-67 195h-247l-59 -195h-70zM156 258h205 l-102 320z" />
<glyph unicode="&#xc5;" horiz-adv-x="551" d="M265 711q-37 0 -63 26t-26 62q0 37 26 62.5t64 25.5q35 0 60.5 -26t25.5 -63q0 -36 -25.5 -61.5t-61.5 -25.5zM265 754q18 0 30.5 13t12.5 31q0 19 -12.5 32t-30.5 13q-19 0 -32 -13t-13 -31q0 -19 13 -32t32 -13zM3 0l216 667h96l217 -667h-86l-67 195h-247l-59 -195 h-70zM156 258h205l-102 320z" />
<glyph unicode="&#xc6;" horiz-adv-x="906" d="M-13 0l397 667h477v-69h-363v-216h293v-67h-293v-242h375v-73h-458v206h-224l-123 -206h-81zM227 271h188v323z" />
<glyph unicode="&#xc7;" horiz-adv-x="579" d="M223 -142q42 -19 76 -19q56 0 56 38t-66 38q-10 0 -37 -3l26 77q-106 13 -171 109t-65 242q0 155 75.5 247.5t201.5 92.5q188 0 240 -214l-78 -16q-25 84 -63.5 121.5t-99.5 37.5q-87 0 -136 -74t-49 -205q0 -125 49.5 -199t132.5 -74q36 0 69.5 16.5t53.5 44.5 q26 36 45 106l76 -17q-53 -219 -242 -221l-12 -38l17 1q38 2 63.5 -20t25.5 -54q0 -35 -28.5 -55.5t-77.5 -20.5t-94 24z" />
<glyph unicode="&#xc8;" horiz-adv-x="548" d="M343 730l-203 86l30 58l194 -105zM83 0v667h422v-73h-339v-213h269v-68h-269v-240h348v-73h-431z" />
<glyph unicode="&#xc9;" horiz-adv-x="548" d="M258 730l-21 39l193 105l30 -58zM83 0v667h422v-73h-339v-213h269v-68h-269v-240h348v-73h-431z" />
<glyph unicode="&#xca;" horiz-adv-x="548" d="M143 743l164 120l160 -120l-69 -10l-93 59l-90 -59zM83 0v667h422v-73h-339v-213h269v-68h-269v-240h348v-73h-431z" />
<glyph unicode="&#xcb;" horiz-adv-x="548" d="M385 743q-20 0 -35 15t-15 36t15 35.5t36 14.5q20 0 35 -15t15 -35q0 -21 -15 -36t-36 -15zM229 743q-21 0 -35.5 15t-14.5 35q0 21 14.5 35.5t35.5 14.5q20 0 35 -15t15 -35t-15 -35t-35 -15zM83 0v667h422v-73h-339v-213h269v-68h-269v-240h348v-73h-431z" />
<glyph unicode="&#xcc;" horiz-adv-x="250" d="M150 730l-183 88l30 56l173 -105zM84 0v667h83v-667h-83z" />
<glyph unicode="&#xcd;" horiz-adv-x="250" d="M101 730l-21 39l173 105l30 -56zM83 0v667h83v-667h-83z" />
<glyph unicode="&#xce;" horiz-adv-x="250" d="M54 733l-68 10l143 120l141 -120l-66 -10l-76 59zM83 0v667h83v-667h-83z" />
<glyph unicode="&#xcf;" horiz-adv-x="250" d="M194 743q-20 0 -35 15t-15 36t15 35.5t36 14.5q20 0 35 -15t15 -35q0 -21 -15 -36t-36 -15zM60 743q-21 0 -35.5 15t-14.5 35q0 21 14.5 35.5t35.5 14.5q20 0 35 -15t15 -35t-15 -35t-35 -15zM84 0v667h83v-667h-83z" />
<glyph unicode="&#xd0;" horiz-adv-x="647" d="M84 0v320h-67v67h67v280h222q121 0 198 -73q101 -96 101 -258q0 -145 -77.5 -240.5t-193.5 -95.5h-250zM167 71h135q94 0 146 55q34 35 53 91.5t19 118.5q0 125 -70 203q-54 58 -149 58h-134v-210h159v-67h-159v-249z" />
<glyph unicode="&#xd1;" horiz-adv-x="657" d="M219 749l-41 29q44 62 109 62q17 0 28 -3t58 -23q19 -9 41 -9q28 0 61 26l37 -36q-31 -28 -52.5 -38.5t-47.5 -10.5q-16 0 -26.5 3.5t-56.5 23.5q-21 9 -45 9q-36 0 -65 -33zM83 0v667h104l323 -544l-1 46q-1 25 -1 49v449h66v-667h-81l-345 581l1 -44q1 -22 1 -42v-495 h-67z" />
<glyph unicode="&#xd2;" horiz-adv-x="631" d="M350 730l-203 86l30 58l194 -105zM125 73q-83 101 -83 259q0 154 76.5 251t197.5 97q123 0 198 -95t75 -251q0 -158 -89 -263q-71 -84 -186 -84q-120 0 -189 86zM316 55q84 0 135 77t51 203q0 130 -49.5 203.5t-137.5 73.5q-85 0 -135.5 -76.5t-50.5 -204.5 q0 -125 51 -200.5t136 -75.5z" />
<glyph unicode="&#xd3;" horiz-adv-x="631" d="M281 730l-20 39l193 105l30 -58zM125 73q-83 101 -83 259q0 154 76.5 251t197.5 97q123 0 198 -95t75 -251q0 -158 -89 -263q-71 -84 -186 -84q-120 0 -189 86zM316 55q84 0 135 77t51 203q0 130 -49.5 203.5t-137.5 73.5q-85 0 -135.5 -76.5t-50.5 -204.5 q0 -125 51 -200.5t136 -75.5z" />
<glyph unicode="&#xd4;" horiz-adv-x="631" d="M160 743l164 120l160 -120l-69 -10l-93 59l-90 -59zM125 73q-83 101 -83 259q0 154 76.5 251t197.5 97q123 0 198 -95t75 -251q0 -158 -89 -263q-71 -84 -186 -84q-120 0 -189 86zM316 55q84 0 135 77t51 203q0 130 -49.5 203.5t-137.5 73.5q-85 0 -135.5 -76.5 t-50.5 -204.5q0 -125 51 -200.5t136 -75.5z" />
<glyph unicode="&#xd5;" horiz-adv-x="631" d="M210 749l-41 29q42 62 109 62q17 0 27.5 -3t57.5 -23q21 -9 42 -9q27 0 60 26l38 -36q-31 -28 -52.5 -38.5t-48.5 -10.5q-16 0 -26.5 3.5t-56.5 23.5q-21 9 -44 9q-37 0 -65 -33zM125 73q-83 101 -83 259q0 154 76.5 251t197.5 97q123 0 198 -95t75 -251q0 -158 -89 -263 q-71 -84 -186 -84q-120 0 -189 86zM316 55q84 0 135 77t51 203q0 130 -49.5 203.5t-137.5 73.5q-85 0 -135.5 -76.5t-50.5 -204.5q0 -125 51 -200.5t136 -75.5z" />
<glyph unicode="&#xd6;" horiz-adv-x="631" d="M395 743q-20 0 -35 15t-15 36t15 35.5t36 14.5q20 0 35 -15t15 -35q0 -21 -15 -36t-36 -15zM240 743q-21 0 -35.5 15t-14.5 35q0 21 14.5 35.5t35.5 14.5q20 0 35 -15t15 -35t-15 -35t-35 -15zM125 73q-83 101 -83 259q0 154 76.5 251t197.5 97q123 0 198 -95t75 -251 q0 -158 -89 -263q-71 -84 -186 -84q-120 0 -189 86zM316 55q84 0 135 77t51 203q0 130 -49.5 203.5t-137.5 73.5q-85 0 -135.5 -76.5t-50.5 -204.5q0 -125 51 -200.5t136 -75.5z" />
<glyph unicode="&#xd7;" d="M143 135l-48 48l151 151l-151 151l48 48l151 -151l150 151l48 -48l-151 -151l151 -151l-48 -48l-150 151z" />
<glyph unicode="&#xd8;" horiz-adv-x="631" d="M31 -24l77 118q-66 101 -66 237q0 156 76 252.5t198 96.5q88 0 160 -55l48 68h71l-77 -114q71 -95 71 -241q0 -154 -83 -260q-72 -92 -194 -92q-51 0 -87 13.5t-77 48.5l-47 -72h-70zM162 163l266 404q-45 45 -114 45q-84 0 -134.5 -76t-50.5 -201q0 -100 33 -172z M198 109q47 -55 117 -55q86 0 132 70q55 86 55 214q0 101 -36 177z" />
<glyph unicode="&#xd9;" horiz-adv-x="606" d="M334 730l-203 86l30 58l194 -105zM113 66q-40 59 -40 165v436h83v-436q0 -86 27 -122q38 -49 124 -49q82 0 123 49q33 39 33 122v436h69v-436q0 -106 -45 -165q-59 -79 -187 -79q-132 0 -187 79z" />
<glyph unicode="&#xda;" horiz-adv-x="606" d="M285 730l-21 39l194 105l30 -58zM113 66q-40 59 -40 165v436h83v-436q0 -86 27 -122q38 -49 124 -49q82 0 123 49q33 39 33 122v436h69v-436q0 -106 -45 -165q-59 -79 -187 -79q-132 0 -187 79z" />
<glyph unicode="&#xdb;" horiz-adv-x="606" d="M151 743l163 120l161 -120l-69 -10l-93 59l-90 -59zM113 66q-40 59 -40 165v436h83v-436q0 -86 27 -122q38 -49 124 -49q82 0 123 49q33 39 33 122v436h69v-436q0 -106 -45 -165q-59 -79 -187 -79q-132 0 -187 79z" />
<glyph unicode="&#xdc;" horiz-adv-x="606" d="M392 743q-20 0 -35 15t-15 36t15 35.5t36 14.5q20 0 35 -15t15 -35q0 -21 -15 -36t-36 -15zM237 743q-21 0 -35.5 15t-14.5 35q0 21 14.5 35.5t35.5 14.5q20 0 35 -15t15 -35t-15 -35t-35 -15zM113 66q-40 59 -40 165v436h83v-436q0 -86 27 -122q38 -49 124 -49 q82 0 123 49q33 39 33 122v436h69v-436q0 -106 -45 -165q-59 -79 -187 -79q-132 0 -187 79z" />
<glyph unicode="&#xdd;" horiz-adv-x="510" d="M234 730l-21 39l194 105l30 -58zM213 0v281l-223 386h98l177 -307l178 307h76l-223 -386v-281h-83z" />
<glyph unicode="&#xde;" horiz-adv-x="566" d="M83 0v667h83v-97h153q91 0 143 -41q33 -26 53 -69t20 -89q0 -86 -58 -141.5t-149 -55.5h-162v-174h-83zM166 243h153q59 0 95 35t36 93q0 57 -35 93t-90 36h-159v-257z" />
<glyph unicode="&#xdf;" horiz-adv-x="567" d="M77 -43v429h-52v62h52q6 92 34 146q25 49 73 77t109 28q78 0 131 -42t53 -103q0 -62 -54 -100t-143 -38q-19 0 -19 -9q0 -8 13.5 -15.5t56.5 -23.5q118 -44 164 -87.5t46 -112.5q0 -81 -59.5 -135t-149.5 -54q-42 0 -110 16l22 56q48 -10 77 -10q58 0 97 33.5t39 83.5 q0 30 -19 56t-52 40l-122 53q-76 33 -76 82q0 25 17 54q8 13 36 15q70 6 111 33t41 67q0 35 -28 56.5t-73 21.5q-64 0 -101 -43.5t-37 -118.5v-517h-77z" />
<glyph unicode="&#xe0;" horiz-adv-x="529" d="M309 570l-203 92l30 59l193 -112zM33 136q0 42 22.5 79t60.5 56q68 36 198 36q33 0 64 -2v16q0 62 -19 87q-30 40 -110 40q-112 0 -132 -90l-71 12q9 49 37 77q59 60 183 60q110 0 153 -58q33 -45 33 -144v-209q0 -55 11 -96h-76q-6 27 -9 89q-30 -55 -70 -78.5 t-103 -23.5q-76 0 -124 41.5t-48 107.5zM115 134q0 -40 28.5 -64t76.5 -24q67 0 113 49t46 120q0 19 -1 32q-52 2 -65 2q-96 0 -147 -29.5t-51 -85.5z" />
<glyph unicode="&#xe1;" horiz-adv-x="529" d="M230 570l-21 39l193 112l30 -59zM33 136q0 42 22.5 79t60.5 56q68 36 198 36q33 0 64 -2v16q0 62 -19 87q-30 40 -110 40q-112 0 -132 -90l-71 12q9 49 37 77q59 60 183 60q110 0 153 -58q33 -45 33 -144v-209q0 -55 11 -96h-76q-6 27 -9 89q-30 -55 -70 -78.5 t-103 -23.5q-76 0 -124 41.5t-48 107.5zM115 134q0 -40 28.5 -64t76.5 -24q67 0 113 49t46 120q0 19 -1 32q-52 2 -65 2q-96 0 -147 -29.5t-51 -85.5z" />
<glyph unicode="&#xe2;" horiz-adv-x="529" d="M103 583l163 127l161 -127l-69 -10l-93 66l-90 -66zM33 136q0 42 22.5 79t60.5 56q68 36 198 36q33 0 64 -2v16q0 62 -19 87q-30 40 -110 40q-112 0 -132 -90l-71 12q9 49 37 77q59 60 183 60q110 0 153 -58q33 -45 33 -144v-209q0 -55 11 -96h-76q-6 27 -9 89 q-30 -55 -70 -78.5t-103 -23.5q-76 0 -124 41.5t-48 107.5zM115 134q0 -40 28.5 -64t76.5 -24q67 0 113 49t46 120q0 19 -1 32q-52 2 -65 2q-96 0 -147 -29.5t-51 -85.5z" />
<glyph unicode="&#xe3;" horiz-adv-x="529" d="M138 593l-41 29q44 62 109 62q17 0 27.5 -3t57.5 -23q21 -9 42 -9q29 0 61 25l37 -35q-31 -28 -52.5 -38.5t-47.5 -10.5q-17 0 -27 3.5t-56 23.5q-21 9 -45 9q-36 0 -65 -33zM33 136q0 42 22.5 79t60.5 56q68 36 198 36q33 0 64 -2v16q0 62 -19 87q-30 40 -110 40 q-112 0 -132 -90l-71 12q9 49 37 77q59 60 183 60q110 0 153 -58q33 -45 33 -144v-209q0 -55 11 -96h-76q-6 27 -9 89q-30 -55 -70 -78.5t-103 -23.5q-76 0 -124 41.5t-48 107.5zM115 134q0 -40 28.5 -64t76.5 -24q67 0 113 49t46 120q0 19 -1 32q-52 2 -65 2 q-96 0 -147 -29.5t-51 -85.5z" />
<glyph unicode="&#xe4;" horiz-adv-x="529" d="M337 587q-20 0 -35 15t-15 36t15 35.5t36 14.5q20 0 35 -15t15 -35q0 -21 -15 -36t-36 -15zM182 587q-21 0 -35.5 15t-14.5 35q0 21 14.5 35.5t35.5 14.5q20 0 35 -15t15 -35t-15 -35t-35 -15zM33 136q0 42 22.5 79t60.5 56q68 36 198 36q33 0 64 -2v16q0 62 -19 87 q-30 40 -110 40q-112 0 -132 -90l-71 12q9 49 37 77q59 60 183 60q110 0 153 -58q33 -45 33 -144v-209q0 -55 11 -96h-76q-6 27 -9 89q-30 -55 -70 -78.5t-103 -23.5q-76 0 -124 41.5t-48 107.5zM115 134q0 -40 28.5 -64t76.5 -24q67 0 113 49t46 120q0 19 -1 32 q-52 2 -65 2q-96 0 -147 -29.5t-51 -85.5z" />
<glyph unicode="&#xe5;" horiz-adv-x="529" d="M268 563q-35 0 -60 25t-25 60t25.5 60t60.5 25q34 0 58.5 -25.5t24.5 -60.5t-24.5 -59.5t-59.5 -24.5zM268 603q18 0 31 13t13 32q0 18 -13 31.5t-30 13.5q-19 0 -32.5 -13t-13.5 -32q0 -18 13.5 -31.5t31.5 -13.5zM33 136q0 42 22.5 79t60.5 56q68 36 198 36q33 0 64 -2 v16q0 62 -19 87q-30 40 -110 40q-112 0 -132 -90l-71 12q9 49 37 77q59 60 183 60q110 0 153 -58q33 -45 33 -144v-209q0 -55 11 -96h-76q-6 27 -9 89q-30 -55 -70 -78.5t-103 -23.5q-76 0 -124 41.5t-48 107.5zM115 134q0 -40 28.5 -64t76.5 -24q67 0 113 49t46 120 q0 19 -1 32q-52 2 -65 2q-96 0 -147 -29.5t-51 -85.5z" />
<glyph unicode="&#xe6;" horiz-adv-x="841" d="M31 133q0 45 23.5 82t66.5 58q66 32 184 32q21 0 66 -3q1 12 1 32q0 115 -126 115q-49 0 -81.5 -23t-42.5 -64l-73 13q15 55 53 84q61 47 159 47q60 0 98 -16t69 -55q65 71 160 71q120 0 179 -106q29 -52 35 -162h-357q0 -77 25 -120q18 -31 51 -49.5t71 -18.5 q46 0 77.5 22.5t54.5 72.5l69 -13q-23 -68 -77.5 -106.5t-129.5 -38.5q-68 0 -115.5 30t-83.5 95q-51 -126 -184 -126q-77 0 -124.5 40.5t-47.5 106.5zM448 295h270q-3 71 -37.5 111t-92.5 40q-59 0 -97 -40.5t-43 -110.5zM115 138q0 -38 27 -63t69 -25q77 0 124 61 q34 43 34 108v26q-44 5 -67 5q-87 0 -137 -30t-50 -82z" />
<glyph unicode="&#xe7;" horiz-adv-x="466" d="M192 -80l22 68q-82 13 -129 81.5t-47 175.5q0 118 58.5 189.5t153.5 71.5q76 0 124 -44t63 -128l-69 -13q-8 48 -26 75q-34 47 -93 47q-60 0 -95.5 -52.5t-35.5 -142.5q0 -93 34.5 -145.5t95.5 -52.5q94 0 120 122l69 -12q-13 -81 -64.5 -128t-125.5 -46l-9 -32 q36 -1 57 -9q17 -7 28 -22.5t11 -33.5q0 -33 -25 -52t-68 -19q-49 0 -87 22l12 31q37 -17 68 -17q23 0 37 9.5t14 25.5q0 34 -59 34q-10 0 -34 -3z" />
<glyph unicode="&#xe8;" horiz-adv-x="520" d="M315 570l-203 92l30 59l193 -112zM143 125q16 -34 51 -54.5t75 -20.5q64 0 103 45q15 16 30 52l71 -15q-24 -68 -79 -106.5t-130 -38.5q-101 0 -163.5 71t-62.5 186q0 116 64 189t165 73q62 0 111 -30t75 -84q28 -59 29 -152h-359q0 -74 20 -115zM127 297h271 q-1 59 -28 98q-37 52 -102 52t-106 -52q-28 -35 -35 -98z" />
<glyph unicode="&#xe9;" horiz-adv-x="520" d="M229 570l-21 39l193 112l30 -59zM143 125q16 -34 51 -54.5t75 -20.5q64 0 103 45q15 16 30 52l71 -15q-24 -68 -79 -106.5t-130 -38.5q-101 0 -163.5 71t-62.5 186q0 116 64 189t165 73q62 0 111 -30t75 -84q28 -59 29 -152h-359q0 -74 20 -115zM127 297h271 q-1 59 -28 98q-37 52 -102 52t-106 -52q-28 -35 -35 -98z" />
<glyph unicode="&#xea;" horiz-adv-x="520" d="M108 583l163 127l161 -127l-69 -10l-93 66l-90 -66zM143 125q16 -34 51 -54.5t75 -20.5q64 0 103 45q15 16 30 52l71 -15q-24 -68 -79 -106.5t-130 -38.5q-101 0 -163.5 71t-62.5 186q0 116 64 189t165 73q62 0 111 -30t75 -84q28 -59 29 -152h-359q0 -74 20 -115z M127 297h271q-1 59 -28 98q-37 52 -102 52t-106 -52q-28 -35 -35 -98z" />
<glyph unicode="&#xeb;" horiz-adv-x="520" d="M344 587q-20 0 -35 15t-15 36t15 35.5t36 14.5q20 0 35 -15t15 -35q0 -21 -15 -36t-36 -15zM195 587q-21 0 -35.5 15t-14.5 35q0 21 14.5 35.5t35.5 14.5q20 0 35 -15t15 -35t-15 -35t-35 -15zM143 125q16 -34 51 -54.5t75 -20.5q64 0 103 45q15 16 30 52l71 -15 q-24 -68 -79 -106.5t-130 -38.5q-101 0 -163.5 71t-62.5 186q0 116 64 189t165 73q62 0 111 -30t75 -84q28 -59 29 -152h-359q0 -74 20 -115zM127 297h271q-1 59 -28 98q-37 52 -102 52t-106 -52q-28 -35 -35 -98z" />
<glyph unicode="&#xec;" horiz-adv-x="229" d="M133 570l-165 98l31 53l157 -112zM76 0v493h77v-493h-77z" />
<glyph unicode="&#xed;" horiz-adv-x="229" d="M99 570l-23 39l157 112l31 -53zM76 0v493h77v-493h-77z" />
<glyph unicode="&#xee;" horiz-adv-x="229" d="M52 573l-66 10l133 127l131 -127l-64 -10l-68 66zM76 0v493h77v-493h-77z" />
<glyph unicode="&#xef;" horiz-adv-x="229" d="M183 587q-20 0 -35 15t-15 36t15 35.5t36 14.5q20 0 35 -15t15 -35q0 -21 -15 -36t-36 -15zM49 587q-21 0 -35.5 15t-14.5 35q0 21 14.5 35.5t35.5 14.5q20 0 35 -15t15 -35t-15 -35t-35 -15zM76 0v493h77v-493h-77z" />
<glyph unicode="&#xf0;" horiz-adv-x="518" d="M80 83q-42 72 -42 157q0 106 60.5 179.5t147.5 73.5q66 0 119 -56q-23 76 -82 138l-85 -50l-30 43l72 43q-30 22 -80 46l37 40q57 -19 101 -52l86 48l34 -42l-74 -42q135 -138 135 -347q0 -150 -78 -220q-62 -56 -145 -56q-119 0 -176 97zM259 49q62 0 99 51t37 137 q0 87 -37.5 140t-99.5 53t-99 -51t-37 -136q0 -91 36.5 -142.5t100.5 -51.5z" />
<glyph unicode="&#xf1;" horiz-adv-x="542" d="M159 593l-41 29q44 62 109 62q17 0 28 -3t57 -23q21 -9 42 -9q29 0 61 25l37 -35q-31 -28 -52.5 -38.5t-47.5 -10.5q-16 0 -26.5 3.5t-56.5 23.5q-21 9 -45 9q-36 0 -65 -33zM77 0v493h71v-91q38 59 72.5 81.5t85.5 22.5q97 0 142 -86q18 -35 18 -135v-285h-72v317 q0 60 -26 91.5t-76 31.5q-59 0 -98.5 -48t-39.5 -121v-271h-77z" />
<glyph unicode="&#xf2;" horiz-adv-x="519" d="M301 570l-203 92l30 59l193 -112zM88 73q-50 73 -50 175q0 114 62 186t161 72q100 0 160 -72t60 -193q0 -111 -64 -182.5t-164 -71.5q-106 0 -165 86zM259 50q64 0 101 52t37 144q0 95 -35 143q-39 54 -104 54q-29 0 -57.5 -14.5t-44.5 -39.5q-34 -49 -34 -140 q0 -95 36 -147t101 -52z" />
<glyph unicode="&#xf3;" horiz-adv-x="519" d="M219 570l-21 39l193 112l30 -59zM88 73q-50 73 -50 175q0 114 62 186t161 72q100 0 160 -72t60 -193q0 -111 -64 -182.5t-164 -71.5q-106 0 -165 86zM259 50q64 0 101 52t37 144q0 95 -35 143q-39 54 -104 54q-29 0 -57.5 -14.5t-44.5 -39.5q-34 -49 -34 -140 q0 -95 36 -147t101 -52z" />
<glyph unicode="&#xf4;" horiz-adv-x="519" d="M104 583l163 127l161 -127l-69 -10l-93 66l-90 -66zM88 73q-50 73 -50 175q0 114 62 186t161 72q100 0 160 -72t60 -193q0 -111 -64 -182.5t-164 -71.5q-106 0 -165 86zM259 50q64 0 101 52t37 144q0 95 -35 143q-39 54 -104 54q-29 0 -57.5 -14.5t-44.5 -39.5 q-34 -49 -34 -140q0 -95 36 -147t101 -52z" />
<glyph unicode="&#xf5;" horiz-adv-x="519" d="M157 593l-41 29q44 62 109 62q17 0 28 -3t57 -23q21 -9 42 -9q29 0 61 25l37 -35q-31 -28 -52.5 -38.5t-47.5 -10.5q-16 0 -26.5 3.5t-56.5 23.5q-21 9 -45 9q-36 0 -65 -33zM88 73q-50 73 -50 175q0 114 62 186t161 72q100 0 160 -72t60 -193q0 -111 -64 -182.5 t-164 -71.5q-106 0 -165 86zM259 50q64 0 101 52t37 144q0 95 -35 143q-39 54 -104 54q-29 0 -57.5 -14.5t-44.5 -39.5q-34 -49 -34 -140q0 -95 36 -147t101 -52z" />
<glyph unicode="&#xf6;" horiz-adv-x="519" d="M342 587q-20 0 -35 15t-15 36t15 35.5t36 14.5q20 0 35 -15t15 -35q0 -21 -15 -36t-36 -15zM187 587q-21 0 -35.5 15t-14.5 35q0 21 14.5 35.5t35.5 14.5q20 0 35 -15t15 -35t-15 -35t-35 -15zM88 73q-50 73 -50 175q0 114 62 186t161 72q100 0 160 -72t60 -193 q0 -111 -64 -182.5t-164 -71.5q-106 0 -165 86zM259 50q64 0 101 52t37 144q0 95 -35 143q-39 54 -104 54q-29 0 -57.5 -14.5t-44.5 -39.5q-34 -49 -34 -140q0 -95 36 -147t101 -52z" />
<glyph unicode="&#xf7;" d="M293 437q-19 0 -33 13.5t-14 33.5t14 33.5t34 13.5q19 0 32.5 -14t13.5 -33q0 -20 -14 -33.5t-33 -13.5zM60 300v68h467v-68h-467zM246 189q0 20 14 33.5t34 13.5q19 0 32.5 -14t13.5 -33t-14 -33t-33 -14t-33 14t-14 33z" />
<glyph unicode="&#xf8;" horiz-adv-x="519" d="M18 -27l71 98q-50 76 -50 178q0 114 62 185.5t162 71.5q70 0 124 -39l44 58h69l-73 -97q54 -74 54 -181q0 -116 -63.5 -188t-165.5 -72q-72 0 -125 42l-43 -56h-66zM141 135l198 278q-37 30 -80 30q-29 0 -56.5 -14t-43.5 -37q-36 -51 -36 -143q0 -64 18 -114zM175 85 q36 -35 84 -35q63 0 100.5 52t37.5 140q0 81 -22 126z" />
<glyph unicode="&#xf9;" horiz-adv-x="541" d="M302 570l-203 92l30 59l193 -112zM77 178v315h77v-315q0 -65 25 -94q28 -34 72 -34q57 0 97 48.5t40 116.5v278h77v-493h-69v94q-54 -107 -157 -107q-75 0 -118.5 51.5t-43.5 139.5z" />
<glyph unicode="&#xfa;" horiz-adv-x="541" d="M237 570l-21 39l193 112l30 -59zM77 178v315h77v-315q0 -65 25 -94q28 -34 72 -34q57 0 97 48.5t40 116.5v278h77v-493h-69v94q-54 -107 -157 -107q-75 0 -118.5 51.5t-43.5 139.5z" />
<glyph unicode="&#xfb;" horiz-adv-x="541" d="M112 583l163 127l161 -127l-69 -10l-93 66l-90 -66zM77 178v315h77v-315q0 -65 25 -94q28 -34 72 -34q57 0 97 48.5t40 116.5v278h77v-493h-69v94q-54 -107 -157 -107q-75 0 -118.5 51.5t-43.5 139.5z" />
<glyph unicode="&#xfc;" horiz-adv-x="541" d="M354 587q-20 0 -35 15t-15 36t15 35.5t36 14.5q20 0 35 -15t15 -35q0 -21 -15 -36t-36 -15zM199 587q-21 0 -35.5 15t-14.5 35q0 21 14.5 35.5t35.5 14.5q20 0 35 -15t15 -35t-15 -35t-35 -15zM77 178v315h77v-315q0 -65 25 -94q28 -34 72 -34q57 0 97 48.5t40 116.5v278 h77v-493h-69v94q-54 -107 -157 -107q-75 0 -118.5 51.5t-43.5 139.5z" />
<glyph unicode="&#xfd;" horiz-adv-x="415" d="M189 570l-21 39l193 112l30 -59zM14 -107q35 -7 51 -7q52 0 78 42q15 24 33 81l-171 484h78l132 -371l135 371h65l-198 -551q-25 -69 -68 -99q-26 -19 -77 -19q-23 0 -58 8v61z" />
<glyph unicode="&#xfe;" horiz-adv-x="534" d="M154 75v-242h-77v834h77v-260q55 99 150 99q86 0 139.5 -72t53.5 -187q0 -116 -54.5 -188t-142.5 -72q-48 0 -81.5 20t-64.5 68zM154 179q9 -55 46.5 -92t84.5 -37q25 0 50 13t41 33q37 49 37 146q0 93 -34 145t-94 52q-46 0 -81 -32.5t-50 -89.5v-138z" />
<glyph unicode="&#xff;" horiz-adv-x="415" d="M296 587q-20 0 -35 15t-15 36t15 35.5t36 14.5q20 0 35 -15t15 -35q0 -21 -15 -36t-36 -15zM141 587q-21 0 -35.5 15t-14.5 35q0 21 14.5 35.5t35.5 14.5q20 0 35 -15t15 -35t-15 -35t-35 -15zM14 -107q35 -7 51 -7q52 0 78 42q15 24 33 81l-171 484h78l132 -371l135 371 h65l-198 -551q-25 -69 -68 -99q-26 -19 -77 -19q-23 0 -58 8v61z" />
<glyph unicode="&#x152;" horiz-adv-x="963" d="M329 -13q-126 0 -207 96.5t-81 247.5q0 154 81.5 251.5t209.5 97.5q57 0 96.5 -18.5t78.5 -62.5v68h423v-68h-335v-218h270v-66h-270v-245h335v-70h-423v70q-38 -44 -79 -63.5t-99 -19.5zM330 55q86 0 138 58q23 25 39 81v292q-14 58 -61 92t-113 34q-94 0 -149.5 -75.5 t-55.5 -203.5q0 -126 55 -202t147 -76z" />
<glyph unicode="&#x153;" horiz-adv-x="853" d="M38 246q0 114 63.5 187t163.5 73q96 0 170 -84q41 45 80 64.5t91 19.5q122 0 178 -112q27 -55 31 -153h-347v-11q0 -63 22 -106q16 -31 49.5 -51t71.5 -20q85 0 127 95l69 -13q-20 -55 -49 -85q-61 -63 -153 -63q-99 0 -170 85q-74 -85 -175 -85q-99 0 -160.5 71.5 t-61.5 187.5zM470 298h263q-3 68 -37 108t-90 40q-74 0 -112 -64q-19 -32 -24 -84zM162 95q41 -47 100 -47q70 0 108 59q31 48 31 137q0 96 -35 146.5t-102 50.5q-68 0 -104 -51t-36 -149q0 -102 38 -146z" />
<glyph unicode="&#x178;" horiz-adv-x="510" d="M344 743q-20 0 -35 15t-15 36t15 35.5t36 14.5q20 0 35 -15t15 -35q0 -21 -15 -36t-36 -15zM189 743q-21 0 -35.5 15t-14.5 35q0 21 14.5 35.5t35.5 14.5q20 0 35 -15t15 -35t-15 -35t-35 -15zM213 0v281l-223 386h98l177 -307l178 307h76l-223 -386v-281h-83z" />
<glyph unicode="&#x2c6;" horiz-adv-x="500" d="M88 583l163 127l161 -127l-69 -10l-93 66l-90 -66z" />
<glyph unicode="&#x2dc;" horiz-adv-x="500" d="M124 593l-41 29q44 62 109 62q17 0 27.5 -3t57.5 -23q21 -9 42 -9q29 0 61 25l37 -35q-31 -28 -52.5 -38.5t-47.5 -10.5q-17 0 -27 3.5t-56 23.5q-21 9 -45 9q-36 0 -65 -33z" />
<glyph unicode="&#x2000;" horiz-adv-x="443" />
<glyph unicode="&#x2001;" horiz-adv-x="887" />
<glyph unicode="&#x2002;" horiz-adv-x="443" />
<glyph unicode="&#x2003;" horiz-adv-x="887" />
<glyph unicode="&#x2004;" horiz-adv-x="295" />
<glyph unicode="&#x2005;" horiz-adv-x="221" />
<glyph unicode="&#x2006;" horiz-adv-x="147" />
<glyph unicode="&#x2007;" horiz-adv-x="147" />
<glyph unicode="&#x2008;" horiz-adv-x="110" />
<glyph unicode="&#x2009;" horiz-adv-x="177" />
<glyph unicode="&#x200a;" horiz-adv-x="49" />
<glyph unicode="&#x2010;" horiz-adv-x="250" d="M15 220v60h221v-60h-221z" />
<glyph unicode="&#x2011;" horiz-adv-x="250" d="M15 220v60h221v-60h-221z" />
<glyph unicode="&#x2013;" d="M98 220v60h389v-60h-389z" />
<glyph unicode="&#x2014;" horiz-adv-x="667" d="M2 220v60h663v-60h-663z" />
<glyph unicode="&#x2018;" horiz-adv-x="250" d="M75 451v99l66 117h34l-48 -117h48v-99h-100z" />
<glyph unicode="&#x2019;" horiz-adv-x="250" d="M75 451l48 117h-48v99h100v-99l-66 -117h-34z" />
<glyph unicode="&#x201a;" horiz-adv-x="250" d="M75 0v99h100v-99l-66 -117h-34l48 117h-48z" />
<glyph unicode="&#x201c;" horiz-adv-x="401" d="M221 453v83l79 131h36l-57 -118h40v-96h-98zM75 453v83l76 131h35l-55 -118h40v-96h-96z" />
<glyph unicode="&#x201d;" horiz-adv-x="401" d="M220 453l55 118h-40v96h96v-83l-76 -131h-35zM70 453l57 118h-40v96h98v-83l-79 -131h-36z" />
<glyph unicode="&#x201e;" horiz-adv-x="401" d="M235 0v96h96v-83l-76 -130h-35l55 117h-40zM87 0v96h98v-83l-79 -130h-36l57 117h-40z" />
<glyph unicode="&#x2022;" horiz-adv-x="667" d="M335 200q-58 0 -98.5 40.5t-40.5 97.5q0 58 40.5 98.5t99.5 40.5q56 0 96.5 -41t40.5 -98t-40.5 -97.5t-97.5 -40.5z" />
<glyph unicode="&#x2026;" horiz-adv-x="745" d="M566 0v109h109v-109h-109zM319 0v109h108v-109h-108zM70 0v109h109v-109h-109z" />
<glyph unicode="&#x202f;" horiz-adv-x="177" />
<glyph unicode="&#x2039;" horiz-adv-x="214" d="M124 117l-84 143l84 138h44l-52 -138l52 -143h-44z" />
<glyph unicode="&#x203a;" horiz-adv-x="214" d="M47 117l52 138l-52 143h44l84 -143l-84 -138h-44z" />
<glyph unicode="&#x205f;" horiz-adv-x="221" />
<glyph unicode="&#x20ac;" horiz-adv-x="593" d="M41 254l18 58h42v22v14h-60l18 58h47q22 130 92.5 202t176.5 72q104 0 177 -71l-28 -92q-52 95 -150 95q-71 0 -117.5 -53t-62.5 -153h293l-18 -57l-280 -1q-1 -13 -1 -18q0 -6 1 -18h267l-18 -58h-244q16 -94 63.5 -146.5t117.5 -52.5q96 0 149 101v-120 q-59 -49 -151 -49q-106 0 -175.5 70t-90.5 197h-66z" />
<glyph unicode="&#x2122;" horiz-adv-x="777" d="M336 287v380h84l116 -288l114 288h83v-380h-59v302l-121 -302h-42l-122 302v-302h-53zM115 287v332h-114v48h290v-48h-115v-332h-61z" />
</font>
</defs>
</svg>
