<?xml version="1.0" standalone="no"?>
<!DOCTYPE svg PUBLIC "-//W3C//DTD SVG 1.1//EN" "http://www.w3.org/Graphics/SVG/1.1/DTD/svg11.dtd" >
<svg xmlns="http://www.w3.org/2000/svg">
<metadata>
This is a custom SVG webfont generated by Fontspring.
Designer    : FontSite.com
Foundry URL : http://www.fontsite.com
</metadata>
<defs>
<font id="webfontHR7s6tLP" horiz-adv-x="500" >
<font-face units-per-em="1000" ascent="822" descent="-178" />
<missing-glyph horiz-adv-x="250" />
<glyph unicode=" "  horiz-adv-x="250" />
<glyph unicode="&#x09;" horiz-adv-x="250" />
<glyph unicode="&#xa0;" horiz-adv-x="250" />
<glyph unicode="!" horiz-adv-x="273" d="M117 167v40q0 44 -5.5 71t-21.5 69q-19 46 -19 64q0 29 18.5 47.5t47.5 18.5q28 0 46.5 -19t18.5 -47q0 -18 -19 -64q-27 -67 -27 -140v-40h-39zM73 51q0 26 18.5 44.5t44.5 18.5q27 0 45.5 -18.5t18.5 -44.5q0 -27 -18.5 -45.5t-44.5 -18.5q-27 0 -45.5 18.5t-18.5 45.5 z" />
<glyph unicode="&#x22;" horiz-adv-x="331" d="M223 433q-4 43 -20 106q-17 63 -17 85q0 25 15 40.5t38 15.5t37.5 -16t14.5 -41q0 -22 -22 -107q-11 -42 -15 -83h-31zM77 433q-4 43 -20 106q-17 63 -17 85q0 25 15 40.5t38 15.5t37.5 -16t14.5 -41q0 -22 -22 -107q-11 -42 -15 -83h-31z" />
<glyph unicode="#" horiz-adv-x="495" d="M97 0l38 170h-95l10 60h99l28 131h-92l9 59h96l33 149h37l-32 -149h105l32 149h38l-31 -149h83l-9 -59h-88l-28 -131h83l-10 -60h-87l-36 -170h-39l38 170h-107l-37 -170h-38zM187 230h105l29 131h-106z" />
<glyph unicode="$" d="M52 94q0 22 15.5 35t39.5 13q20 0 34.5 -10.5t14.5 -24.5q0 -13 -17 -24q-15 -8 -15 -19q1 -17 31 -30t75 -16v193q-87 23 -113 39q-55 35 -55 98q0 56 47.5 93t120.5 38v61h37v-61q66 -4 109 -30.5t43 -64.5q0 -19 -15.5 -31.5t-40.5 -12.5q-20 0 -34 10t-14 24 q0 12 13 26q7 6 7 13q0 26 -68 37v-173q97 -22 138.5 -56t41.5 -92t-48.5 -96.5t-131.5 -45.5v-62h-37v61q-77 3 -127.5 34t-50.5 74zM230 283v167q-48 -2 -76.5 -23.5t-28.5 -55.5q0 -31 23.5 -51t81.5 -37zM267 18q52 5 82.5 29.5t30.5 59.5q0 36 -25.5 57t-87.5 38v-184z " />
<glyph unicode="%" horiz-adv-x="595" d="M163 248q-46 0 -81.5 50.5t-35.5 116.5q0 64 35.5 114.5t81.5 50.5t81.5 -50t35.5 -115q0 -66 -35.5 -116.5t-81.5 -50.5zM113 -3l331 575h43l-330 -575h-44zM163 272q58 0 58 143q0 141 -58 141t-58 -141q0 -143 58 -143zM317 152q0 65 36 115.5t82 50.5t81 -50.5 t35 -115.5q0 -64 -35.5 -114.5t-80.5 -50.5q-46 0 -82 50.5t-36 114.5zM375 152q0 -141 60 -141q58 0 58 141q0 142 -58 142q-60 0 -60 -142z" />
<glyph unicode="&#x26;" horiz-adv-x="579" d="M38 120q0 46 38.5 84.5t107.5 61.5q-27 66 -27 97q0 50 36 82t92 32q50 0 82 -26.5t32 -67.5q0 -58 -60 -88q-23 -12 -71 -34q29 -65 97 -160q58 55 58 107q0 20 -13.5 28.5t-44.5 8.5v37h173v-37q-34 -2 -46 -12.5t-26 -50.5q-21 -62 -75 -113q25 -28 52 -28q39 0 78 58 l32 -18q-55 -94 -128 -94q-27 0 -45.5 8.5t-41.5 32.5q-68 -41 -132 -41q-72 0 -120 38t-48 95zM252 293q40 20 64 47t24 51q0 23 -15 38t-38 15q-27 0 -44.5 -19.5t-17.5 -48.5q0 -30 27 -83zM122 136q0 -43 29 -72t72 -29q44 0 85 25q-35 40 -54.5 71t-53.5 100 q-78 -40 -78 -95z" />
<glyph unicode="'" horiz-adv-x="185" d="M77 433q-4 43 -20 106q-17 63 -17 85q0 25 15 40.5t38 15.5t37.5 -16t14.5 -41q0 -22 -22 -107q-11 -42 -15 -83h-31z" />
<glyph unicode="(" horiz-adv-x="333" d="M135 49q-82 117 -82 284q0 190 111 323q58 70 126 107v-36q-83 -75 -119.5 -166.5t-36.5 -227.5q0 -135 36.5 -227t119.5 -166v-37q-89 48 -155 146z" />
<glyph unicode=")" horiz-adv-x="333" d="M43 -60q83 74 119.5 166t36.5 227q0 136 -36.5 227.5t-119.5 166.5v36q90 -49 155 -145q82 -119 82 -285q0 -189 -111 -323q-55 -67 -126 -107v37z" />
<glyph unicode="*" horiz-adv-x="439" d="M141 376q-14 0 -23.5 10.5t-9.5 25.5q0 17 8 26.5t36 27.5q24 15 45 43q-31 8 -48 8h-13q-10 -1 -24 -1q-22 0 -36.5 11.5t-14.5 28.5q0 15 11 25t28 10q12 0 20.5 -4.5t30.5 -22.5q21 -17 55 -29q-3 38 -12 60q-12 32 -12 43q0 17 11 29.5t27 12.5q15 0 26 -12.5 t11 -29.5q0 -11 -13 -43q-10 -26 -11 -60q32 11 54 29t31 22.5t20 4.5q17 0 28.5 -10t11.5 -25q0 -17 -14 -29t-36 -12q-14 0 -22 1q-7 1 -17 1q-16 0 -48 -8q24 -29 45 -43q29 -18 36.5 -27.5t7.5 -26.5q0 -15 -9.5 -25.5t-23.5 -10.5q-21 0 -31.5 12.5t-19.5 48.5 q-7 26 -27 56q-21 -33 -26 -56q-9 -36 -20 -48.5t-32 -12.5z" />
<glyph unicode="+" horiz-adv-x="495" d="M222 116v184h-182v47h182v184h51v-184h182v-47h-182v-184h-51z" />
<glyph unicode="," horiz-adv-x="247" d="M64 58q0 24 17 40t42 16q28 0 45.5 -21t17.5 -54q0 -41 -25 -83t-84 -100l-24 25l40 47q23 26 23 48q0 15 -20 27q-32 20 -32 55z" />
<glyph unicode="-" horiz-adv-x="193" d="M0 185v71h193v-71h-193z" />
<glyph unicode="." horiz-adv-x="247" d="M60 50q0 27 18.5 45.5t44.5 18.5q27 0 45.5 -18.5t18.5 -44.5q0 -27 -18.5 -45.5t-44.5 -18.5q-27 0 -45.5 18.5t-18.5 44.5z" />
<glyph unicode="/" horiz-adv-x="336" d="M40 0l201 667h55l-203 -667h-53z" />
<glyph unicode="0" horiz-adv-x="521" d="M40 232q0 98 65.5 171t154.5 73t155 -73t66 -171q0 -99 -66 -172t-155 -73t-154.5 73t-65.5 172zM260 28q134 0 134 204q0 203 -134 203q-133 0 -133 -203q0 -204 133 -204z" />
<glyph unicode="1" horiz-adv-x="371" d="M37 0v37q86 1 104.5 14.5t18.5 74.5v167q0 52 -5.5 63.5t-32.5 16.5q-30 5 -66 5h-29v36q96 18 210 70v-350q0 -64 15 -76q24 -21 97 -21h11v-37h-323z" />
<glyph unicode="2" horiz-adv-x="477" d="M23 0v36q53 69 181 158q77 54 101 83t24 67q0 46 -30 75.5t-77 29.5q-39 0 -66 -23t-27 -57q0 -14 13 -35q8 -13 8 -31q0 -23 -14.5 -39t-35.5 -16q-25 0 -40.5 19.5t-15.5 50.5q0 65 57.5 115t133.5 50q77 0 129 -42t52 -103q0 -57 -62 -101q-19 -13 -88 -48 q-104 -53 -166 -114h180q55 0 79.5 22t45.5 89l37 -10l-42 -176h-377z" />
<glyph unicode="3" horiz-adv-x="469" d="M19 -64q0 26 15.5 42.5t39.5 16.5t38.5 -16.5t14.5 -42.5q0 -2 -0.5 -8t-0.5 -9q-3 -15 -3 -22q0 -23 24 -38t61 -15q64 0 101 40t37 108q0 72 -35.5 111.5t-99.5 39.5q-18 0 -30 -1q-6 -1 -18 -1q-27 0 -27 22q0 23 28 23q11 0 18 -1q8 -1 20 -1q54 0 88 37.5t34 97.5 q0 59 -28.5 91t-81.5 32q-34 0 -55 -17t-21 -45q0 -3 2 -17t2 -19q0 -22 -14.5 -36.5t-36.5 -14.5t-36.5 15.5t-14.5 38.5q0 52 57 90.5t134 38.5t128.5 -43t51.5 -107q0 -59 -39.5 -103t-105.5 -58q54 -6 84 -25q38 -25 60.5 -64.5t22.5 -82.5q0 -79 -62.5 -131t-158.5 -52 q-82 0 -137.5 36.5t-55.5 89.5z" />
<glyph unicode="4" horiz-adv-x="473" d="M10 13v42l291 428h42v-423h110v-47h-110v-183h-83v183h-250zM64 60h196v286z" />
<glyph unicode="5" horiz-adv-x="466" d="M37 -63q0 24 15.5 40.5t37.5 16.5q21 0 35.5 -15t14.5 -37q0 -9 -2.5 -25t-2.5 -17q0 -25 22 -41t55 -16q134 0 134 182q0 158 -118 158q-70 0 -132 -70l-33 15q7 73 11 168l2 49q4 99 4 104v14h323l-15 -73h-267l-9 -211q61 53 132 53q80 0 134.5 -58t54.5 -143 q0 -97 -63.5 -159.5t-161.5 -62.5q-70 0 -120.5 37.5t-50.5 90.5z" />
<glyph unicode="6" horiz-adv-x="485" d="M250 -13q-95 0 -153 81t-58 213q0 154 75.5 263.5t181.5 109.5q53 0 92 -27t39 -64q0 -22 -14 -36t-36 -14t-35.5 13.5t-21.5 44.5q-11 42 -45 42q-61 0 -103.5 -86.5t-42.5 -210.5q71 94 156 94q71 0 117.5 -56t46.5 -142q0 -92 -59 -158.5t-140 -66.5zM151 98 q32 -77 99 -77q53 0 82.5 48.5t29.5 134.5q0 78 -25 114.5t-80 36.5q-40 0 -79 -32q-18 -14 -34 -32.5t-17 -25.5q-1 -15 -1 -33q0 -74 25 -134z" />
<glyph unicode="7" horiz-adv-x="419" d="M127 -125q0 51 56 180q31 74 60.5 130.5t103.5 180.5l14 24h-196q-49 0 -66 -18.5t-48 -106.5l-34 11l44 187h355v-43q-103 -184 -148 -302.5t-45 -201.5v-30q0 -77 -49 -77q-22 0 -34.5 18t-12.5 48z" />
<glyph unicode="8" horiz-adv-x="471" d="M25 149q0 52 34.5 93.5t111.5 82.5q-107 56 -107 157q0 73 52 122.5t129 49.5q73 0 122 -41t49 -103q0 -48 -30 -88t-83 -63q62 -25 96.5 -71.5t34.5 -107.5q0 -84 -58.5 -138.5t-149.5 -54.5q-89 0 -145 45t-56 117zM172 428q41 -31 102 -53q67 55 67 130q0 52 -29 83.5 t-76 31.5q-46 0 -77.5 -30.5t-31.5 -75.5q0 -53 45 -86zM112 153q0 -60 32 -96t87 -36q58 0 97 37.5t39 92.5q0 72 -76 110l-92 46q-87 -62 -87 -154z" />
<glyph unicode="9" horiz-adv-x="486" d="M62 -99q0 21 15.5 36t36.5 15q38 0 52 -51q7 -28 17 -38t31 -10q39 0 72 37t53 104q17 56 23 159q-65 -99 -161 -99q-69 0 -116.5 56.5t-47.5 138.5q0 94 59 160.5t142 66.5q92 0 150 -82t58 -213q0 -155 -75 -263t-184 -108q-50 0 -87.5 27t-37.5 64zM227 111 q43 0 85 32q22 16 36 36q12 15 12 18q0 75 -10 119q-28 126 -116 126q-52 0 -81 -49t-29 -135q0 -147 103 -147z" />
<glyph unicode=":" horiz-adv-x="247" d="M124 320q-27 0 -45.5 18.5t-18.5 45.5q0 26 18.5 44.5t44.5 18.5q27 0 45.5 -18.5t18.5 -44.5q0 -27 -18.5 -45.5t-44.5 -18.5zM60 50q0 27 18.5 45.5t44.5 18.5q27 0 45.5 -18.5t18.5 -44.5q0 -27 -18.5 -45.5t-44.5 -18.5q-27 0 -45.5 18.5t-18.5 44.5z" />
<glyph unicode=";" horiz-adv-x="247" d="M124 320q-27 0 -45.5 18.5t-18.5 45.5q0 26 18.5 44.5t45.5 18.5q26 0 44.5 -18.5t18.5 -44.5q0 -27 -18.5 -45.5t-44.5 -18.5zM64 58q0 24 17 40t42 16q28 0 45.5 -21t17.5 -54q0 -41 -25 -83t-84 -100l-24 25l40 47q23 26 23 48q0 15 -20 27q-32 20 -32 55z" />
<glyph unicode="&#x3c;" d="M43 342v7l415 266v-40l-306 -199l306 -205v-106z" />
<glyph unicode="=" horiz-adv-x="495" d="M40 373v47h415v-47h-415zM40 226v47h415v-47h-415z" />
<glyph unicode="&#x3e;" d="M43 65v40l306 199l-306 205v106l415 -278v-7z" />
<glyph unicode="?" horiz-adv-x="297" d="M119 167v121q40 1 62.5 21t22.5 55q0 23 -10 39t-24 16q-9 0 -13.5 -3t-17.5 -18q-13 -16 -30 -16t-29.5 13t-12.5 29q0 23 20.5 38t51.5 15q49 0 85.5 -40.5t36.5 -95.5q0 -49 -28 -81.5t-72 -34.5v-58h-42zM74 51q0 26 18.5 44.5t45.5 18.5q26 0 44.5 -18.5t18.5 -44.5 q0 -27 -18.5 -45.5t-44.5 -18.5q-27 0 -45.5 18.5t-18.5 45.5z" />
<glyph unicode="@" horiz-adv-x="751" d="M40 208q0 154 114.5 263t275.5 109q125 0 203 -72.5t78 -188.5q0 -105 -70.5 -188.5t-158.5 -83.5q-29 0 -45.5 15t-16.5 41q0 5 1 17q-42 -73 -98 -73q-42 0 -69.5 34.5t-27.5 88.5q0 87 62 168.5t129 81.5q20 0 37.5 -10.5t24.5 -28.5l11 38h63q-38 -141 -58 -243 q-11 -54 -11 -64q0 -21 21 -21q17 0 44.5 17t50.5 43q64 72 64 166q0 97 -64.5 159t-165.5 62q-139 0 -241 -98.5t-102 -233.5q0 -119 79 -199t197 -80q57 0 106 20t113 69l20 -27q-68 -56 -124.5 -79t-123.5 -23q-134 0 -226 92.5t-92 228.5zM295 142q0 -58 34 -58 q23 0 47.5 30t46.5 84q34 84 34 140q0 22 -11.5 36t-28.5 14q-46 0 -87 -98q-35 -82 -35 -148z" />
<glyph unicode="A" horiz-adv-x="595" d="M-7 0v39q36 1 51.5 16.5t30.5 62.5l178 543l81 25l181 -568q18 -56 29.5 -66.5t56.5 -12.5v-39h-250v39h26q51 0 51 32q0 11 -10 47l-34 112h-225l-34 -112q-5 -18 -5 -28q0 -28 17 -39.5t60 -11.5v-39h-204zM174 275h195l-93 316z" />
<glyph unicode="B" horiz-adv-x="613" d="M30 0v39h23q39 0 51.5 15t12.5 63v433q0 48 -12.5 63t-51.5 15h-23v39h227q94 0 151 -14q59 -14 94 -52t35 -90q0 -56 -44 -98.5t-116 -55.5q62 -7 102 -28q43 -24 68.5 -64t25.5 -84q0 -53 -32.5 -97t-85.5 -62q-63 -22 -150 -22h-275zM210 372h23q68 1 94.5 5.5 t53.5 18.5q55 32 55 109q0 125 -134 125q-56 0 -74 -13.5t-18 -54.5v-190zM210 111q0 -50 10 -61t53 -11q109 0 153 31.5t44 110.5q0 44 -16 79t-44 51q-41 24 -140 24q-31 0 -60 -1v-223z" />
<glyph unicode="C" horiz-adv-x="605" d="M40 298q0 154 84.5 268t199.5 114q46 0 85 -15q25 -9 35 -9q18 0 68 18l57 -174l-37 -15q-32 67 -90 111t-115 44q-83 0 -135 -80.5t-52 -210.5q0 -133 56.5 -212t151.5 -79q59 0 109 36.5t76 98.5l36 -15q-34 -88 -102 -139.5t-151 -51.5q-121 0 -198.5 87.5 t-77.5 223.5z" />
<glyph unicode="D" horiz-adv-x="667" d="M30 0v39h23q39 0 51.5 15t12.5 63v433q0 48 -12.5 63t-51.5 15h-23v39h225q95 0 134 -9q109 -23 173.5 -110.5t64.5 -211.5q0 -97 -42.5 -176t-116.5 -120q-74 -40 -206 -40h-232zM210 125q0 -54 14 -71t60 -17q127 0 183.5 71.5t56.5 233.5q0 152 -55 219.5t-178 67.5 q-47 0 -64 -15.5t-17 -59.5v-429z" />
<glyph unicode="E" horiz-adv-x="620" d="M30 0v39h23q39 0 51.5 15t12.5 63v433q0 48 -12.5 63t-51.5 15h-23v39h471l59 -162l-35 -12q-52 76 -101.5 105.5t-125.5 29.5q-54 0 -71 -12t-17 -49v-205h31q73 0 101 22.5t39 88.5h38v-265h-37q-10 69 -38.5 92t-105.5 23h-28v-220q0 -41 14 -53t63 -12 q83 0 141.5 33.5t120.5 116.5l31 -14l-65 -174h-485z" />
<glyph unicode="F" horiz-adv-x="567" d="M30 0v39h23q39 0 51.5 15t12.5 63v433q0 48 -12.5 63t-51.5 15h-23v39h470l62 -167l-32 -12q-83 140 -226 140q-59 0 -76.5 -12.5t-17.5 -53.5v-201h26q75 0 108 25t38 86h35v-263h-35q-5 66 -36 90t-111 24h-25v-206q0 -48 12.5 -63t51.5 -15h29v-39h-273z" />
<glyph unicode="G" horiz-adv-x="675" d="M40 318q0 149 85.5 255.5t206.5 106.5q37 0 84 -16q15 -5 30 -5q19 0 68 19l62 -167l-34 -17q-46 71 -101 110t-110 39q-86 0 -137 -87.5t-51 -233.5q0 -139 51.5 -219t141.5 -80q59 0 96.5 33t37.5 85v38q0 48 -12.5 63.5t-51.5 15.5h-29v39h262v-39h-16 q-39 0 -51.5 -15.5t-12.5 -63.5v-155h-24q-38 0 -89 -17q-63 -21 -114 -21q-128 0 -210 93t-82 239z" />
<glyph unicode="H" horiz-adv-x="683" d="M30 0v39h23q39 0 51.5 15t12.5 63v433q0 48 -12.5 63t-51.5 15h-23v39h260v-39h-16q-39 0 -51.5 -15t-12.5 -63v-186h264v186q0 48 -12.5 63t-51.5 15h-16v39h260v-39h-23q-39 0 -51.5 -15t-12.5 -63v-433q0 -48 12.5 -63t51.5 -15h23v-39h-260v39h16q39 0 51.5 15 t12.5 63v202h-264v-202q0 -48 12.5 -63t51.5 -15h16v-39h-260z" />
<glyph unicode="I" horiz-adv-x="327" d="M30 0v39h23q39 0 51.5 15t12.5 63v433q0 48 -12.5 63t-51.5 15h-23v39h267v-39h-23q-39 0 -51.5 -15t-12.5 -63v-433q0 -48 12.5 -63t51.5 -15h23v-39h-267z" />
<glyph unicode="J" horiz-adv-x="340" d="M10 -24q45 0 62 -54q6 -21 20 -21q41 0 41 77v572q0 48 -12.5 63t-51.5 15h-29v39h273v-39h-23q-39 0 -51.5 -15t-12.5 -63v-455q0 -113 -40 -171q-53 -78 -139 -78q-40 0 -67 20t-27 49q0 25 17 43t40 18z" />
<glyph unicode="K" horiz-adv-x="650" d="M30 0v39h23q39 0 51.5 15t12.5 63v433q0 48 -12.5 63t-51.5 15h-23v39h260v-39h-16q-39 0 -51.5 -15t-12.5 -63v-230l217 230q23 25 28.5 33t5.5 18q0 27 -43 27h-24v39h230v-39q-41 -2 -65 -15.5t-71 -62.5l-129 -134l189 -299q31 -50 51 -64t59 -14v-39h-258v39h29 q43 0 43 21q0 11 -31 57l-149 230l-82 -83v-147q0 -48 12.5 -63t51.5 -15h16v-39h-260z" />
<glyph unicode="L" horiz-adv-x="560" d="M30 0v39h23q39 0 51.5 15t12.5 63v433q0 48 -12.5 63t-51.5 15h-23v39h267v-39h-23q-39 0 -51.5 -15t-12.5 -63v-424q0 -55 11 -70t52 -15q70 0 103.5 12t78.5 52q43 38 72 82l33 -14l-62 -173h-468z" />
<glyph unicode="M" horiz-adv-x="840" d="M30 0v39l23 2q34 3 49 30.5t15 85.5v393q0 48 -12.5 63t-51.5 15h-23v39h205l188 -509l186 509h201v-39h-23q-39 0 -51.5 -15t-12.5 -63v-433q0 -49 12 -63.5t52 -14.5h23v-39h-267v39h23q39 0 51.5 15t12.5 63v487l-218 -604h-29l-219 596v-439q0 -62 14 -87.5t50 -28.5 l23 -2v-39h-221z" />
<glyph unicode="N" horiz-adv-x="683" d="M30 0v39l23 2q34 3 49 30.5t15 85.5v432q-30 34 -87 37v41h157l339 -488v331q0 58 -14.5 84t-49.5 31l-23 3v39h221v-39l-23 -3q-35 -5 -49.5 -31t-14.5 -84v-523h-31l-378 560v-390q0 -58 15 -85.5t49 -30.5l23 -2v-39h-221z" />
<glyph unicode="O" horiz-adv-x="654" d="M327 -13q-120 0 -203.5 102.5t-83.5 250.5q0 138 85 239t202 101q119 0 203 -101.5t84 -244.5q0 -144 -84 -245.5t-203 -101.5zM327 24q82 0 133 85.5t51 224.5q0 138 -51 223.5t-133 85.5t-133 -85.5t-51 -223.5q0 -139 51 -224.5t133 -85.5z" />
<glyph unicode="P" horiz-adv-x="574" d="M30 0v39h23q39 0 51.5 15t12.5 63v433q0 48 -12.5 63t-51.5 15h-23v39h242q72 0 112.5 -7.5t72.5 -27.5q87 -52 87 -148q0 -58 -33 -100.5t-92 -60.5q-12 -4 -19.5 -5.5t-14.5 -3.5t-16.5 -3t-16.5 -1.5t-23 -1t-28 -0.5t-40.5 -0.5t-50.5 -0.5v-190q0 -48 12.5 -63 t51.5 -15h29v-39h-273zM210 348q9 0 26 -0.5t37 -0.5q95 0 131.5 33t36.5 105q0 145 -142 145q-55 0 -72 -13.5t-17 -56.5v-212z" />
<glyph unicode="Q" horiz-adv-x="655" d="M323 -13q-121 0 -202 98t-81 243q0 149 83 250.5t205 101.5t204.5 -99t82.5 -244q0 -204 -140 -301l23 -34q30 -48 68 -48q16 0 46 21l19 -22q-23 -30 -55.5 -47.5t-63.5 -17.5q-63 0 -96 59q-10 19 -20 52q-40 -12 -73 -12zM183 115q7 38 31.5 59t62.5 21q94 0 168 -120 q31 34 49 103.5t18 152.5q0 147 -50 232q-47 80 -136 80q-86 0 -134.5 -83.5t-48.5 -231.5q0 -110 40 -213zM213 100q0 -32 33 -54t79 -22q21 0 38 3q8 2 14 5q8 3 8 4q-10 55 -39.5 88.5t-68.5 33.5q-26 0 -45 -17.5t-19 -40.5z" />
<glyph unicode="R" horiz-adv-x="597" d="M30 0v39h23q39 0 51.5 15t12.5 63v433q0 48 -12.5 63t-51.5 15h-23v39h267q119 0 184.5 -44.5t65.5 -124.5q0 -67 -48.5 -113t-127.5 -54l117 -214q26 -48 47 -63t60 -15h14v-39h-159l-175 320h-65v-203q0 -48 12.5 -63t51.5 -15h16v-39h-260zM210 359h89 q68 0 106.5 37.5t38.5 104.5q0 129 -158 129q-46 0 -61 -14.5t-15 -58.5v-198z" />
<glyph unicode="S" horiz-adv-x="525" d="M99 -13l-66 181l32 16q45 -68 109.5 -111t121.5 -43q55 0 90 35.5t35 90.5t-36 86.5t-127 56.5q-108 29 -153.5 73.5t-45.5 121.5t52 131.5t126 54.5q37 0 88 -19q15 -5 26 -5q10 0 26 7l34 17l62 -173l-32 -21q-44 72 -97 111.5t-107 39.5q-47 0 -78.5 -31.5 t-31.5 -79.5q0 -93 132 -127l37.5 -10l33 -9t18.5 -5q67 -20 105.5 -70t38.5 -117q0 -85 -57 -143t-140 -58q-42 0 -93 23q-25 11 -36 11q-12 0 -29 -10z" />
<glyph unicode="T" horiz-adv-x="593" d="M157 0v39h29q39 0 51.5 15t12.5 63v470q0 25 -7.5 33t-30.5 8q-94 0 -184 -141l-35 15l50 165h507l50 -165l-35 -15q-90 141 -184 141q-23 0 -30.5 -8t-7.5 -33v-470q0 -48 12.5 -63t51.5 -15h29v-39h-279z" />
<glyph unicode="U" horiz-adv-x="700" d="M117 203v347q0 49 -12 63.5t-51 14.5h-24v39h267v-39h-23q-38 0 -51 -15.5t-13 -62.5v-305q0 -65 4.5 -91.5t18.5 -51.5q44 -73 134 -73q55 0 95.5 25t57.5 69q16 43 16 138v249q0 57 -14.5 83.5t-49.5 31.5l-23 3v39h221v-39l-22 -3q-65 -10 -65 -112v-252 q0 -124 -31 -178q-55 -97 -201 -97q-112 0 -173 56.5t-61 160.5z" />
<glyph unicode="V" horiz-adv-x="585" d="M276 -20l-191 570q-16 48 -33 63t-54 15h-5v39h251v-39h-24q-49 0 -49 -31q0 -14 11 -47l135 -414l138 414q4 11 4 28q0 50 -67 50h-6v39h205v-39q-38 -1 -54 -16t-33 -62l-196 -570h-32z" />
<glyph unicode="W" horiz-adv-x="789" d="M222 -20l-165 596q-10 34 -20.5 43t-39.5 9h-4v39h234v-39h-51q-28 0 -28 -22q0 -5 13 -56l100 -380l111 376q-14 53 -27.5 67.5t-49.5 14.5h-26v39h262v-39h-24q-52 0 -52 -31q0 -14 9 -47l101 -380l108 380q7 24 7 37q0 41 -48 41h-27v39h190v-39q-37 -2 -47.5 -13 t-26.5 -65l-168 -570h-25l-136 488l-141 -488h-29z" />
<glyph unicode="X" horiz-adv-x="585" d="M-7 0v39h12q63 0 113 78l132 209l-135 224q-4 6 -13 21.5t-11 18.5l-8.5 13t-10.5 11t-11 6t-14.5 5.5t-18 1.5t-24.5 1h-4v39h261v-39h-22q-43 0 -43 -23q0 -13 26 -55l86 -145l85 145q21 35 21 48q0 30 -54 30h-12v39h223v-39h-8q-36 0 -58.5 -16t-53.5 -62l-119 -181 l147 -252q28 -49 49 -63.5t60 -14.5h4v-39h-265v39h26q47 0 47 21q0 8 -25 52l-100 176l-102 -171q-15 -22 -15 -44q0 -16 12 -25t32 -9h28v-39h-237z" />
<glyph unicode="Y" horiz-adv-x="540" d="M132 0v39h23q39 0 51.5 15t12.5 63v156l-164 327q-8 16 -18 21t-38 7h-6v39h234v-39h-20q-36 -1 -43.5 -4.5t-7.5 -14.5q0 -8 26 -59l108 -219l105 219q15 32 15 45q0 18 -14 25.5t-47 7.5h-8v39h205v-39q-42 -4 -55 -14.5t-41 -63.5l-138 -265v-168q0 -48 12.5 -63 t51.5 -15h23v-39h-267z" />
<glyph unicode="Z" horiz-adv-x="544" d="M25 21l362 603h-83q-71 0 -126.5 -32.5t-103.5 -103.5l-32 15l60 164h390l15 -20l-363 -604h71q64 0 99 9t72 34q54 37 98 104l34 -15l-65 -175h-415z" />
<glyph unicode="[" horiz-adv-x="303" d="M90 -83v833h161v-42h-84v-749h89v-42h-166z" />
<glyph unicode="\" horiz-adv-x="336" d="M294 -167l-254 834h55l252 -834h-53z" />
<glyph unicode="]" horiz-adv-x="303" d="M47 -41h89v749h-84v42h161v-833h-166v42z" />
<glyph unicode="^" d="M-25 285l278 415h6l266 -415h-40l-199 306l-205 -306h-106z" />
<glyph unicode="_" d="M0 -88h500v-46h-500v46z" />
<glyph unicode="`" d="M251 517l-136 81q-30 18 -30 39q0 13 10 22.5t23 9.5q18 0 42 -24l120 -121z" />
<glyph unicode="a" horiz-adv-x="447" d="M0 0v37q28 1 39 10t22 41l127 371l65 20l131 -391q13 -37 21.5 -43.5t42.5 -7.5v-37h-187v37h23q29 0 29 17q0 3 -3 12l-26 90h-154l-23 -72q-4 -14 -4 -22q0 -14 11.5 -19.5t41.5 -5.5v-37h-156zM143 196h127l-59 201z" />
<glyph unicode="b" horiz-adv-x="475" d="M37 0v37q42 -1 52.5 10t10.5 54v261q0 43 -10.5 54t-52.5 10v37h172q62 0 107 -9q44 -10 69.5 -38t25.5 -65q0 -33 -26 -60.5t-70 -41.5q55 -12 88 -44.5t33 -75.5q0 -62 -51 -95.5t-144 -33.5h-204zM177 263q5 0 8 0.5t6 0.5h16.5t34.5 1q41 2 64.5 23.5t23.5 58.5 q0 41 -22 60t-69 19q-39 0 -50.5 -7t-11.5 -31v-125zM177 81q0 -29 7.5 -36.5t37.5 -7.5q73 0 102 20.5t29 71.5q0 60 -39 81q-28 16 -97 16h-40v-145z" />
<glyph unicode="c" horiz-adv-x="464" d="M38 207q0 109 61 189t144 80q36 0 65 -13q16 -8 24 -8q11 0 35 10l12 4l42 -130l-34 -14q-22 52 -62 85t-80 33q-56 0 -91 -55.5t-35 -145.5q0 -92 38 -146.5t103 -54.5q41 0 74.5 27.5t52.5 76.5l34 -14q-23 -67 -72 -105.5t-112 -38.5q-86 0 -142.5 62t-56.5 158z" />
<glyph unicode="d" horiz-adv-x="510" d="M37 0v37q42 -1 52.5 10t10.5 54v261q0 43 -10.5 54t-52.5 10v37h171q70 0 106 -8.5t70 -33.5q42 -31 65 -80t23 -108q0 -67 -30.5 -122t-83.5 -83q-52 -28 -146 -28h-175zM177 91q0 -37 10 -45.5t53 -8.5q77 0 113 48.5t36 151.5q0 100 -37 144.5t-120 44.5q-33 0 -44 -9 t-11 -35v-291z" />
<glyph unicode="e" horiz-adv-x="475" d="M37 0v37q42 -1 52.5 10t10.5 54v261q0 43 -10.5 54t-52.5 10v37h347l44 -120l-35 -12q-37 57 -69 76t-88 19q-39 0 -49 -6.5t-10 -31.5v-132h27q48 0 65 14.5t24 61.5h37v-192h-37q-6 49 -23 64t-68 15h-25v-142q0 -26 7.5 -33t38.5 -7q66 0 108 23.5t77 81.5l34 -15 l-48 -127h-357z" />
<glyph unicode="f" horiz-adv-x="441" d="M37 0v37q42 -1 52.5 10t10.5 54v261q0 43 -10.5 54t-52.5 10v37h348l45 -122l-34 -14q-49 99 -156 99q-42 0 -52.5 -6.5t-10.5 -33.5v-130h24q50 0 70.5 16.5t22.5 59.5h37v-191h-37q-4 48 -22.5 63t-71.5 15h-23v-118q0 -42 10 -53t47 -11h13v-37h-210z" />
<glyph unicode="g" horiz-adv-x="515" d="M38 221q0 106 62 181t149 75q28 0 63 -15q8 -4 20 -4q9 0 29 7l20 8l46 -125l-33 -17q-67 113 -146 113q-58 0 -92.5 -59.5t-34.5 -159.5q0 -96 34.5 -150.5t95.5 -54.5q37 0 62 20.5t25 51.5v21q0 43 -10.5 54t-52.5 10v37h203v-37q-42 1 -52.5 -10t-10.5 -54v-97 q-9 1 -23 1q-27 0 -61 -13q-46 -17 -83 -17q-92 0 -151 66t-59 168z" />
<glyph unicode="h" horiz-adv-x="531" d="M37 0v37q42 -1 52.5 10t10.5 54v261q0 43 -10.5 54t-52.5 10v37h203v-37q-42 1 -52.5 -10t-10.5 -54v-103h177v103q0 43 -10.5 54t-52.5 10v37h203v-37q-42 1 -52.5 -10t-10.5 -54v-261q0 -43 10.5 -54t52.5 -10v-37h-203v37q42 -1 52.5 10t10.5 54v118h-177v-118 q0 -43 10.5 -54t52.5 -10v-37h-203z" />
<glyph unicode="i" horiz-adv-x="277" d="M37 0v37q42 -1 52.5 10t10.5 54v261q0 43 -10.5 54t-52.5 10v37h203v-37q-42 1 -52.5 -10t-10.5 -54v-261q0 -43 10.5 -54t52.5 -10v-37h-203z" />
<glyph unicode="j" horiz-adv-x="269" d="M17 -4q36 0 48 -42q5 -11 13 -11q22 0 22 48v371q0 43 -10.5 54t-52.5 10v37h203v-37q-42 1 -52.5 -10t-10.5 -54v-291q0 -83 -34.5 -129t-96.5 -46q-32 0 -53 15t-21 38q0 19 13.5 33t31.5 14z" />
<glyph unicode="k" horiz-adv-x="491" d="M37 0v37q42 -1 52.5 10t10.5 54v261q0 43 -10.5 54t-52.5 10v37h203v-37q-42 1 -52.5 -10t-10.5 -54v-130l148 143q24 23 24 38q0 13 -25 13h-23v37h169v-37q-27 0 -41 -7t-35 -28l-18 -19l-85 -84l138 -217q13 -20 25.5 -27t37.5 -7v-37h-187v37h27q20 0 20 10 q0 6 -10 23l-105 170l-60 -58v-81q0 -43 10.5 -54t52.5 -10v-37h-203z" />
<glyph unicode="l" horiz-adv-x="435" d="M37 0v37q42 -1 52.5 10t10.5 54v261q0 43 -10.5 54t-52.5 10v37h203v-37q-42 1 -52.5 -10t-10.5 -54v-270q0 -38 6.5 -46.5t35.5 -8.5q52 0 73.5 7.5t52.5 35.5q30 27 50 62l33 -15l-46 -127h-345z" />
<glyph unicode="m" horiz-adv-x="632" d="M37 0v37q42 -1 52.5 10t10.5 54v261q0 43 -10.5 54t-52.5 10v37h156l124 -343l121 343h157v-37q-42 1 -52.5 -10t-10.5 -54v-261q0 -43 10.5 -54t52.5 -10v-37h-203v37q42 -1 52.5 10t10.5 54v301l-143 -402h-25l-147 398v-297q0 -43 10.5 -54t52.5 -10v-37h-166z" />
<glyph unicode="n" horiz-adv-x="518" d="M37 0v37q42 -1 52.5 10t10.5 54v261q0 43 -10.5 54t-52.5 10v37h115l233 -328v227q0 43 -10.5 54t-52.5 10v37h166v-37q-42 1 -52.5 -10t-10.5 -54v-371h-26l-259 366v-256q0 -43 10.5 -54t52.5 -10v-37h-166z" />
<glyph unicode="o" horiz-adv-x="490" d="M38 236q0 97 61.5 168.5t145.5 71.5q86 0 146.5 -71.5t60.5 -172.5t-60.5 -173t-146.5 -72q-87 0 -147 72.5t-60 176.5zM245 20q55 0 89.5 58.5t34.5 153.5q0 94 -34.5 152.5t-89.5 58.5t-89.5 -58.5t-34.5 -153.5q0 -94 34.5 -152.5t89.5 -58.5z" />
<glyph unicode="p" horiz-adv-x="445" d="M37 0v37q42 -1 52.5 10t10.5 54v261q0 43 -10.5 54t-52.5 10v37h182q92 0 133 -24q64 -38 64 -106q0 -40 -24.5 -70.5t-67.5 -42.5q-37 -11 -147 -11v-108q0 -42 10 -53t47 -11h13v-37h-210zM177 246h42q60 0 87 21t27 67q0 47 -23.5 69.5t-72.5 22.5q-38 0 -49 -7.5 t-11 -34.5v-138z" />
<glyph unicode="q" horiz-adv-x="491" d="M38 228q0 105 60 176.5t148 71.5t147.5 -69.5t59.5 -172.5q0 -138 -99 -205q19 -28 29.5 -37t23.5 -9q10 0 31 16l21 -24q-45 -48 -89 -48q-58 0 -83 69q-22 -9 -45 -9q-87 0 -145.5 69t-58.5 172zM147 106q20 39 64 39q65 0 114 -76q45 59 45 161q0 101 -33 157t-92 56 q-57 0 -90.5 -56.5t-33.5 -151.5q0 -74 26 -129zM172 74q0 -22 21.5 -38t50.5 -16q35 0 35 8q-23 84 -67 84q-16 0 -28 -11.5t-12 -26.5z" />
<glyph unicode="r" horiz-adv-x="461" d="M37 0v37q42 -1 52.5 10t10.5 54v261q0 43 -10.5 54t-52.5 10v37h199q86 0 134 -32t48 -89q0 -46 -35.5 -78t-92.5 -40l94 -148q17 -27 27.5 -33t38.5 -6h10v-37h-118l-132 217h-33v-116q0 -43 10.5 -54t52.5 -10v-37h-203zM177 254h60q47 0 72.5 23.5t25.5 66.5 q0 82 -107 82q-32 0 -41.5 -8t-9.5 -36v-128z" />
<glyph unicode="s" horiz-adv-x="398" d="M79 -12l-49 135l33 16q32 -53 76 -86t84 -33q36 0 60 25t24 63q0 37 -23.5 56.5t-87.5 36.5q-79 20 -113 52t-34 87q0 56 39 96t94 40q23 0 68 -17q12 -4 16 -4q5 0 15 5l30 14l47 -131l-32 -18q-67 118 -143 118q-32 0 -53.5 -23t-21.5 -58q0 -58 89 -80 q63 -15 82.5 -22t38.5 -23q50 -39 50 -104q0 -61 -42.5 -103.5t-103.5 -42.5q-32 0 -71 19q-16 8 -23 8q-8 0 -16 -6z" />
<glyph unicode="t" horiz-adv-x="439" d="M111 0v37h13q37 0 47 11t10 53v301q0 16 -3 20t-17 4q-67 0 -127 -99l-34 14l37 122h365l37 -122l-33 -14q-60 99 -126 99q-14 0 -18 -4.5t-4 -19.5v-301q0 -42 10 -53t47 -11h13v-37h-217z" />
<glyph unicode="u" horiz-adv-x="528" d="M115 58q-20 37 -20 115v189q0 43 -10.5 54t-52.5 10v37h203v-37q-42 1 -52.5 -10t-10.5 -54v-190q0 -47 3 -65t13 -35q29 -49 90 -49q37 0 64.5 17t38.5 46t11 96v180q0 43 -10.5 54t-52.5 10v37h166v-37q-42 1 -52.5 -10t-10.5 -54v-180q0 -104 -38.5 -150t-126.5 -46 q-111 0 -152 72z" />
<glyph unicode="v" horiz-adv-x="446" d="M207 -13l-133 379q-12 35 -27.5 47.5t-46.5 12.5v37h195v-37q-34 -2 -43 -5.5t-9 -15.5q0 -3 12 -39l86 -253l87 253q8 21 8 31q0 26 -50 29h-17v37h176v-37q-29 0 -44 -12.5t-28 -47.5l-137 -379h-29z" />
<glyph unicode="w" horiz-adv-x="573" d="M164 -13l-116 406q-6 21 -13.5 27t-26.5 6h-8v37h176v-37h-24q-28 0 -28 -15q0 -7 3 -14l73 -264l71 229l-10 34q-5 19 -13.5 24.5t-31.5 5.5h-18v37h190v-37h-22q-29 0 -29 -17q0 -5 2 -15l70 -257l71 242q5 18 5 26q0 21 -33 21h-18v37h139v-37q-25 -1 -32.5 -8.5 t-17.5 -42.5l-118 -388h-27l-90 311l-94 -311h-30z" />
<glyph unicode="x" horiz-adv-x="439" d="M0 0v37q39 -1 62.5 12t45.5 48l80 125l-93 144q-24 36 -40 46t-55 14v37h204v-37h-18q-29 0 -29 -15q0 -5 8 -18l67 -106l66 103q6 9 6 15q0 11 -9.5 15.5t-36.5 5.5v37h175v-37q-33 0 -55 -13.5t-44 -46.5l-76 -118l96 -151q19 -29 37.5 -42.5t47.5 -17.5v-37h-187v37 h15q28 0 28 16q0 4 -8 17l-73 113l-71 -110q-9 -14 -9 -19q0 -17 29 -17h22v-37h-185z" />
<glyph unicode="y" horiz-adv-x="405" d="M101 0v37h9q36 0 45 11t9 53v88l-114 213q-8 16 -16.5 20t-33.5 4v37h170v-37q-26 0 -32.5 -2.5t-6.5 -10.5q0 -5 3 -11l86 -159l74 137q10 17 10 28q0 18 -35 18h-12v37h149v-37q-26 0 -35.5 -7t-30.5 -45l-99 -177v-101q0 -37 9.5 -48t45.5 -11h8v-37h-203z" />
<glyph unicode="z" horiz-adv-x="417" d="M27 21l257 405h-61q-91 0 -153 -99l-33 16l45 120h285l14 -20l-257 -406h53q65 0 103.5 23t75.5 84l33 -15l-47 -129h-302z" />
<glyph unicode="{" horiz-adv-x="480" d="M195 -31v148q0 78 -17 103.5t-81 25.5v37q64 0 81 25.5t17 103.5v119q0 99 62 125q17 7 37 9t83 2h25v-39q-61 -1 -85 -15q-46 -25 -46 -95v-154q0 -81 -76 -98v-3q76 -17 76 -98v-183q0 -70 46 -95q24 -14 85 -15v-39h-25q-63 0 -83 2t-37 9q-62 26 -62 125z" />
<glyph unicode="|" d="M221 -167v834h58v-834h-58z" />
<glyph unicode="}" horiz-adv-x="480" d="M78 -128q61 1 85 15q46 25 46 95v183q0 81 76 98v3q-76 17 -76 98v154q0 70 -46 95q-24 14 -85 15v39h25q63 0 83 -2t37 -9q62 -26 62 -125v-119q0 -78 17 -103.5t81 -25.5v-37q-64 0 -81 -25.5t-17 -103.5v-148q0 -99 -62 -125q-17 -7 -37 -9t-83 -2h-25v39z" />
<glyph unicode="~" horiz-adv-x="667" d="M140 612l-15 10q58 98 138 98q27 0 89 -22q53 -18 78 -18q54 0 98 54l15 -10q-24 -43 -61.5 -70t-73.5 -27q-16 0 -26 2.5t-66 20.5q-56 19 -86 19q-26 0 -42.5 -10.5t-47.5 -46.5z" />
<glyph unicode="&#xa1;" horiz-adv-x="273" d="M137 350q-27 0 -45.5 18.5t-18.5 44.5q0 27 18.5 45.5t44.5 18.5q27 0 45.5 -18.5t18.5 -45.5q0 -26 -18.5 -44.5t-44.5 -18.5zM71 53q0 18 19 64q27 67 27 140v40h39v-40q0 -44 5.5 -71t21.5 -69q19 -46 19 -64q0 -29 -19 -47.5t-47 -18.5t-46.5 19t-18.5 47z" />
<glyph unicode="&#xa2;" horiz-adv-x="495" d="M242 0v104q-79 6 -129 66.5t-50 149.5q0 88 51 157t128 85v105h35v-102h5q45 -3 72 -14q32 -14 50.5 -34.5t18.5 -42.5q0 -17 -14.5 -30.5t-33.5 -13.5q-34 0 -48 40q-11 27 -20.5 38t-29.5 17v-369q76 0 129 82l32 -20q-65 -103 -161 -113v-105h-35zM242 162v365 q-41 -8 -66.5 -56.5t-25.5 -119.5q0 -73 24 -122.5t68 -66.5z" />
<glyph unicode="&#xa3;" horiz-adv-x="495" d="M9 58q0 34 25.5 55.5t65.5 21.5q31 0 67 -20q3 6 3 28q0 49 -33 129h-95v39h79q-31 80 -31 140q0 94 59 154.5t149 60.5q67 0 110.5 -36t43.5 -90q0 -30 -16.5 -50t-41.5 -20q-20 0 -33.5 13t-13.5 32q0 15 11 24.5t22 16.5t11 15q0 21 -24 36t-59 15q-53 0 -90 -38.5 t-37 -93.5q0 -28 7.5 -55.5t23 -65.5t22.5 -58h115v-39h-104q9 -38 9 -65q0 -65 -30 -118q49 -26 101 -26q90 0 124 91l35 -8q-18 -81 -60 -124.5t-102 -43.5q-34 0 -56.5 11t-62.5 48l-8 6q-50 -57 -105 -57q-36 0 -58.5 20t-22.5 52zM57 59q0 -11 9 -19.5t22 -8.5 q20 0 33 8t29 31q-36 20 -58 20q-15 0 -25 -9t-10 -22z" />
<glyph unicode="&#xa4;" horiz-adv-x="495" d="M72 114l-33 33l56 56q-41 56 -41 119q0 64 41 121l-56 56l33 33l56 -56q56 41 120 41q63 0 119 -41l56 56l33 -33l-56 -56q42 -55 42 -121q0 -65 -41 -119l55 -56l-33 -33l-56 56q-56 -41 -119 -41t-120 41zM249 183q57 0 98 41t41 98q0 59 -40.5 100t-98.5 41 q-59 0 -100 -41.5t-41 -99.5q0 -57 41.5 -98t99.5 -41z" />
<glyph unicode="&#xa5;" horiz-adv-x="495" d="M121 0v39h24q36 0 47 15t11 65v137h-165v37h155l-38 80h-126v37h108l-79 167q-7 14 -16.5 18.5t-37.5 6.5v38h211v-38h-37q-30 0 -30 -21q0 -8 17 -44l94 -201l85 186q14 33 14 46q0 34 -48 34h-17v38h197v-38q-35 -5 -48.5 -14.5t-27.5 -39.5l-13 -28l-55 -110h119v-37 h-138l-39 -80h168v-37h-173v-137q0 -50 11 -65t47 -15h24v-39h-244z" />
<glyph unicode="&#xa6;" d="M221 330v337h58v-337h-58zM221 153h58v-320h-58v320z" />
<glyph unicode="&#xa7;" horiz-adv-x="439" d="M68 -66q0 26 16 43.5t41 17.5q22 0 37 -13.5t15 -33.5q0 -23 -24 -43q-9 -9 -9 -15q0 -12 21 -22t46 -10q37 0 59 20.5t22 54.5q0 31 -17 52t-86 76q-83 66 -116 112.5t-33 96.5q0 53 32.5 88.5t80.5 35.5q12 0 29 -4q-102 62 -102 150q0 56 39 91.5t101 35.5 q58 0 97.5 -28.5t39.5 -70.5q0 -27 -15.5 -43.5t-41.5 -16.5q-21 0 -35.5 14t-14.5 34q0 24 22 41q10 7 10 14q0 12 -16.5 20.5t-39.5 8.5q-37 0 -59 -19t-22 -50q0 -29 17.5 -51t82.5 -75q91 -73 122.5 -117t31.5 -97q0 -50 -30.5 -87t-73.5 -37q-17 0 -41 7 q104 -68 104 -151q0 -56 -42.5 -93t-106.5 -37q-58 0 -99.5 30t-41.5 71zM173 190q65 -57 101 -57q28 0 48 19.5t20 45.5q0 42 -60 99q-74 70 -120 70q-25 0 -44.5 -19t-19.5 -44q0 -26 16 -51t59 -63z" />
<glyph unicode="&#xa8;" d="M330 543q-20 0 -34.5 14.5t-14.5 34.5t14.5 34t34.5 14t34 -14t14 -34t-14 -34.5t-34 -14.5zM171 543q-20 0 -34.5 14.5t-14.5 34.5t14 34t34 14t34.5 -14t14.5 -34t-14 -34.5t-34 -14.5z" />
<glyph unicode="&#xa9;" horiz-adv-x="773" d="M40 334q0 143 101.5 244.5t244.5 101.5q144 0 245.5 -101.5t101.5 -244.5q0 -144 -101.5 -245.5t-245.5 -101.5q-143 0 -244.5 101.5t-101.5 245.5zM77 334q0 -130 90.5 -222t218.5 -92t219 92t91 222t-91 221.5t-219 91.5t-218.5 -91.5t-90.5 -221.5zM215 316 q0 89 50.5 153.5t120.5 64.5q28 0 51 -9q15 -5 21 -5q12 0 41 12l35 -104l-27 -11q-19 39 -52 63.5t-67 24.5q-48 0 -77.5 -44.5t-29.5 -115.5q0 -73 32.5 -116.5t87.5 -43.5q34 0 62.5 20.5t44.5 56.5l27 -11q-22 -53 -62.5 -82.5t-91.5 -29.5q-72 0 -119 50t-47 127z" />
<glyph unicode="&#xaa;" horiz-adv-x="315" d="M114 376q-32 0 -53 18.5t-21 46.5q0 37 34 61t118 47v31q0 45 -36 45q-17 0 -25.5 -7t-16.5 -29q-10 -24 -35 -24q-13 0 -21.5 8.5t-8.5 20.5q0 25 32 42.5t77 17.5q48 0 68.5 -18.5t20.5 -62.5v-136q2 -24 6 -25q4 0 16 11l19 -17q-24 -30 -56 -30q-26 0 -36 30 q-42 -30 -82 -30zM134 411q24 0 58 23v86q-92 -31 -92 -76q0 -15 9 -24t25 -9zM40 294v41h242v-41h-242z" />
<glyph unicode="&#xab;" horiz-adv-x="389" d="M170 211v13q80 66 161 154l25 -16q-44 -76 -104 -139q45 -57 58.5 -76t42.5 -67l-21 -16q-29 30 -63 62q-30 29 -85 73zM131 126q-36 34 -84 73l-14 12v13q86 72 161 154l24 -16q-43 -76 -104 -139q45 -57 59 -76t43 -67l-22 -16q-36 37 -63 62z" />
<glyph unicode="&#xac;" d="M35 224v43h430v-267h-100v224h-330z" />
<glyph unicode="&#xad;" horiz-adv-x="193" d="M0 185v71h193v-71h-193z" />
<glyph unicode="&#xae;" horiz-adv-x="773" d="M40 334q0 143 101.5 244.5t244.5 101.5q144 0 245.5 -101.5t101.5 -244.5q0 -144 -101.5 -245.5t-245.5 -101.5q-143 0 -244.5 101.5t-101.5 245.5zM77 334q0 -130 90.5 -222t218.5 -92t219 92t91 222t-91 221.5t-219 91.5t-218.5 -91.5t-90.5 -221.5zM225 147v28h17 q21 0 27.5 8t6.5 33v242q0 25 -6.5 33t-27.5 8h-17v28h161q71 0 110.5 -25.5t39.5 -72.5q0 -38 -28.5 -65t-72.5 -32l66 -115q15 -26 26.5 -34t33.5 -8h12v-28h-99l-103 178h-33v-109q0 -25 6.5 -33t27.5 -8h13v-28h-160zM338 354h49q39 0 60.5 20t21.5 57q0 69 -90 69 q-25 0 -33 -7.5t-8 -30.5v-108z" />
<glyph unicode="&#xaf;" d="M139 566v52h223v-52h-223z" />
<glyph unicode="&#xb0;" horiz-adv-x="300" d="M150 433q-46 0 -78 36t-32 87q0 52 32 88t78 36t78 -36t32 -88q0 -51 -32 -87t-78 -36zM150 480q23 0 37 21.5t14 55.5t-14 55t-37 21t-37 -21t-14 -55t14 -55.5t37 -21.5z" />
<glyph unicode="&#xb1;" horiz-adv-x="495" d="M222 173v170h-182v47h182v171h51v-171h182v-47h-182v-170h-51zM40 86v47h415v-47h-415z" />
<glyph unicode="&#xb2;" horiz-adv-x="328" d="M30 256v25q33 64 114 143q46 46 62 72.5t16 55.5q0 30 -17 47.5t-46 17.5q-23 0 -39.5 -10.5t-16.5 -24.5q0 -5 8 -20q6 -10 6 -21q0 -14 -10.5 -24.5t-24.5 -10.5q-16 0 -27.5 12.5t-11.5 30.5q0 40 37 69.5t87 29.5q53 0 87.5 -28.5t34.5 -72.5q0 -35 -20 -63.5 t-78 -74.5q-42 -33 -62.5 -53.5t-40.5 -48.5h99q34 0 48.5 12.5t27.5 53.5l30 -7l-28 -110h-235z" />
<glyph unicode="&#xb3;" horiz-adv-x="328" d="M152 247q-53 0 -88.5 22.5t-35.5 56.5q0 16 11 26.5t27 10.5t26.5 -10.5t10.5 -27.5q0 -7 -1 -11q0 -2 -0.5 -5t-1 -4.5t-0.5 -2.5q0 -11 14 -18t36 -7q36 0 56.5 22t20.5 61t-20 61.5t-54 22.5q-11 0 -19 -1h-12q-20 0 -20 16q0 17 20 17h13q4 -1 12 -1q31 0 50.5 21.5 t19.5 55.5q0 65 -64 65q-18 0 -30.5 -8t-12.5 -20q0 -7 1 -11t1 -12q0 -14 -10 -23.5t-26 -9.5q-15 0 -25 10.5t-10 25.5q0 32 37.5 55.5t86.5 23.5q50 0 83.5 -26.5t33.5 -66.5q0 -31 -21 -56t-56 -38q40 -7 65.5 -36t25.5 -66q0 -49 -40.5 -80.5t-103.5 -31.5z" />
<glyph unicode="&#xb4;" d="M219 524l120 121q24 24 42 24q13 0 23 -9.5t10 -22.5q0 -21 -30 -39l-136 -81z" />
<glyph unicode="&#xb5;" horiz-adv-x="448" d="M56 35q0 -30 16 -127q5 -32 5 -49q0 -22 -11.5 -35.5t-29.5 -13.5q-16 0 -27.5 13.5t-11.5 33.5q0 26 7 61q28 158 28 357v188h77v-293q0 -74 20 -105.5t68 -31.5q62 0 116 77v353h76v-345q0 -46 8 -61.5t31 -15.5q15 0 31 10v-16l-86 -45q-1 -1 -4 -1q-22 0 -31 17 t-21 65q-54 -52 -83 -69t-65 -17q-44 0 -70.5 20.5t-42.5 67.5v-38z" />
<glyph unicode="&#xb6;" horiz-adv-x="495" d="M110 -128h29q39 0 51.5 15t12.5 63v357q-51 0 -79 8.5t-48 28.5q-43 48 -43 139q0 100 56 150q22 20 44 27t60 7h274v-39h-23q-39 0 -51.5 -15t-12.5 -63v-600q0 -48 12.5 -63t51.5 -15h23v-39h-150v795h-51v-795h-156v39z" />
<glyph unicode="&#xb7;" horiz-adv-x="247" d="M124 157q-27 0 -45.5 18.5t-18.5 45.5q0 26 18.5 44.5t44.5 18.5q27 0 45.5 -18.5t18.5 -44.5q0 -27 -18.5 -45.5t-44.5 -18.5z" />
<glyph unicode="&#xb8;" d="M167 -152q37 -17 65 -17q24 0 39.5 12.5t15.5 32.5q0 35 -39 35q-3 0 -25 -2l-10 5l36 86h27l-21 -63q16 5 28 5q29 0 48 -17.5t19 -44.5q0 -37 -31 -59t-83 -22q-42 0 -85 20z" />
<glyph unicode="&#xb9;" horiz-adv-x="328" d="M65 256v30q56 1 67 7.5t11 39.5v203q0 25 -1.5 30.5t-7.5 10.5q-14 6 -75 6v28q56 9 143 43v-316q0 -34 8 -40q15 -12 70 -12v-30h-215z" />
<glyph unicode="&#xba;" horiz-adv-x="343" d="M172 376q-55 0 -93.5 40.5t-38.5 98.5t38.5 98.5t93.5 40.5t93 -40.5t38 -98.5t-38 -98.5t-93 -40.5zM172 403q31 0 50.5 31t19.5 81t-19.5 81t-51.5 31q-31 0 -50.5 -31t-19.5 -81t19.5 -81t51.5 -31zM40 294v41h263v-41h-263z" />
<glyph unicode="&#xbb;" horiz-adv-x="389" d="M173 80q37 62 101 143q-60 63 -104 139l25 16q72 -80 161 -154v-13l-51 -42q-40 -32 -111 -105zM57 64l-21 16q29 49 42.5 68t58.5 75q-61 63 -104 139l25 16q70 -78 160 -154v-13l-51 -42q-43 -37 -110 -105z" />
<glyph unicode="&#xbc;" horiz-adv-x="723" d="M65 256v30q56 1 67 7.5t11 39.5v210q0 27 -9.5 33.5t-56.5 6.5h-18v28q56 9 143 43v-316q0 -36 12.5 -44t65.5 -8v-30h-215zM175 0l327 640h45l-326 -640h-46zM421 90v29l177 269h31v-264h69v-34h-69v-31q0 -20 5 -24.5t27 -4.5h12v-30h-151v30h11q23 0 30 5.5t7 23.5v31 h-149zM462 124h108v166z" />
<glyph unicode="&#xbd;" horiz-adv-x="723" d="M65 256v30q56 1 67 7.5t11 39.5v210q0 27 -9.5 33.5t-56.5 6.5h-18v28q56 9 143 43v-316q0 -36 12.5 -44t65.5 -8v-30h-215zM175 0l327 640h45l-326 -640h-46zM424 0v25q34 62 114 143q46 46 62 72t16 55q0 31 -17 48.5t-46 17.5q-23 0 -39.5 -10.5t-16.5 -24.5 q0 -5 8 -20q6 -9 6 -20q0 -15 -10 -25.5t-25 -10.5q-17 0 -28 12.5t-11 32.5q0 38 37.5 67.5t86.5 29.5q53 0 87.5 -28.5t34.5 -72.5q0 -35 -20 -63t-78 -75q-44 -35 -64.5 -55.5t-38.5 -46.5h99q34 0 48.5 12.5t27.5 53.5l30 -7l-28 -110h-235z" />
<glyph unicode="&#xbe;" horiz-adv-x="723" d="M153 248q-53 0 -89 22t-36 55q0 17 11 27.5t28 10.5q16 0 26 -10.5t10 -27.5q0 -7 -1 -11l-2 -10q-1 -11 13.5 -18.5t36.5 -7.5q35 0 55.5 21.5t20.5 58.5q0 41 -19 63.5t-54 22.5q-12 0 -19 -1h-11q-21 0 -21 16q0 17 21 17q7 0 12 -1h12q31 0 50.5 21t19.5 55 q0 66 -63 66q-19 0 -31.5 -8t-12.5 -21q0 -6 1 -10t1 -11q0 -14 -10 -24t-24 -10q-16 0 -26.5 10t-10.5 25q0 32 37 56t87 24t83.5 -26.5t33.5 -65.5q0 -65 -77 -95q40 -7 65 -35.5t25 -66.5q0 -48 -40.5 -79.5t-101.5 -31.5zM175 0l327 640h46l-327 -640h-46zM421 90v29 l177 269h31v-264h69v-34h-69v-31q0 -20 5 -24.5t27 -4.5h12v-30h-151v30h11q23 0 30 5.5t7 23.5v31h-149zM462 124h108v166z" />
<glyph unicode="&#xbf;" horiz-adv-x="297" d="M159 350q-26 0 -44.5 18.5t-18.5 45.5q0 26 18.5 44.5t44.5 18.5q27 0 45.5 -18.5t18.5 -44.5q0 -27 -18.5 -45.5t-45.5 -18.5zM37 123q0 49 28 81.5t72 34.5v58h42v-121q-40 -1 -62.5 -21t-22.5 -55q0 -23 10 -39t24 -16q9 0 13.5 3t17.5 18q13 16 30 16t29.5 -13 t12.5 -29q0 -23 -20.5 -38t-51.5 -15q-49 0 -85.5 40.5t-36.5 95.5z" />
<glyph unicode="&#xc0;" horiz-adv-x="595" d="M301 737l-151 46q-22 7 -30.5 15.5t-8.5 22.5q0 13 10 22.5t24 9.5q15 0 37 -14l146 -89zM-7 0v39q36 1 51.5 16.5t30.5 62.5l178 543l81 25l181 -568q18 -56 29.5 -66.5t56.5 -12.5v-39h-250v39h26q51 0 51 32q0 11 -10 47l-34 112h-225l-34 -112q-5 -18 -5 -28 q0 -28 17 -39.5t60 -11.5v-39h-204zM174 275h195l-93 316z" />
<glyph unicode="&#xc1;" horiz-adv-x="595" d="M292 737l-26 13l145 89q24 14 38 14t24 -9.5t10 -22.5q0 -14 -8.5 -22.5t-30.5 -15.5zM-7 0v39q36 1 51.5 16.5t30.5 62.5l178 543l81 25l181 -568q18 -56 29.5 -66.5t56.5 -12.5v-39h-250v39h26q51 0 51 32q0 11 -10 47l-34 112h-225l-34 -112q-5 -18 -5 -28 q0 -28 17 -39.5t60 -11.5v-39h-204zM174 275h195l-93 316z" />
<glyph unicode="&#xc2;" horiz-adv-x="595" d="M160 737l116 116h41l116 -116h-33l-103 62l-104 -62h-33zM-7 0v39q36 1 51.5 16.5t30.5 62.5l178 543l81 25l181 -568q18 -56 29.5 -66.5t56.5 -12.5v-39h-250v39h26q51 0 51 32q0 11 -10 47l-34 112h-225l-34 -112q-5 -18 -5 -28q0 -28 17 -39.5t60 -11.5v-39h-204z M174 275h195l-93 316z" />
<glyph unicode="&#xc3;" horiz-adv-x="595" d="M153 753q15 47 33 67t46 20q17 0 83 -23q33 -12 51 -12q13 0 21.5 7.5t22.5 30.5l31 -10q-29 -85 -84 -85q-16 0 -54 13q-58 21 -76 21q-14 0 -23 -7t-19 -28zM-7 0v39q36 1 51.5 16.5t30.5 62.5l178 543l81 25l181 -568q18 -56 29.5 -66.5t56.5 -12.5v-39h-250v39h26 q51 0 51 32q0 11 -10 47l-34 112h-225l-34 -112q-5 -18 -5 -28q0 -28 17 -39.5t60 -11.5v-39h-204zM174 275h195l-93 316z" />
<glyph unicode="&#xc4;" horiz-adv-x="595" d="M413 747q-20 0 -34.5 14.5t-14.5 34.5t14.5 34t34.5 14q19 0 33.5 -14t14.5 -34t-14 -34.5t-34 -14.5zM183 747q-20 0 -34.5 14.5t-14.5 34.5t14 34t34 14t34.5 -14t14.5 -34t-14 -34.5t-34 -14.5zM-7 0v39q36 1 51.5 16.5t30.5 62.5l178 543l81 25l181 -568 q18 -56 29.5 -66.5t56.5 -12.5v-39h-250v39h26q51 0 51 32q0 11 -10 47l-34 112h-225l-34 -112q-5 -18 -5 -28q0 -28 17 -39.5t60 -11.5v-39h-204zM174 275h195l-93 316z" />
<glyph unicode="&#xc5;" horiz-adv-x="595" d="M297 730q-33 0 -56.5 23.5t-23.5 56.5t23.5 56.5t56.5 23.5t56.5 -23.5t23.5 -56.5t-23.5 -56.5t-56.5 -23.5zM297 772q16 0 27 11t11 27t-11 27t-27 11t-27 -11t-11 -27t11 -27t27 -11zM-7 0v39q36 1 51.5 16.5t30.5 62.5l178 543l81 25l181 -568q18 -56 29.5 -66.5 t56.5 -12.5v-39h-250v39h26q51 0 51 32q0 11 -10 47l-34 112h-225l-34 -112q-5 -18 -5 -28q0 -28 17 -39.5t60 -11.5v-39h-204zM174 275h195l-93 316z" />
<glyph unicode="&#xc6;" horiz-adv-x="985" d="M-6 0v39q35 6 53.5 20.5t49.5 58.5l334 485q8 12 8 16q0 10 -18 10h-52v38h497l59 -160l-35 -14q-47 73 -98 103.5t-125 30.5q-56 0 -73.5 -11t-17.5 -46v-208h28q76 0 106.5 23.5t36.5 87.5h37v-264h-37q-7 66 -37 90t-107 24h-27v-208q0 -50 12.5 -63.5t58.5 -13.5 q170 0 267 151l31 -13l-64 -176h-485v39h23q39 0 51.5 15t12.5 64v119h-254l-75 -119q-27 -44 -27 -56q0 -23 43 -23h36v-39h-212zM255 276h228v330z" />
<glyph unicode="&#xc7;" horiz-adv-x="605" d="M198 -137q60 -32 94 -32q22 0 36.5 12t14.5 31q0 32 -37 32q-9 0 -24 -3l-13 7l32 77q-116 7 -188.5 93t-72.5 217q0 155 84.5 269t199.5 114q46 0 85 -15q24 -9 35 -9q18 0 68 18l57 -174l-37 -15q-32 67 -90 111t-115 44q-83 0 -135 -80.5t-52 -210.5q0 -134 56.5 -213 t151.5 -79q59 0 109 37t76 99l36 -16q-32 -83 -93.5 -133t-140.5 -57l-15 -50q11 5 23 5q29 0 48.5 -18.5t19.5 -46.5q0 -37 -32 -60.5t-82 -23.5q-62 0 -117 38z" />
<glyph unicode="&#xc8;" horiz-adv-x="620" d="M163 783q-22 7 -30.5 15.5t-8.5 22.5q0 13 10 22.5t24 9.5q15 0 37 -14l146 -89l-27 -13zM30 0v39h23q39 0 51.5 15t12.5 63v433q0 48 -12.5 63t-51.5 15h-23v39h471l59 -162l-35 -12q-52 76 -101.5 105.5t-125.5 29.5q-54 0 -71 -12t-17 -49v-205h31q73 0 101 22.5 t39 88.5h38v-265h-37q-10 69 -38.5 92t-105.5 23h-28v-220q0 -41 14 -53t63 -12q83 0 141.5 33.5t120.5 116.5l31 -14l-65 -174h-485z" />
<glyph unicode="&#xc9;" horiz-adv-x="620" d="M305 737l-26 13l145 89q24 14 38 14t24 -9.5t10 -22.5q0 -14 -8.5 -22.5t-30.5 -15.5zM30 0v39h23q39 0 51.5 15t12.5 63v433q0 48 -12.5 63t-51.5 15h-23v39h471l59 -162l-35 -12q-52 76 -101.5 105.5t-125.5 29.5q-54 0 -71 -12t-17 -49v-205h31q73 0 101 22.5t39 88.5 h38v-265h-37q-10 69 -38.5 92t-105.5 23h-28v-220q0 -41 14 -53t63 -12q83 0 141.5 33.5t120.5 116.5l31 -14l-65 -174h-485z" />
<glyph unicode="&#xca;" horiz-adv-x="620" d="M173 737l116 116h41l116 -116h-33l-103 62l-104 -62h-33zM30 0v39h23q39 0 51.5 15t12.5 63v433q0 48 -12.5 63t-51.5 15h-23v39h471l59 -162l-35 -12q-52 76 -101.5 105.5t-125.5 29.5q-54 0 -71 -12t-17 -49v-205h31q73 0 101 22.5t39 88.5h38v-265h-37 q-10 69 -38.5 92t-105.5 23h-28v-220q0 -41 14 -53t63 -12q83 0 141.5 33.5t120.5 116.5l31 -14l-65 -174h-485z" />
<glyph unicode="&#xcb;" horiz-adv-x="620" d="M426 747q-20 0 -34.5 14.5t-14.5 34.5t14.5 34t34.5 14t34 -14t14 -34t-14 -34.5t-34 -14.5zM196 747q-20 0 -34.5 14.5t-14.5 34.5t14.5 34t33.5 14q20 0 34.5 -14t14.5 -34t-14 -34.5t-34 -14.5zM30 0v39h23q39 0 51.5 15t12.5 63v433q0 48 -12.5 63t-51.5 15h-23v39 h471l59 -162l-35 -12q-52 76 -101.5 105.5t-125.5 29.5q-54 0 -71 -12t-17 -49v-205h31q73 0 101 22.5t39 88.5h38v-265h-37q-10 69 -38.5 92t-105.5 23h-28v-220q0 -41 14 -53t63 -12q83 0 141.5 33.5t120.5 116.5l31 -14l-65 -174h-485z" />
<glyph unicode="&#xcc;" horiz-adv-x="327" d="M167 737l-151 46q-22 7 -30.5 15.5t-8.5 22.5q0 13 10 22.5t24 9.5q15 0 37 -14l146 -89zM29 0v39h23q39 0 51.5 15t12.5 63v433q0 48 -12.5 63t-51.5 15h-23v39h267v-39h-23q-39 0 -51.5 -15t-12.5 -63v-433q0 -48 12.5 -63t51.5 -15h23v-39h-267z" />
<glyph unicode="&#xcd;" horiz-adv-x="327" d="M159 737l-26 13l145 89q24 14 38 14t24 -9.5t10 -22.5q0 -14 -8.5 -22.5t-30.5 -15.5zM30 0v39h23q39 0 51.5 15t12.5 63v433q0 48 -12.5 63t-51.5 15h-23v39h267v-39h-23q-39 0 -51.5 -15t-12.5 -63v-433q0 -48 12.5 -63t51.5 -15h23v-39h-267z" />
<glyph unicode="&#xce;" horiz-adv-x="327" d="M27 737l116 116h41l116 -116h-33l-103 62l-104 -62h-33zM30 0v39h23q39 0 51.5 15t12.5 63v433q0 48 -12.5 63t-51.5 15h-23v39h267v-39h-23q-39 0 -51.5 -15t-12.5 -63v-433q0 -48 12.5 -63t51.5 -15h23v-39h-267z" />
<glyph unicode="&#xcf;" horiz-adv-x="327" d="M249 747q-20 0 -34.5 14.5t-14.5 34.5t14.5 34t34.5 14q19 0 33.5 -14t14.5 -34t-14 -34.5t-34 -14.5zM79 747q-20 0 -34.5 14.5t-14.5 34.5t14 34t34 14t34.5 -14t14.5 -34t-14 -34.5t-34 -14.5zM30 0v39h23q39 0 51.5 15t12.5 63v433q0 48 -12.5 63t-51.5 15h-23v39 h267v-39h-23q-39 0 -51.5 -15t-12.5 -63v-433q0 -48 12.5 -63t51.5 -15h23v-39h-267z" />
<glyph unicode="&#xd0;" horiz-adv-x="667" d="M30 0v39h23q39 0 51.5 15t12.5 63v203h-87v39h87v191q0 48 -12.5 63t-51.5 15h-23v39h225q95 0 134 -9q109 -23 173.5 -110t64.5 -212q0 -97 -42.5 -176t-116.5 -120q-74 -40 -207 -40h-231zM210 125q0 -54 14 -71t60 -17q127 0 183.5 71.5t56.5 233.5q0 152 -55 219.5 t-178 67.5q-47 0 -64 -15.5t-17 -59.5v-195h173v-39h-173v-195z" />
<glyph unicode="&#xd1;" horiz-adv-x="683" d="M197 753q15 47 33 67t46 20q17 0 83 -23q33 -12 51 -12q13 0 21.5 7.5t22.5 30.5l31 -10q-29 -85 -84 -85q-16 0 -54 13q-58 21 -76 21q-14 0 -23 -7t-19 -28zM30 0v39l23 2q34 3 49 30.5t15 85.5v432q-30 34 -87 37v41h157l339 -488v331q0 58 -14.5 84t-49.5 31l-23 3 v39h221v-39l-23 -3q-35 -5 -49.5 -31t-14.5 -84v-523h-31l-378 560v-390q0 -58 15 -85.5t49 -30.5l23 -2v-39h-221z" />
<glyph unicode="&#xd2;" horiz-adv-x="654" d="M180 783q-22 7 -30.5 15.5t-8.5 22.5q0 13 10 22.5t24 9.5q15 0 37 -14l146 -89l-27 -13zM327 -13q-120 0 -203.5 102.5t-83.5 250.5q0 138 85 239t202 101q119 0 203 -101.5t84 -244.5q0 -144 -84 -245.5t-203 -101.5zM327 24q82 0 133 85.5t51 224.5q0 138 -51 223.5 t-133 85.5t-133 -85.5t-51 -223.5q0 -139 51 -224.5t133 -85.5z" />
<glyph unicode="&#xd3;" horiz-adv-x="654" d="M322 737l-26 13l145 89q24 14 38 14t24 -9.5t10 -22.5q0 -14 -8.5 -22.5t-30.5 -15.5zM327 -13q-120 0 -203.5 102.5t-83.5 250.5q0 138 85 239t202 101q119 0 203 -101.5t84 -244.5q0 -144 -84 -245.5t-203 -101.5zM327 24q82 0 133 85.5t51 224.5q0 138 -51 223.5 t-133 85.5t-133 -85.5t-51 -223.5q0 -139 51 -224.5t133 -85.5z" />
<glyph unicode="&#xd4;" horiz-adv-x="654" d="M190 737l116 116h41l116 -116h-33l-103 62l-104 -62h-33zM327 -13q-120 0 -203.5 102.5t-83.5 250.5q0 138 85 239t202 101q119 0 203 -101.5t84 -244.5q0 -144 -84 -245.5t-203 -101.5zM327 24q82 0 133 85.5t51 224.5q0 138 -51 223.5t-133 85.5t-133 -85.5t-51 -223.5 q0 -139 51 -224.5t133 -85.5z" />
<glyph unicode="&#xd5;" horiz-adv-x="654" d="M183 753q15 47 33 67t46 20q17 0 83 -23q33 -12 51 -12q13 0 21.5 7.5t22.5 30.5l31 -10q-29 -85 -84 -85q-16 0 -54 13q-58 21 -76 21q-14 0 -23 -7t-19 -28zM327 -13q-120 0 -203.5 102.5t-83.5 250.5q0 138 85 239t202 101q119 0 203 -101.5t84 -244.5 q0 -144 -84 -245.5t-203 -101.5zM327 24q82 0 133 85.5t51 224.5q0 138 -51 223.5t-133 85.5t-133 -85.5t-51 -223.5q0 -139 51 -224.5t133 -85.5z" />
<glyph unicode="&#xd6;" horiz-adv-x="654" d="M443 747q-20 0 -34.5 14.5t-14.5 34.5t14.5 34t34.5 14q19 0 33.5 -14t14.5 -34t-14 -34.5t-34 -14.5zM213 747q-20 0 -34.5 14.5t-14.5 34.5t14 34t34 14t34.5 -14t14.5 -34t-14 -34.5t-34 -14.5zM327 -13q-120 0 -203.5 102.5t-83.5 250.5q0 138 85 239t202 101 q119 0 203 -101.5t84 -244.5q0 -144 -84 -245.5t-203 -101.5zM327 24q82 0 133 85.5t51 224.5q0 138 -51 223.5t-133 85.5t-133 -85.5t-51 -223.5q0 -139 51 -224.5t133 -85.5z" />
<glyph unicode="&#xd7;" horiz-adv-x="495" d="M99 142l-33 33l148 148l-148 149l33 33l148 -149l149 149l33 -33l-149 -149l149 -148l-33 -33l-149 148z" />
<glyph unicode="&#xd8;" horiz-adv-x="655" d="M113 -17l41 73q-54 52 -84 125t-30 152q0 144 84 245.5t203 101.5q78 0 150 -50l32 57l33 -18l-36 -64q51 -50 80 -121.5t29 -149.5q0 -144 -84 -245.5t-203 -101.5q-76 0 -144 45l-39 -68zM189 119l258 458q-48 66 -120 66q-82 0 -133 -85.5t-51 -223.5q0 -133 46 -215z M212 83q47 -59 116 -59q82 0 133 85.5t51 223.5q0 123 -42 207z" />
<glyph unicode="&#xd9;" horiz-adv-x="700" d="M203 783q-22 7 -30.5 15.5t-8.5 22.5q0 13 10 22.5t24 9.5q15 0 37 -14l146 -89l-27 -13zM117 203v347q0 49 -12 63.5t-51 14.5h-24v39h267v-39h-23q-38 0 -51 -15.5t-13 -62.5v-305q0 -65 4.5 -91.5t18.5 -51.5q44 -73 134 -73q55 0 95.5 25t57.5 69q16 43 16 138v249 q0 57 -14.5 83.5t-49.5 31.5l-23 3v39h221v-39l-22 -3q-65 -10 -65 -112v-252q0 -124 -31 -178q-55 -97 -201 -97q-112 0 -173 56.5t-61 160.5z" />
<glyph unicode="&#xda;" horiz-adv-x="700" d="M345 737l-26 13l145 89q24 14 38 14t24 -9.5t10 -22.5q0 -14 -8.5 -22.5t-30.5 -15.5zM117 203v347q0 49 -12 63.5t-51 14.5h-24v39h267v-39h-23q-38 0 -51 -15.5t-13 -62.5v-305q0 -65 4.5 -91.5t18.5 -51.5q44 -73 134 -73q55 0 95.5 25t57.5 69q16 43 16 138v249 q0 57 -14.5 83.5t-49.5 31.5l-23 3v39h221v-39l-22 -3q-65 -10 -65 -112v-252q0 -124 -31 -178q-55 -97 -201 -97q-112 0 -173 56.5t-61 160.5z" />
<glyph unicode="&#xdb;" horiz-adv-x="700" d="M213 737l116 116h41l116 -116h-33l-103 62l-104 -62h-33zM117 203v347q0 49 -12 63.5t-51 14.5h-24v39h267v-39h-23q-38 0 -51 -15.5t-13 -62.5v-305q0 -65 4.5 -91.5t18.5 -51.5q44 -73 134 -73q55 0 95.5 25t57.5 69q16 43 16 138v249q0 57 -14.5 83.5t-49.5 31.5 l-23 3v39h221v-39l-22 -3q-65 -10 -65 -112v-252q0 -124 -31 -178q-55 -97 -201 -97q-112 0 -173 56.5t-61 160.5z" />
<glyph unicode="&#xdc;" horiz-adv-x="700" d="M466 747q-20 0 -34.5 14.5t-14.5 34.5t14.5 34t34.5 14t34 -14t14 -34t-14 -34.5t-34 -14.5zM236 747q-20 0 -34.5 14.5t-14.5 34.5t14.5 34t33.5 14q20 0 34.5 -14t14.5 -34t-14 -34.5t-34 -14.5zM117 203v347q0 49 -12 63.5t-51 14.5h-24v39h267v-39h-23 q-38 0 -51 -15.5t-13 -62.5v-305q0 -65 4.5 -91.5t18.5 -51.5q44 -73 134 -73q55 0 95.5 25t57.5 69q16 43 16 138v249q0 57 -14.5 83.5t-49.5 31.5l-23 3v39h221v-39l-22 -3q-65 -10 -65 -112v-252q0 -124 -31 -178q-55 -97 -201 -97q-112 0 -173 56.5t-61 160.5z" />
<glyph unicode="&#xdd;" horiz-adv-x="540" d="M265 737l-26 13l145 89q24 14 38 14t24 -9.5t10 -22.5q0 -14 -8.5 -22.5t-30.5 -15.5zM132 0v39h23q39 0 51.5 15t12.5 63v156l-164 327q-8 16 -18 21t-38 7h-6v39h234v-39h-20q-36 -1 -43.5 -4.5t-7.5 -14.5q0 -8 26 -59l108 -219l105 219q15 32 15 45q0 18 -14 25.5 t-47 7.5h-8v39h205v-39q-42 -4 -55 -14.5t-41 -63.5l-138 -265v-168q0 -48 12.5 -63t51.5 -15h23v-39h-267z" />
<glyph unicode="&#xde;" horiz-adv-x="574" d="M30 0v39h23q39 0 51.5 15t12.5 63v433q0 48 -12.5 63t-51.5 15h-23v39h273v-39h-29q-39 0 -51.5 -15t-12.5 -63v-33h62q72 0 112.5 -7.5t72.5 -27.5q87 -52 87 -148q0 -58 -33 -100.5t-92 -60.5q-44 -14 -121 -15l-88 -1v-40q0 -48 12.5 -63t51.5 -15h29v-39h-273z M210 197h63q52 0 75.5 5t45.5 21q47 32 47 112q0 145 -142 145q-55 0 -72 -13.5t-17 -56.5v-213z" />
<glyph unicode="&#xdf;" horiz-adv-x="836" d="M458 123l33 16q32 -53 76 -86t84 -33q36 0 60 25t24 63q0 37 -23.5 56.5t-87.5 36.5q-79 20 -113 52t-34 87q0 56 39 96t94 40q23 0 68 -17q12 -4 16 -4q5 0 15 5l30 14l47 -131l-32 -18q-67 118 -143 118q-32 0 -53.5 -23t-21.5 -58q0 -58 89 -80q63 -15 82.5 -22 t38.5 -23q50 -39 50 -104q0 -61 -42.5 -103.5t-103.5 -42.5q-32 0 -71 19q-16 8 -23 8q-8 0 -16 -6l-33 -20zM89 -12l-49 135l33 16q32 -53 76 -86t84 -33q36 0 60 25t24 63q0 37 -23.5 56.5t-87.5 36.5q-79 20 -113 52t-34 87q0 56 39 96t94 40q23 0 68 -17q12 -4 16 -4 q5 0 15 5l30 14l47 -131l-32 -18q-67 118 -143 118q-32 0 -53.5 -23t-21.5 -58q0 -58 89 -80q63 -15 82.5 -22t38.5 -23q50 -39 50 -104q0 -61 -42.5 -103.5t-103.5 -42.5q-32 0 -71 19q-16 8 -23 8q-8 0 -16 -6z" />
<glyph unicode="&#xe0;" horiz-adv-x="447" d="M225 517l-136 81q-30 18 -30 39q0 13 10 22.5t23 9.5q18 0 42 -24l120 -121zM0 0v37q28 1 39 10t22 41l127 371l65 20l131 -391q13 -37 21.5 -43.5t42.5 -7.5v-37h-187v37h23q29 0 29 17q0 3 -3 12l-26 90h-154l-23 -72q-4 -14 -4 -22q0 -14 11.5 -19.5t41.5 -5.5v-37 h-156zM143 196h127l-59 201z" />
<glyph unicode="&#xe1;" horiz-adv-x="447" d="M193 524l120 121q24 24 42 24q13 0 23 -9.5t10 -22.5q0 -21 -30 -39l-136 -81zM0 0v37q28 1 39 10t22 41l127 371l65 20l131 -391q13 -37 21.5 -43.5t42.5 -7.5v-37h-187v37h23q29 0 29 17q0 3 -3 12l-26 90h-154l-23 -72q-4 -14 -4 -22q0 -14 11.5 -19.5t41.5 -5.5v-37 h-156zM143 196h127l-59 201z" />
<glyph unicode="&#xe2;" horiz-adv-x="447" d="M98 517l105 150h41l105 -150h-33l-92 96l-92 -96h-34zM0 0v37q28 1 39 10t22 41l127 371l65 20l131 -391q13 -37 21.5 -43.5t42.5 -7.5v-37h-187v37h23q29 0 29 17q0 3 -3 12l-26 90h-154l-23 -72q-4 -14 -4 -22q0 -14 11.5 -19.5t41.5 -5.5v-37h-156zM143 196h127 l-59 201z" />
<glyph unicode="&#xe3;" horiz-adv-x="447" d="M126 543l-32 11q15 50 31 71t39 21q13 0 60 -22q52 -26 64 -26t18.5 7t13.5 30l2 6l32 -11q-15 -50 -31 -71t-39 -21q-15 0 -60 22q-51 26 -64 26q-12 0 -18.5 -7t-13.5 -30zM0 0v37q28 1 39 10t22 41l127 371l65 20l131 -391q13 -37 21.5 -43.5t42.5 -7.5v-37h-187v37 h23q29 0 29 17q0 3 -3 12l-26 90h-154l-23 -72q-4 -14 -4 -22q0 -14 11.5 -19.5t41.5 -5.5v-37h-156zM143 196h127l-59 201z" />
<glyph unicode="&#xe4;" horiz-adv-x="447" d="M304 543q-20 0 -34.5 14.5t-14.5 34.5t14.5 34t34.5 14t34 -14t14 -34t-14 -34.5t-34 -14.5zM145 543q-20 0 -34.5 14.5t-14.5 34.5t14 34t34 14t34.5 -14t14.5 -34t-14 -34.5t-34 -14.5zM0 0v37q28 1 39 10t22 41l127 371l65 20l131 -391q13 -37 21.5 -43.5t42.5 -7.5 v-37h-187v37h23q29 0 29 17q0 3 -3 12l-26 90h-154l-23 -72q-4 -14 -4 -22q0 -14 11.5 -19.5t41.5 -5.5v-37h-156zM143 196h127l-59 201z" />
<glyph unicode="&#xe5;" horiz-adv-x="447" d="M224 544q-33 0 -56.5 23.5t-23.5 56.5t23.5 56.5t56.5 23.5t56.5 -23.5t23.5 -56.5t-23.5 -56.5t-56.5 -23.5zM224 579q19 0 32 13t13 32t-13 32t-32 13t-32 -13t-13 -32t13 -32t32 -13zM0 0v37q28 1 39 10t22 41l127 371l65 20l131 -391q13 -37 21.5 -43.5t42.5 -7.5 v-37h-187v37h23q29 0 29 17q0 3 -3 12l-26 90h-154l-23 -72q-4 -14 -4 -22q0 -14 11.5 -19.5t41.5 -5.5v-37h-156zM143 196h127l-59 201z" />
<glyph unicode="&#xe6;" horiz-adv-x="712" d="M0 0v37q28 4 39.5 12.5t33.5 40.5l229 335q-8 1 -17 1h-11v37h347l44 -120l-35 -12q-37 57 -69 76t-88 19q-39 0 -49 -6.5t-10 -31.5v-132h27q48 0 65 14.5t24 61.5h37v-192h-37q-6 49 -23 64t-68 15h-25v-142q0 -26 7.5 -33t38.5 -7q66 0 108 23.5t77 81.5l34 -15 l-48 -127h-357v37q42 -1 52.5 10t10.5 54v59h-166l-61 -93q-9 -13 -9 -20q0 -6 5.5 -8t25.5 -2h18v-37h-150zM196 200h141v209z" />
<glyph unicode="&#xe7;" horiz-adv-x="464" d="M145 -152q37 -17 65 -17q24 0 39.5 12.5t15.5 32.5q0 35 -39 35q-9 0 -24 -3l-10 6l30 73q-83 7 -133.5 67.5t-50.5 152.5q0 109 61 189t144 80q36 0 65 -13q16 -8 24 -8q11 0 35 10l12 4l42 -130l-34 -14q-22 52 -62 85t-80 33q-56 0 -91 -56t-35 -145q0 -92 38.5 -147 t102.5 -55q41 0 74.5 27.5t52.5 77.5l34 -14q-45 -133 -171 -144l-16 -50q16 5 28 5q29 0 47.5 -17.5t18.5 -44.5q0 -37 -31 -59t-82 -22q-44 0 -85 19z" />
<glyph unicode="&#xe8;" horiz-adv-x="475" d="M246 517l-136 81q-30 18 -30 39q0 13 10 22.5t23 9.5q18 0 42 -24l120 -121zM37 0v37q42 -1 52.5 10t10.5 54v261q0 43 -10.5 54t-52.5 10v37h347l44 -120l-35 -12q-37 57 -69 76t-88 19q-39 0 -49 -6.5t-10 -31.5v-132h27q48 0 65 14.5t24 61.5h37v-192h-37 q-6 49 -23 64t-68 15h-25v-142q0 -26 7.5 -33t38.5 -7q66 0 108 23.5t77 81.5l34 -15l-48 -127h-357z" />
<glyph unicode="&#xe9;" horiz-adv-x="475" d="M214 524l120 121q24 24 42 24q13 0 23 -9.5t10 -22.5q0 -21 -30 -39l-136 -81zM37 0v37q42 -1 52.5 10t10.5 54v261q0 43 -10.5 54t-52.5 10v37h347l44 -120l-35 -12q-37 57 -69 76t-88 19q-39 0 -49 -6.5t-10 -31.5v-132h27q48 0 65 14.5t24 61.5h37v-192h-37 q-6 49 -23 64t-68 15h-25v-142q0 -26 7.5 -33t38.5 -7q66 0 108 23.5t77 81.5l34 -15l-48 -127h-357z" />
<glyph unicode="&#xea;" horiz-adv-x="475" d="M119 517l105 150h41l105 -150h-33l-92 96l-92 -96h-34zM37 0v37q42 -1 52.5 10t10.5 54v261q0 43 -10.5 54t-52.5 10v37h347l44 -120l-35 -12q-37 57 -69 76t-88 19q-39 0 -49 -6.5t-10 -31.5v-132h27q48 0 65 14.5t24 61.5h37v-192h-37q-6 49 -23 64t-68 15h-25v-142 q0 -26 7.5 -33t38.5 -7q66 0 108 23.5t77 81.5l34 -15l-48 -127h-357z" />
<glyph unicode="&#xeb;" horiz-adv-x="475" d="M324 543q-20 0 -34.5 14.5t-14.5 34.5t14.5 34t34.5 14t34 -14t14 -34t-14 -34.5t-34 -14.5zM165 543q-20 0 -34.5 14.5t-14.5 34.5t14 34t34 14t34.5 -14t14.5 -34t-14 -34.5t-34 -14.5zM37 0v37q42 -1 52.5 10t10.5 54v261q0 43 -10.5 54t-52.5 10v37h347l44 -120 l-35 -12q-37 57 -69 76t-88 19q-39 0 -49 -6.5t-10 -31.5v-132h27q48 0 65 14.5t24 61.5h37v-192h-37q-6 49 -23 64t-68 15h-25v-142q0 -26 7.5 -33t38.5 -7q66 0 108 23.5t77 81.5l34 -15l-48 -127h-357z" />
<glyph unicode="&#xec;" horiz-adv-x="277" d="M139 517l-136 81q-30 18 -30 39q0 13 10 22.5t23 9.5q18 0 42 -24l120 -121zM37 0v37q42 -1 52.5 10t10.5 54v261q0 43 -10.5 54t-52.5 10v37h203v-37q-42 1 -52.5 -10t-10.5 -54v-261q0 -43 10.5 -54t52.5 -10v-37h-203z" />
<glyph unicode="&#xed;" horiz-adv-x="277" d="M137 517l-29 7l120 121q24 24 42 24q13 0 23 -9.5t10 -22.5q0 -21 -30 -39zM37 0v37q42 -1 52.5 10t10.5 54v261q0 43 -10.5 54t-52.5 10v37h203v-37q-42 1 -52.5 -10t-10.5 -54v-261q0 -43 10.5 -54t52.5 -10v-37h-203z" />
<glyph unicode="&#xee;" horiz-adv-x="277" d="M13 517l105 150h41l105 -150h-33l-92 96l-92 -96h-34zM37 0v37q42 -1 52.5 10t10.5 54v261q0 43 -10.5 54t-52.5 10v37h203v-37q-42 1 -52.5 -10t-10.5 -54v-261q0 -43 10.5 -54t52.5 -10v-37h-203z" />
<glyph unicode="&#xef;" horiz-adv-x="277" d="M203 543q-20 0 -34 14t-14 34t14 33.5t34 13.5q19 0 33 -14t14 -33q0 -20 -13.5 -34t-33.5 -14zM77 543q-20 0 -34 14t-14 34t14 33.5t34 13.5q19 0 33 -14t14 -33q0 -20 -13.5 -34t-33.5 -14zM37 0v37q42 -1 52.5 10t10.5 54v261q0 43 -10.5 54t-52.5 10v37h203v-37 q-42 1 -52.5 -10t-10.5 -54v-261q0 -43 10.5 -54t52.5 -10v-37h-203z" />
<glyph unicode="&#xf0;" horiz-adv-x="510" d="M37 0v37q42 -1 52.5 10t10.5 54v125h-63v37h63v99q0 43 -10.5 54t-52.5 10v37h171q71 0 106.5 -8.5t69.5 -33.5q88 -64 88 -188q0 -67 -30.5 -122t-83.5 -83q-52 -28 -146 -28h-175zM177 91q0 -37 10 -45.5t53 -8.5q77 0 113 48.5t36 152.5q0 101 -36.5 144.5 t-120.5 43.5q-33 0 -44 -9t-11 -35v-119h83v-37h-83v-135z" />
<glyph unicode="&#xf1;" horiz-adv-x="518" d="M161 543l-32 11q15 50 31 71t39 21q13 0 60 -22q52 -26 64 -26t18.5 7t13.5 30l2 6l32 -11q-15 -50 -31 -71t-39 -21q-15 0 -60 22q-51 26 -64 26q-12 0 -18.5 -7t-13.5 -30zM37 0v37q42 -1 52.5 10t10.5 54v261q0 43 -10.5 54t-52.5 10v37h115l233 -328v227 q0 43 -10.5 54t-52.5 10v37h166v-37q-42 1 -52.5 -10t-10.5 -54v-371h-26l-259 366v-256q0 -43 10.5 -54t52.5 -10v-37h-166z" />
<glyph unicode="&#xf2;" horiz-adv-x="490" d="M247 517l-136 81q-30 18 -30 39q0 13 10 22.5t23 9.5q18 0 42 -24l120 -121zM38 236q0 97 61.5 168.5t145.5 71.5q86 0 146.5 -71.5t60.5 -172.5t-60.5 -173t-146.5 -72q-87 0 -147 72.5t-60 176.5zM245 20q55 0 89.5 58.5t34.5 153.5q0 94 -34.5 152.5t-89.5 58.5 t-89.5 -58.5t-34.5 -153.5q0 -94 34.5 -152.5t89.5 -58.5z" />
<glyph unicode="&#xf3;" horiz-adv-x="490" d="M214 524l120 121q24 24 42 24q13 0 23 -9.5t10 -22.5q0 -21 -30 -39l-136 -81zM38 236q0 97 61.5 168.5t145.5 71.5q86 0 146.5 -71.5t60.5 -172.5t-60.5 -173t-146.5 -72q-87 0 -147 72.5t-60 176.5zM245 20q55 0 89.5 58.5t34.5 153.5q0 94 -34.5 152.5t-89.5 58.5 t-89.5 -58.5t-34.5 -153.5q0 -94 34.5 -152.5t89.5 -58.5z" />
<glyph unicode="&#xf4;" horiz-adv-x="490" d="M120 517l105 150h41l105 -150h-33l-92 96l-92 -96h-34zM38 236q0 97 61.5 168.5t145.5 71.5q86 0 146.5 -71.5t60.5 -172.5t-60.5 -173t-146.5 -72q-87 0 -147 72.5t-60 176.5zM245 20q55 0 89.5 58.5t34.5 153.5q0 94 -34.5 152.5t-89.5 58.5t-89.5 -58.5t-34.5 -153.5 q0 -94 34.5 -152.5t89.5 -58.5z" />
<glyph unicode="&#xf5;" horiz-adv-x="490" d="M147 543l-32 11q15 50 31 71t39 21q13 0 60 -22q52 -26 64 -26t18.5 7t13.5 30l2 6l32 -11q-15 -50 -31 -71t-39 -21q-15 0 -60 22q-51 26 -64 26q-12 0 -18.5 -7t-13.5 -30zM38 236q0 97 61.5 168.5t145.5 71.5q86 0 146.5 -71.5t60.5 -172.5t-60.5 -173t-146.5 -72 q-87 0 -147 72.5t-60 176.5zM245 20q55 0 89.5 58.5t34.5 153.5q0 94 -34.5 152.5t-89.5 58.5t-89.5 -58.5t-34.5 -153.5q0 -94 34.5 -152.5t89.5 -58.5z" />
<glyph unicode="&#xf6;" horiz-adv-x="490" d="M325 543q-20 0 -34.5 14.5t-14.5 34.5t14.5 34t34.5 14q19 0 33.5 -14t14.5 -34t-14 -34.5t-34 -14.5zM166 543q-20 0 -34.5 14.5t-14.5 34.5t14.5 34t33.5 14q20 0 34.5 -14t14.5 -34t-14 -34.5t-34 -14.5zM38 236q0 97 61.5 168.5t145.5 71.5q86 0 146.5 -71.5 t60.5 -172.5t-60.5 -173t-146.5 -72q-87 0 -147 72.5t-60 176.5zM245 20q55 0 89.5 58.5t34.5 153.5q0 94 -34.5 152.5t-89.5 58.5t-89.5 -58.5t-34.5 -153.5q0 -94 34.5 -152.5t89.5 -58.5z" />
<glyph unicode="&#xf7;" horiz-adv-x="495" d="M247 441q-17 0 -29.5 12.5t-12.5 29.5t12.5 29.5t29.5 12.5t29.5 -12.5t12.5 -29.5t-12.5 -29.5t-29.5 -12.5zM40 300v47h415v-47h-415zM205 163q0 17 12.5 29.5t29.5 12.5t29.5 -12.5t12.5 -29.5t-12.5 -29.5t-29.5 -12.5t-29.5 12.5t-12.5 29.5z" />
<glyph unicode="&#xf8;" horiz-adv-x="490" d="M80 -30l38 68q-37 35 -58.5 86.5t-21.5 106.5q0 101 60.5 173t146.5 72q54 0 100 -30l36 64l29 -17l-38 -68q80 -77 80 -193q0 -101 -60.5 -173t-146.5 -72q-53 0 -100 30l-36 -64zM148 92l174 311q-33 40 -77 40q-55 0 -89.5 -58.5t-34.5 -153.5q0 -81 27 -139zM168 59 q33 -39 77 -39q55 0 89.5 58.5t34.5 153.5q0 82 -27 139z" />
<glyph unicode="&#xf9;" horiz-adv-x="528" d="M265 517l-136 81q-30 18 -30 39q0 13 10 22.5t23 9.5q18 0 42 -24l120 -121zM115 58q-20 37 -20 115v189q0 43 -10.5 54t-52.5 10v37h203v-37q-42 1 -52.5 -10t-10.5 -54v-190q0 -47 3 -65t13 -35q29 -49 90 -49q37 0 64.5 17t38.5 46t11 96v180q0 43 -10.5 54t-52.5 10 v37h166v-37q-42 1 -52.5 -10t-10.5 -54v-180q0 -104 -38.5 -150t-126.5 -46q-111 0 -152 72z" />
<glyph unicode="&#xfa;" horiz-adv-x="528" d="M233 524l120 121q24 24 42 24q13 0 23 -9.5t10 -22.5q0 -21 -30 -39l-136 -81zM115 58q-20 37 -20 115v189q0 43 -10.5 54t-52.5 10v37h203v-37q-42 1 -52.5 -10t-10.5 -54v-190q0 -47 3 -65t13 -35q29 -49 90 -49q37 0 64.5 17t38.5 46t11 96v180q0 43 -10.5 54 t-52.5 10v37h166v-37q-42 1 -52.5 -10t-10.5 -54v-180q0 -104 -38.5 -150t-126.5 -46q-111 0 -152 72z" />
<glyph unicode="&#xfb;" horiz-adv-x="528" d="M139 517l105 150h41l105 -150h-33l-92 96l-92 -96h-34zM115 58q-20 37 -20 115v189q0 43 -10.5 54t-52.5 10v37h203v-37q-42 1 -52.5 -10t-10.5 -54v-190q0 -47 3 -65t13 -35q29 -49 90 -49q37 0 64.5 17t38.5 46t11 96v180q0 43 -10.5 54t-52.5 10v37h166v-37 q-42 1 -52.5 -10t-10.5 -54v-180q0 -104 -38.5 -150t-126.5 -46q-111 0 -152 72z" />
<glyph unicode="&#xfc;" horiz-adv-x="528" d="M344 543q-20 0 -34.5 14.5t-14.5 34.5t14.5 34t34.5 14t34 -14t14 -34t-14 -34.5t-34 -14.5zM185 543q-20 0 -34.5 14.5t-14.5 34.5t14 34t34 14t34.5 -14t14.5 -34t-14 -34.5t-34 -14.5zM115 58q-20 37 -20 115v189q0 43 -10.5 54t-52.5 10v37h203v-37q-42 1 -52.5 -10 t-10.5 -54v-190q0 -47 3 -65t13 -35q29 -49 90 -49q37 0 64.5 17t38.5 46t11 96v180q0 43 -10.5 54t-52.5 10v37h166v-37q-42 1 -52.5 -10t-10.5 -54v-180q0 -104 -38.5 -150t-126.5 -46q-111 0 -152 72z" />
<glyph unicode="&#xfd;" horiz-adv-x="405" d="M172 524l120 121q24 24 42 24q13 0 22.5 -9.5t9.5 -22.5q0 -21 -29 -39l-136 -81zM101 0v37h9q36 0 45 11t9 53v88l-114 213q-8 16 -16.5 20t-33.5 4v37h170v-37q-26 0 -32.5 -2.5t-6.5 -10.5q0 -5 3 -11l86 -159l74 137q10 17 10 28q0 18 -35 18h-12v37h149v-37 q-26 0 -35.5 -7t-30.5 -45l-99 -177v-101q0 -37 9.5 -48t45.5 -11h8v-37h-203z" />
<glyph unicode="&#xfe;" horiz-adv-x="445" d="M37 0v37q42 -1 52.5 10t10.5 54v263q0 16 -1 29q-5 33 -52 33h-10v37h203v-37q-43 0 -52.5 -10t-10.5 -53h42q92 0 133 -24q64 -38 64 -106q0 -40 -24.5 -70t-67.5 -42q-37 -11 -147 -11v-9q0 -42 10 -53t47 -11h13v-37h-210zM177 146h42q60 0 87 21t27 67 q0 47 -23.5 69.5t-72.5 22.5q-38 0 -49 -7.5t-11 -34.5v-138z" />
<glyph unicode="&#xff;" horiz-adv-x="405" d="M283 543q-20 0 -34.5 14.5t-14.5 34.5t14.5 34t34.5 14q19 0 33.5 -14t14.5 -34t-14 -34.5t-34 -14.5zM124 543q-20 0 -34.5 14.5t-14.5 34.5t14.5 34t33.5 14q20 0 34.5 -14t14.5 -34t-14 -34.5t-34 -14.5zM101 0v37h9q36 0 45 11t9 53v88l-114 213q-8 16 -16.5 20 t-33.5 4v37h170v-37q-26 0 -32.5 -2.5t-6.5 -10.5q0 -5 3 -11l86 -159l74 137q10 17 10 28q0 18 -35 18h-12v37h149v-37q-26 0 -35.5 -7t-30.5 -45l-99 -177v-101q0 -37 9.5 -48t45.5 -11h8v-37h-203z" />
<glyph unicode="&#x152;" horiz-adv-x="965" d="M133 88q-93 99 -93 244q0 89 36 163.5t101 120.5q72 51 185 51h481l59 -157l-34 -17q-49 75 -97.5 106t-117.5 31q-52 0 -68 -12t-16 -50v-207h35q123 0 129 111h38v-263h-38q-8 64 -37.5 89.5t-93.5 25.5h-33v-214q0 -46 13 -59.5t58 -13.5q85 0 143.5 34t108.5 114 l34 -11l-65 -174h-501q-145 0 -227 88zM357 40q67 0 93 29t26 102v315q0 83 -27 111.5t-104 28.5q-103 0 -149 -69q-53 -82 -53 -224q0 -151 52 -222t162 -71z" />
<glyph unicode="&#x153;" horiz-adv-x="686" d="M211 2q-77 12 -128.5 77t-51.5 152q0 70 36 130t93 85q39 17 78 17h364l44 -120l-35 -12q-37 57 -69 76t-88 19q-39 0 -49 -6.5t-10 -31.5v-132h27q48 0 65 14.5t24 61.5h37v-192h-37q-6 49 -23 64t-68 15h-25v-142q0 -26 7.5 -33t38.5 -7q66 0 108 23.5t77 81.5l34 -15 l-48 -127h-380q-8 0 -21 2zM252 33q40 0 53 13.5t13 54.5v261q0 41 -13 54.5t-54 13.5q-65 0 -101 -52t-36 -147t36 -146.5t102 -51.5z" />
<glyph unicode="&#x178;" horiz-adv-x="540" d="M385 747q-20 0 -34.5 14.5t-14.5 34.5t14.5 34t34.5 14q19 0 33.5 -14t14.5 -34t-14 -34.5t-34 -14.5zM155 747q-20 0 -34.5 14.5t-14.5 34.5t14 34t34 14t34.5 -14t14.5 -34t-14 -34.5t-34 -14.5zM132 0v39h23q39 0 51.5 15t12.5 63v156l-164 327q-8 16 -18 21t-38 7h-6 v39h234v-39h-20q-36 -1 -43.5 -4.5t-7.5 -14.5q0 -8 26 -59l108 -219l105 219q15 32 15 45q0 18 -14 25.5t-47 7.5h-8v39h205v-39q-42 -4 -55 -14.5t-41 -63.5l-138 -265v-168q0 -48 12.5 -63t51.5 -15h23v-39h-267z" />
<glyph unicode="&#x2c6;" d="M125 517l105 150h41l105 -150h-33l-92 96l-92 -96h-34z" />
<glyph unicode="&#x2dc;" d="M152 543l-32 11q15 50 31 71t39 21q13 0 60 -22q52 -26 64 -26t18.5 7t13.5 30l2 6l32 -11q-15 -50 -31 -71t-39 -21q-15 0 -60 22q-51 26 -64 26q-12 0 -18.5 -7t-13.5 -30z" />
<glyph unicode="&#x2000;" horiz-adv-x="445" />
<glyph unicode="&#x2001;" horiz-adv-x="890" />
<glyph unicode="&#x2002;" horiz-adv-x="445" />
<glyph unicode="&#x2003;" horiz-adv-x="890" />
<glyph unicode="&#x2004;" horiz-adv-x="296" />
<glyph unicode="&#x2005;" horiz-adv-x="222" />
<glyph unicode="&#x2006;" horiz-adv-x="148" />
<glyph unicode="&#x2007;" horiz-adv-x="148" />
<glyph unicode="&#x2008;" horiz-adv-x="111" />
<glyph unicode="&#x2009;" horiz-adv-x="178" />
<glyph unicode="&#x200a;" horiz-adv-x="49" />
<glyph unicode="&#x2010;" horiz-adv-x="193" d="M0 185v71h193v-71h-193z" />
<glyph unicode="&#x2011;" horiz-adv-x="193" d="M0 185v71h193v-71h-193z" />
<glyph unicode="&#x2013;" horiz-adv-x="495" d="M41 193v55h413v-55h-413z" />
<glyph unicode="&#x2014;" horiz-adv-x="580" d="M0 193v55h580v-55h-580z" />
<glyph unicode="&#x2018;" horiz-adv-x="247" d="M123 422q-28 0 -45.5 21t-17.5 54q0 40 25 82t84 101l24 -26q-26 -29 -40 -47q-23 -28 -23 -47q0 -15 20 -27q32 -20 32 -55q0 -24 -17 -40t-42 -16z" />
<glyph unicode="&#x2019;" horiz-adv-x="247" d="M77 422l-24 26q26 29 40 47q23 28 23 47q0 15 -20 27q-32 20 -32 55q0 24 17 40t42 16q28 0 45.5 -21t17.5 -54q0 -40 -25 -82t-84 -101z" />
<glyph unicode="&#x201a;" horiz-adv-x="247" d="M64 58q0 24 17 40t42 16q28 0 45.5 -21t17.5 -54q0 -41 -25 -83t-84 -100l-24 25l40 47q23 26 23 48q0 15 -20 27q-32 20 -32 55z" />
<glyph unicode="&#x201c;" horiz-adv-x="403" d="M280 422q-28 0 -45.5 21t-17.5 54q0 40 25 82t84 101l24 -26q-26 -29 -40 -47q-23 -28 -23 -47q0 -15 20 -27q32 -20 32 -55q0 -24 -17 -40t-42 -16zM124 422q-28 0 -46 21t-18 54q0 41 25 83t84 100l24 -26q-33 -38 -40 -47q-23 -28 -23 -47q0 -15 20 -27q33 -20 33 -55 q0 -24 -17 -40t-42 -16z" />
<glyph unicode="&#x201d;" horiz-adv-x="403" d="M234 422l-24 26q33 38 40 47q23 28 23 47q0 15 -20 27q-33 20 -33 55q0 24 17 40t42 16q28 0 46 -21t18 -54q0 -41 -25 -83t-84 -100zM77 422l-24 26q26 29 40 47q23 28 23 47q0 15 -20 27q-32 20 -32 55q0 24 17 40t42 16q28 0 45.5 -21t17.5 -54q0 -40 -25 -82 t-84 -101z" />
<glyph unicode="&#x201e;" horiz-adv-x="403" d="M221 58q0 24 17 40t42 16q28 0 45.5 -21t17.5 -54q0 -41 -25 -83t-84 -100l-24 25l40 47q23 26 23 48q0 15 -20 27q-32 20 -32 55zM64 58q0 24 17 40t42 16q28 0 45.5 -21t17.5 -54q0 -41 -25 -83t-84 -100l-24 25l40 47q23 26 23 48q0 15 -20 27q-32 20 -32 55z" />
<glyph unicode="&#x2022;" horiz-adv-x="667" d="M336 200q-58 0 -99 40.5t-41 98.5q0 57 41 97.5t99 40.5q56 0 96.5 -40.5t40.5 -97.5t-40.5 -98t-96.5 -41z" />
<glyph unicode="&#x2026;" horiz-adv-x="740" d="M553 50q0 27 18.5 45.5t45.5 18.5q26 0 44.5 -18.5t18.5 -44.5q0 -27 -18.5 -45.5t-44.5 -18.5q-27 0 -45.5 18.5t-18.5 44.5zM307 50q0 27 18.5 45.5t45.5 18.5q26 0 44.5 -18.5t18.5 -44.5q0 -27 -18.5 -45.5t-44.5 -18.5q-27 0 -45.5 18.5t-18.5 44.5zM60 50 q0 27 18.5 45.5t44.5 18.5q27 0 45.5 -18.5t18.5 -44.5q0 -27 -18.5 -45.5t-44.5 -18.5q-27 0 -45.5 18.5t-18.5 44.5z" />
<glyph unicode="&#x202f;" horiz-adv-x="178" />
<glyph unicode="&#x2039;" horiz-adv-x="252" d="M131 126q-36 34 -84 73l-14 12v13q86 72 161 154l24 -16q-43 -76 -104 -139q45 -57 59 -76t43 -67l-22 -16q-36 37 -63 62z" />
<glyph unicode="&#x203a;" horiz-adv-x="252" d="M57 64l-21 16q29 49 42.5 68t58.5 75q-61 63 -104 139l25 16q70 -78 160 -154v-13l-51 -42q-43 -37 -110 -105z" />
<glyph unicode="&#x205f;" horiz-adv-x="222" />
<glyph unicode="&#x20ac;" horiz-adv-x="515" d="M40 192l14 32h38l4 32h-56l14 32h48q24 88 76 138t119 50q35 0 64 -13q17 -8 25 -8q5 0 34 10l12 4l43 -130l-34 -14q-23 53 -63 85.5t-82 32.5q-46 0 -77.5 -40.5t-42.5 -114.5h192l-14 -32h-181q-1 -11 -1 -16t1 -16h168l-14 -32h-151q10 -71 46.5 -111t91.5 -40 q40 0 73.5 27.5t53.5 77.5l34 -15q-22 -67 -71.5 -105.5t-113.5 -38.5q-82 0 -137.5 57.5t-60.5 147.5h-52z" />
<glyph unicode="&#x2122;" horiz-adv-x="883" d="M386 287v28l16 1q35 4 35 62v220q0 25 -6.5 33t-27.5 8h-17v28h126l109 -279l108 279h124v-28h-17q-21 0 -27.5 -8t-6.5 -33v-242q0 -26 6 -33.5t28 -7.5h17v-28h-164v28h17q21 0 27.5 8t6.5 33v254l-123 -323h-22l-124 319v-228q0 -33 7.5 -46.5t27.5 -15.5l16 -1v-28 h-136zM97 287v28h21q21 0 27.5 8t6.5 33v263q0 13 -3.5 16.5t-15.5 3.5q-54 0 -107 -80l-26 11l31 97h304l31 -97l-26 -11q-52 80 -107 80q-13 0 -15.5 -3t-3.5 -17v-263q0 -25 6.5 -33t27.5 -8h21v-28h-172z" />
</font>
</defs>
</svg>
