<?xml version="1.0" standalone="no"?>
<!DOCTYPE svg PUBLIC "-//W3C//DTD SVG 1.1//EN" "http://www.w3.org/Graphics/SVG/1.1/DTD/svg11.dtd" >
<svg xmlns="http://www.w3.org/2000/svg">
<metadata>
This is a custom SVG webfont generated by Fontspring.
Designer    : FontSite.com
Foundry URL : http://www.fontsite.com
</metadata>
<defs>
<font id="webfont1YAbyx8D" horiz-adv-x="576" >
<font-face units-per-em="1000" ascent="822" descent="-178" />
<missing-glyph horiz-adv-x="250" />
<glyph unicode=" "  horiz-adv-x="250" />
<glyph unicode="&#x09;" horiz-adv-x="250" />
<glyph unicode="&#xa0;" horiz-adv-x="250" />
<glyph unicode="!" horiz-adv-x="289" d="M124 202v13q0 97 -7 148t-33 140q-17 61 -17 90q0 38 22 62.5t56 24.5t56 -24.5t22 -62.5q0 -29 -17 -90q-28 -97 -34 -147q-3 -29 -4 -69q0 -6 -0.5 -18t-0.5 -18q-1 -23 -1 -36v-13h-42zM68 64q0 32 22.5 54t54.5 22q31 0 53.5 -22t22.5 -54t-22 -54.5t-54 -22.5 t-54.5 22.5t-22.5 54.5z" />
<glyph unicode="&#x22;" horiz-adv-x="367" d="M247 387q-5 47 -31 131q-16 49 -16 78q0 34 19 56t48 22t47.5 -22t18.5 -56q0 -16 -16 -78l-2 -8q-3 -12 -5 -17.5t-5 -15.5q-15 -48 -20 -90h-38zM81 387q-5 42 -32 131q-16 51 -16 78q0 34 19 56t48 22t47.5 -22t18.5 -56q0 -30 -16 -78l-12 -41q-14 -48 -19 -90h-38z " />
<glyph unicode="#" d="M88 0l45 210h-80v60h93l21 100h-114v60h127l43 203h68l-43 -203h128l43 203h68l-43 -203h78v-60h-91l-21 -100h112v-60h-125l-45 -210h-68l45 210h-128l-45 -210h-68zM214 270h128l21 100h-128z" />
<glyph unicode="$" d="M69 133q0 32 20 56t48 24q23 0 37 -14.5t14 -37.5q0 -17 -7 -26t-29 -17q-13 -5 -13 -25q0 -26 36.5 -45.5t92.5 -23.5v235q-108 52 -154.5 103t-46.5 118q0 82 55 138t146 66v68h40v-68q71 -5 122.5 -49t51.5 -100q0 -31 -19 -53t-45 -22q-22 0 -36.5 14.5t-14.5 35.5 q0 37 40 47q13 4 13 18q0 25 -33 44t-79 20v-230q117 -55 159 -101.5t42 -121.5q0 -83 -57 -142t-144 -66v-75h-40v75q-83 2 -141 47.5t-58 107.5zM268 428v211q-47 -5 -74 -31t-27 -66q0 -33 23 -59t78 -55zM308 24q42 7 67 35.5t25 68.5q0 37 -20 61t-72 51v-216z" />
<glyph unicode="%" horiz-adv-x="667" d="M172 324q-61 0 -100 51t-39 130t39 130t100 51t99.5 -50.5t38.5 -130.5t-38.5 -130.5t-99.5 -50.5zM112 -9l380 694h62l-380 -694h-62zM172 355q28 0 43.5 39.5t15.5 110.5q0 70 -15.5 109.5t-43.5 39.5t-44 -39.5t-16 -109.5q0 -71 16 -110.5t44 -39.5zM358 165 q0 80 38.5 130.5t99.5 50.5t99.5 -50.5t38.5 -130.5q0 -79 -38.5 -129.5t-99.5 -50.5t-99.5 50.5t-38.5 129.5zM436 166q0 -71 16 -110.5t44 -39.5t44 39.5t16 110.5q0 70 -16 109.5t-44 39.5t-44 -39.5t-16 -109.5z" />
<glyph unicode="&#x26;" horiz-adv-x="770" d="M40 167q0 46 25 85.5t81 80.5q41 31 82 48q-37 69 -37 133q0 71 51 118.5t127 47.5q72 0 117 -33.5t45 -88.5q0 -54 -51 -98q-10 -8 -18 -13.5t-15.5 -9.5l-26.5 -14l-40 -22q-3 -2 -7 -4l6 -10q7 -10 63 -109q36 -64 80 -125q26 34 44 78.5t18 73.5q0 28 -18.5 40 t-64.5 14v42h234v-42q-52 -5 -68.5 -22.5t-42.5 -92.5q-28 -75 -71 -127q14 -20 36.5 -34t42.5 -14q46 0 89 52l31 -24q-52 -62 -91.5 -86.5t-90.5 -24.5q-65 0 -121 50q-83 -50 -182 -50q-101 0 -164 50.5t-63 130.5zM355 436q75 46 75 126q0 35 -15 55t-41 20t-41.5 -19.5 t-15.5 -50.5q0 -56 38 -131zM236 91q40 -48 95 -48q37 0 86 26q-39 39 -87 115.5t-83 156.5q-71 -41 -71 -102q0 -33 17 -74.5t43 -73.5z" />
<glyph unicode="'" horiz-adv-x="200" d="M81 387q-5 42 -32 131q-16 51 -16 78q0 34 19 56t48 22t47.5 -22t18.5 -56q0 -30 -16 -78l-12 -41q-14 -48 -19 -90h-38z" />
<glyph unicode="(" horiz-adv-x="348" d="M63 249q0 143 67 261.5t178 169.5v-37q-76 -49 -104 -132t-28 -262t28 -262.5t104 -132.5v-37q-111 51 -178 169.5t-67 262.5z" />
<glyph unicode=")" horiz-adv-x="348" d="M40 -146q76 49 104 132.5t28 262.5t-28 262t-104 132v37q111 -51 178 -169.5t67 -261.5q0 -144 -67 -262.5t-178 -169.5v37z" />
<glyph unicode="*" horiz-adv-x="393" d="M118 367q-16 0 -26.5 11.5t-10.5 28.5t8.5 27.5t37.5 28.5q23 13 45 40q-28 8 -45 8q-9 0 -15 -1q-26 -2 -28 -2q-22 0 -36.5 12.5t-14.5 31.5q0 17 12 28t31 11q12 0 21 -5t32 -24q20 -18 52 -30q-2 34 -12 58q-14 31 -14 45q0 19 12 32t29 13t29 -13t12 -32 q0 -12 -14 -45q-11 -25 -12 -58q30 11 52 29q23 19 31.5 24t20.5 5q19 0 31.5 -11t12.5 -27q0 -19 -15 -31.5t-38 -12.5q-1 0 -9.5 0.5t-13.5 0.5q-4 0 -10 0.5t-9 0.5q-16 0 -44 -7q19 -24 45 -40q29 -17 37.5 -28t8.5 -29q0 -17 -11 -28.5t-27 -11.5q-22 0 -33 13.5 t-19 50.5q-5 24 -25 55q-20 -30 -25 -54q-9 -38 -20 -51t-33 -13z" />
<glyph unicode="+" d="M256 85v205h-203v60h203v205h64v-205h202v-60h-202v-205h-64z" />
<glyph unicode="," horiz-adv-x="247" d="M42 64q0 33 21.5 54.5t55.5 21.5q36 0 58.5 -27t22.5 -71q0 -57 -42.5 -112.5t-112.5 -89.5l-20 33q86 54 86 92q0 12 -4 16.5t-27 17.5q-38 21 -38 65z" />
<glyph unicode="-" horiz-adv-x="222" d="M0 183v80h222v-80h-222z" />
<glyph unicode="." horiz-adv-x="247" d="M47 64q0 32 22.5 54t54.5 22t54 -22t22 -54t-22 -54.5t-54 -22.5t-54.5 22.5t-22.5 54.5z" />
<glyph unicode="/" horiz-adv-x="322" d="M-26 -170l247 837h77l-246 -837h-78z" />
<glyph unicode="0" d="M288 -17q-104 0 -179.5 98.5t-75.5 234.5q0 137 75.5 235.5t179.5 98.5q110 0 182 -94.5t72 -239.5q0 -143 -72.5 -238t-181.5 -95zM289 24q49 0 72 52q32 75 32 241q0 116 -16 189q-22 103 -88 103q-107 0 -107 -292q0 -293 107 -293z" />
<glyph unicode="1" d="M104 0v43q36 0 53.5 0.5t35 5t23.5 9t11 18.5t5.5 28t0.5 42v323q0 48 -22.5 60t-112.5 13v39q164 32 268 80v-515q0 -58 3 -70.5t20 -20.5q24 -11 104 -12v-43h-389z" />
<glyph unicode="2" d="M26 0v48q59 70 93 105.5t105 101.5q79 73 109.5 126t30.5 117q0 51 -25.5 79t-71.5 28q-34 0 -55.5 -18.5t-21.5 -48.5q0 -6 4 -39q1 -3 1 -11q0 -34 -20 -55.5t-52 -21.5q-31 0 -51.5 23.5t-20.5 60.5q0 65 66 110t160 45q109 0 172.5 -47.5t63.5 -129.5q0 -80 -80 -151 q-35 -30 -96 -67l-17 -10l-16 -10l-17 -10q-97 -59 -142 -103h194q70 0 92.5 16t55.5 90l39 -9l-52 -219h-448z" />
<glyph unicode="3" d="M38 114q0 31 20.5 51.5t50.5 20.5q69 0 72 -86q1 -40 20 -58t61 -18q56 0 88 39.5t32 107.5q0 63 -32 103t-83 40q-1 0 -9.5 -0.5t-13.5 -0.5q-18 -2 -19 -2q-16 -2 -19 -2q-29 0 -29 28q0 26 30 26q8 0 13 -1q21 -2 31 -2q54 0 85.5 36t31.5 97q0 53 -23 84.5t-63 31.5 q-77 0 -78 -69q-2 -47 -17.5 -68t-49.5 -21q-30 0 -50.5 20.5t-20.5 49.5q0 55 62 92t154 37q97 0 162 -44.5t65 -111.5q0 -60 -50.5 -102.5t-133.5 -52.5q96 -11 149 -55.5t53 -114.5q0 -84 -72.5 -135t-193.5 -51q-99 0 -161 36.5t-62 94.5z" />
<glyph unicode="4" d="M25 154v40l322 456h89v-450h114v-46h-114v-22q0 -63 9 -74.5t61 -16.5l10 -1v-40h-305v40l22 1q49 2 59.5 15.5t10.5 75.5v22h-278zM80 200h223v315z" />
<glyph unicode="5" d="M43 113q0 30 20.5 50.5t51.5 20.5q37 0 54 -22.5t19 -72.5q1 -65 75 -65q57 0 89 42.5t32 117.5q0 80 -34 123t-98 43q-39 0 -76.5 -20t-63.5 -54l-35 14q1 6 1.5 8.5t0.5 5.5t2.5 19l6.5 43q21 148 23 267h381l-27 -119h-317q-5 -78 -23 -175q67 70 175 70 q102 0 167.5 -57.5t65.5 -147.5q0 -97 -76.5 -159t-196.5 -62q-90 0 -153.5 38t-63.5 92z" />
<glyph unicode="6" d="M37 286q0 156 91.5 260.5t227.5 104.5q68 0 112 -27.5t44 -70.5q0 -30 -21 -50.5t-51 -20.5q-35 0 -56 26q-10 12 -18 47q-10 52 -54 52q-38 0 -67 -35.5t-44 -100.5q-17 -74 -17 -149q74 80 165 80q84 0 137.5 -55t53.5 -141q0 -93 -69 -158t-168 -65q-117 0 -191.5 85 t-74.5 218zM216 62q24 -38 71 -38q104 0 104 162q0 153 -88 153q-33 0 -72 -30q-22 -18 -38 -36l-10 -11v-9q2 -85 9 -123t24 -68z" />
<glyph unicode="7" d="M177 72q0 43 26 96t95 155q96 141 146 189h-130q-24 0 -108 -2q-40 -2 -60 -23t-55 -96l-35 12l53 230h437v-35q-94 -144 -134 -235q-33 -74 -48 -132.5t-23 -145.5q-9 -102 -89 -102q-34 0 -54.5 24.5t-20.5 64.5z" />
<glyph unicode="8" d="M35 147q0 53 39.5 97t103.5 62q-59 36 -83.5 72.5t-24.5 87.5q0 79 63 131.5t158 52.5q100 0 162.5 -40.5t62.5 -105.5q0 -49 -33.5 -84t-95.5 -51q74 -29 114 -78t40 -110q0 -91 -70 -144.5t-187 -53.5q-112 0 -180.5 45t-68.5 119zM224 443l10 -7t10.5 -6.5t14.5 -7 t28.5 -12.5l45.5 -18l14 -6q57 53 57 118q0 49 -30 77t-81 28q-52 0 -84.5 -25.5t-32.5 -65.5q0 -45 48 -75zM156 156q0 -60 39 -96t104 -36q60 0 96.5 28.5t36.5 74.5q0 38 -27.5 63.5t-101.5 55.5q-54 23 -87 40q-60 -55 -60 -130z" />
<glyph unicode="9" d="M66 83q0 30 21 50.5t52 20.5q53 0 70 -66q13 -58 56 -58q33 0 61.5 28t40.5 72q11 40 20 99.5t9 90.5q-70 -90 -172 -90q-82 0 -135 56.5t-53 142.5q0 92 69 156.5t168 64.5q119 0 193.5 -84.5t74.5 -220.5q0 -154 -92.5 -258t-229.5 -104q-69 0 -111 27.5t-42 72.5z M274 297q34 0 73 30q14 11 35 34q9 11 9 12q1 13 1 30q0 100 -28 159q-24 47 -80 47q-48 0 -73.5 -43t-25.5 -123q0 -69 23.5 -107.5t65.5 -38.5z" />
<glyph unicode=":" horiz-adv-x="247" d="M124 300q-32 0 -54.5 22.5t-22.5 54.5t22.5 54t54.5 22t54 -22.5t22 -53.5q0 -32 -22 -54.5t-54 -22.5zM47 64q0 32 22.5 54t54.5 22t54 -22t22 -54t-22 -54.5t-54 -22.5t-54.5 22.5t-22.5 54.5z" />
<glyph unicode=";" horiz-adv-x="247" d="M124 300q-32 0 -54.5 22.5t-22.5 54.5t22.5 54t54.5 22t54 -22.5t22 -53.5q0 -32 -22 -54.5t-54 -22.5zM42 64q0 33 21.5 54.5t55.5 21.5q36 0 58.5 -27t22.5 -71q0 -57 -42.5 -112.5t-112.5 -89.5l-20 33q86 54 86 92q0 12 -4 16.5t-27 17.5q-38 21 -38 65z" />
<glyph unicode="&#x3c;" horiz-adv-x="500" d="M40 358v8l420 264v-59l-262 -166l262 -177v-156z" />
<glyph unicode="=" d="M53 370v60h469v-60h-469zM53 210v60h469v-60h-469z" />
<glyph unicode="&#x3e;" horiz-adv-x="500" d="M40 72v58l262 167l-262 177v156l420 -286v-8z" />
<glyph unicode="?" horiz-adv-x="435" d="M147 205v189q64 3 91 23q52 38 52 109q0 44 -15 73.5t-38 29.5q-26 0 -45 -40q-27 -55 -69 -55q-26 0 -44.5 19t-18.5 45q0 37 32.5 59.5t85.5 22.5q92 0 154.5 -62t62.5 -153q0 -81 -58 -134t-147 -53v-73h-43zM94 64q0 32 22 54t54 22t54.5 -22t22.5 -54t-22.5 -54.5 t-54.5 -22.5t-54 22.5t-22 54.5z" />
<glyph unicode="@" horiz-adv-x="751" d="M33 211q0 155 116.5 265.5t280.5 110.5q128 0 207.5 -73t79.5 -191q0 -107 -72 -191.5t-164 -84.5q-57 0 -68 54q-43 -54 -90 -54q-49 0 -80 35.5t-31 90.5q0 90 66 172t139 82q31 0 57 -27l8 26h85l-5 -20l-40 -160l-19 -95q-6 -29 -6 -38q0 -15 10 -15q14 -1 40 17 t48 43q61 70 61 162q0 97 -62.5 158t-161.5 61q-136 0 -235 -97.5t-99 -231.5q0 -118 77 -197t191 -79q57 0 105.5 20.5t115.5 72.5l26 -34q-70 -58 -128 -82t-127 -24q-137 0 -231 93.5t-94 230.5zM304 145q0 -25 7 -40t19 -14q19 1 42.5 32t42.5 81q33 82 33 137 q0 45 -31 47q-19 1 -40 -25t-40 -72q-33 -81 -33 -146z" />
<glyph unicode="A" horiz-adv-x="635" d="M-7 0v40q37 1 55.5 24.5t47.5 104.5l177 489l110 35l165 -565q17 -60 32 -74t61 -14v-40h-291v40q12 0 15 1q51 1 51 29q0 20 -10 51l-31 102h-213l-21 -60q-16 -47 -16 -71q0 -27 16 -38t59 -14v-40h-207zM178 271h183l-78 302z" />
<glyph unicode="B" horiz-adv-x="672" d="M33 0v40l13 1q51 4 60.5 16t9.5 75v403q0 63 -9.5 75t-60.5 16l-13 1v40h302q80 0 123 -9.5t79 -34.5q59 -40 59 -109q0 -65 -44.5 -105.5t-128.5 -51.5q96 -10 152 -57t56 -119q0 -103 -100 -151q-65 -30 -198 -30h-300zM259 375h28q92 0 128.5 29t36.5 103 q0 119 -119 119q-46 0 -60 -14.5t-14 -60.5v-176zM259 123q0 -52 12.5 -66.5t57.5 -14.5q80 0 116.5 34.5t36.5 110.5q0 92 -60 125q-37 20 -133 20h-30v-209z" />
<glyph unicode="C" horiz-adv-x="625" d="M40 313q0 170 106 280q87 91 197 91q41 0 99 -22q13 -5 22 -5q8 0 29 11l27 14l19 -8l50 -191l-42 -16q-93 173 -200 173q-74 0 -116 -68.5t-42 -189.5q0 -145 55 -232t147 -87q109 0 180 136l37 -18q-88 -198 -273 -198q-130 0 -212.5 92t-82.5 238z" />
<glyph unicode="D" horiz-adv-x="721" d="M33 0v40l13 1q51 4 60.5 16t9.5 75v403q0 63 -9.5 75t-60.5 16l-13 1v40h261q122 0 174 -16q95 -31 153.5 -117t58.5 -197q0 -170 -114 -267q-47 -41 -101 -55.5t-155 -14.5h-277zM259 121q0 -58 10.5 -69t64.5 -11q103 0 146 65t43 220q0 166 -41.5 231.5t-146.5 65.5 q-50 0 -63 -14.5t-13 -71.5v-416z" />
<glyph unicode="E" horiz-adv-x="664" d="M33 0v40l13 1q51 4 60.5 16t9.5 75v403q0 63 -9.5 75t-60.5 16l-13 1v40h528l52 -181l-36 -22q-102 155 -248 155q-47 0 -58.5 -15.5t-11.5 -76.5v-163h19q70 0 100.5 22.5t46.5 84.5h41v-270h-41q-6 62 -40 89t-106 27h-20v-187q0 -57 11.5 -72t55.5 -15q152 0 268 158 l36 -21l-53 -180h-544z" />
<glyph unicode="F" horiz-adv-x="611" d="M33 0v40l13 1q51 4 60.5 16t9.5 75v403q0 63 -9.5 75t-60.5 16l-13 1v40h516l54 -184l-33 -20q-58 82 -115 120t-125 38q-47 0 -59 -14t-12 -71v-173h23q69 0 101.5 24t43.5 82h41v-266h-41q-11 67 -42 90.5t-108 23.5h-18v-184q0 -63 10.5 -76.5t59.5 -15.5l27 -1v-40 h-323z" />
<glyph unicode="G" horiz-adv-x="719" d="M40 321q0 152 93 257t228 105q57 0 110 -21q23 -8 29 -8q10 0 39 15l12 6l22 -2l44 -193l-39 -15q-94 177 -206 177q-175 0 -175 -328q0 -150 39.5 -220t122.5 -70q67 0 96.5 37t29.5 122q0 43 -17.5 57.5t-72.5 16.5v40h296v-40q-52 -2 -63.5 -19.5t-11.5 -94.5v-124 h-27h-24q-22 0 -68 -13q-76 -23 -140 -23q-142 0 -229.5 93.5t-87.5 244.5z" />
<glyph unicode="H" horiz-adv-x="745" d="M33 0v40l13 1q51 4 60.5 16t9.5 75v403q0 63 -9.5 75t-60.5 16l-13 1v40h306v-40l-10 -1q-52 -5 -61 -17t-9 -74v-172h226v172q0 63 -9 74.5t-61 16.5l-10 1v40h306v-40l-13 -1q-51 -4 -60.5 -16t-9.5 -75v-403q0 -63 9.5 -75t60.5 -16l13 -1v-40h-306v40l10 1 q52 5 61 16.5t9 74.5v183h-226v-183q0 -62 9 -74t61 -17l10 -1v-40h-306z" />
<glyph unicode="I" horiz-adv-x="377" d="M33 0v40l13 1q51 4 60.5 16t9.5 75v403q0 63 -9.5 75t-60.5 16l-13 1v40h309v-40l-13 -1q-51 -4 -60.5 -16t-9.5 -75v-403q0 -63 9.5 -75t60.5 -16l13 -1v-40h-309z" />
<glyph unicode="J" horiz-adv-x="456" d="M-10 94q0 31 21 50.5t53 19.5q31 0 48.5 -21t24.5 -67q3 -22 9.5 -30.5t19.5 -8.5q24 0 30 29q7 22 7 118v351q0 62 -10 75t-59 16l-18 1v40h313v-40l-14 -1q-50 -4 -59.5 -16t-9.5 -75v-291q0 -80 -6.5 -109.5t-32.5 -64.5q-63 -86 -173 -86q-65 0 -104.5 30.5 t-39.5 79.5z" />
<glyph unicode="K" horiz-adv-x="704" d="M33 0v40l13 1q51 4 60.5 16t9.5 75v403q0 63 -9.5 75t-60.5 16l-13 1v40h306v-40l-10 -1q-50 -5 -60 -17.5t-10 -73.5v-205l214 221q19 21 19 40t-11 26t-46 9q-1 0 -4.5 0.5t-6.5 0.5v40h271v-40q-56 -4 -95 -25.5t-94 -80.5l-75 -81l187 -336q24 -43 37 -52t55 -12v-40 h-300v40q64 1 64 21q0 8 -13 33l-128 246l-74 -78v-130q0 -63 11 -77.5t59 -14.5h10v-40h-306z" />
<glyph unicode="L" horiz-adv-x="609" d="M33 0v40l13 1q51 4 60.5 16t9.5 75v403q0 63 -9.5 75t-60.5 16l-13 1v40h319v-40l-23 -1q-49 -2 -59.5 -15.5t-10.5 -75.5v-410q0 -55 12 -70t56 -15q68 0 129 37.5t128 120.5l31 -19l-54 -179h-528z" />
<glyph unicode="M" horiz-adv-x="846" d="M33 0v40q44 4 66 39q17 27 17 118v338q0 63 -9.5 75t-60.5 16l-13 1v40h251l137 -428l148 428h243v-40l-13 -1q-51 -4 -60.5 -16t-9.5 -75v-403q0 -63 9.5 -75t60.5 -16l13 -1v-40h-309v40l13 1q51 4 60.5 16t9.5 75v443l-197 -575h-36l-190 588v-391q0 -60 5.5 -87 t21.5 -44q21 -22 56 -26v-40h-213z" />
<glyph unicode="N" horiz-adv-x="696" d="M33 0v40q44 4 66 39q17 27 17 118v387q-25 35 -83 41v42h209l297 -472v275q0 88 -16.5 118.5t-66.5 38.5v40h213v-40q-51 -8 -67 -38.5t-16 -118.5v-470h-87l-336 533v-336q0 -60 5.5 -87t21.5 -44q21 -22 56 -26v-40h-213z" />
<glyph unicode="O" horiz-adv-x="708" d="M40 334q0 150 89.5 250t224.5 100t224.5 -99.5t89.5 -250.5t-89.5 -251t-224.5 -100t-224.5 100t-89.5 251zM354 24q77 0 117 79.5t40 230.5t-40 230t-117 79t-117 -79t-40 -230t40 -230.5t117 -79.5z" />
<glyph unicode="P" horiz-adv-x="632" d="M33 0v40l13 1q51 4 60.5 16t9.5 75v403q0 63 -9.5 75t-60.5 16l-13 1v40h264q126 0 167 -12q63 -18 100 -63t37 -103q0 -47 -24.5 -89.5t-64.5 -64.5q-57 -31 -160 -31h-93v-172q0 -63 9.5 -75t60.5 -16l13 -1v-40h-309zM259 348h50q79 0 109 32t30 115q0 71 -27 102 t-89 31q-45 0 -59 -17.5t-14 -72.5v-190z" />
<glyph unicode="Q" horiz-adv-x="705" d="M40 324q0 148 92 254t220 106q132 0 222.5 -102t90.5 -250q0 -92 -38.5 -170.5t-105.5 -124.5q48 -81 84 -81q24 0 50 33l32 -28q-29 -43 -70 -69.5t-80 -26.5q-102 0 -132 124q-27 -6 -49 -6q-135 0 -225.5 97.5t-90.5 243.5zM229 99q-1 41 26.5 67t71.5 26 q95 0 149 -103q33 90 33 224q0 172 -37.5 251t-117.5 79q-76 0 -116.5 -82.5t-40.5 -238.5q0 -119 32 -223zM265 91q0 -31 22.5 -49t61.5 -18q17 0 40 5l10 3q-7 65 -23 92t-50 27q-26 0 -43.5 -17t-17.5 -43z" />
<glyph unicode="R" horiz-adv-x="655" d="M33 0v40l13 1q51 4 60.5 16t9.5 75v403q0 63 -9.5 75t-60.5 16l-13 1v40h289q279 0 279 -169q0 -68 -48 -112.5t-121 -44.5h-13q26 -11 43.5 -33.5t46.5 -84.5l34 -72q32 -68 52.5 -87.5t65.5 -27.5v-36h-198l-107 223q-31 64 -45 79.5t-41 15.5h-11v-186q0 -62 9 -74 t61 -17l10 -1v-40h-306zM259 360h40q86 0 119 29t33 106q0 67 -28.5 98.5t-88.5 31.5q-46 0 -60.5 -17.5t-14.5 -74.5v-173z" />
<glyph unicode="S" horiz-adv-x="561" d="M81 -9l-48 204l41 14q100 -178 235 -178q50 0 82.5 29t32.5 74q0 43 -25.5 67.5t-98.5 53.5q-135 53 -173 85q-70 58 -70 144q0 85 56.5 142.5t139.5 57.5q30 0 48.5 -4.5t60.5 -22.5q14 -4 18 -4q16 0 51 23l22 -5l47 -189l-41 -14q-101 168 -206 168q-44 0 -72.5 -26 t-28.5 -66q0 -44 34 -70.5t135 -63.5q63 -23 95 -39.5t56 -39.5q56 -54 56 -140q0 -88 -63 -148t-156 -60q-65 0 -113 23q-26 12 -33 12q-23 0 -61 -29z" />
<glyph unicode="T" horiz-adv-x="604" d="M146 0v40l13 1q51 4 60.5 16t9.5 75v488q-38 -8 -61.5 -21t-53.5 -43q-42 -41 -72 -91l-39 17l49 185h504l44 -183l-42 -11q-47 73 -89 106.5t-97 40.5v-488q0 -63 9.5 -75t60.5 -16l13 -1v-40h-309z" />
<glyph unicode="U" horiz-adv-x="695" d="M131 95q-11 26 -14.5 51t-3.5 89v300q0 63 -9.5 75t-60.5 16l-13 1v40h309v-40l-13 -1q-51 -4 -60.5 -16t-9.5 -75v-327q0 -57 4.5 -82t18.5 -46q33 -50 112 -50t115 49t36 156v235q0 87 -16.5 118.5t-66.5 38.5v40h213v-40q-53 -12 -68 -40t-15 -117v-235 q0 -133 -56 -193t-178 -60q-84 0 -142 29.5t-82 83.5z" />
<glyph unicode="V" horiz-adv-x="631" d="M278 -11l-186 558q-18 54 -29.5 65.5t-48.5 13.5q-1 0 -6 0.5t-8 0.5v40h293v-40q-41 -2 -52.5 -6.5t-11.5 -18.5q0 -11 10 -41l123 -381l107 326q17 51 17 75q0 26 -14 35t-56 11v40h215v-40q-43 -4 -68 -32t-49 -101l-168 -505h-68z" />
<glyph unicode="W" horiz-adv-x="895" d="M248 -11l-169 556q-18 59 -26 69t-42 12q-1 0 -5 0.5t-7 0.5v40h271v-40q-3 0 -7.5 -0.5t-5.5 -0.5q-44 -1 -44 -26q0 -10 12 -55l98 -354l97 298l-27 84q-11 36 -21 45t-38 9h-11v40h268v-40q-5 -1 -11 -1q-30 -3 -38.5 -8.5t-8.5 -19.5q0 -6 7 -33l108 -374l96 324 q14 47 14 64q0 25 -14.5 36t-47.5 12v40h199v-40q-42 -10 -64 -35.5t-42 -87.5l-165 -515h-54l-129 437l-138 -437h-55z" />
<glyph unicode="X" horiz-adv-x="638" d="M-1 0v40q42 1 69 18.5t64 68.5l133 183l-174 274q-17 26 -30 33t-51 10v40h293v-40q-2 -1 -5 -1h-3q-25 -1 -33.5 -6t-8.5 -19q0 -17 13 -37l84 -135l88 123q16 23 16 37q0 19 -10.5 27t-37.5 10q-7 0 -12 1v40h222v-40q-45 -2 -72 -19.5t-61 -65.5l-106 -150l188 -302 q19 -31 31 -39t44 -11v-40h-289v40h17q26 0 36 5t10 17q0 9 -15 34l-110 175l-93 -130q-28 -39 -28 -65q0 -31 52 -35q1 0 6 -0.5t8 -0.5v-40h-235z" />
<glyph unicode="Y" horiz-adv-x="594" d="M142 0v40l17 1q50 3 60 16t10 75v169l-160 279q-16 27 -29 36t-40 11v40h278v-40q-55 0 -55 -21q0 -9 15 -38l109 -206l96 173q17 31 17 51q0 21 -13 30.5t-46 10.5v40h193v-40q-35 -10 -48.5 -22.5t-40.5 -57.5l-133 -223v-192q0 -62 10 -75t60 -16l17 -1v-40h-317z" />
<glyph unicode="Z" horiz-adv-x="577" d="M26 0l-7 28l354 591h-55q-76 0 -130 -32.5t-116 -115.5l-33 18l53 178h449l8 -27l-354 -592h48q85 0 141.5 31.5t138.5 125.5l35 -21l-58 -184h-474z" />
<glyph unicode="[" horiz-adv-x="339" d="M87 -170v837h205v-45h-96v-747h96v-45h-205z" />
<glyph unicode="\" horiz-adv-x="322" d="M270 -170l-246 837h77l247 -837h-78z" />
<glyph unicode="]" horiz-adv-x="339" d="M47 -125h97v747h-97v45h206v-837h-206v45z" />
<glyph unicode="^" horiz-adv-x="500" d="M-29 280l286 420h8l265 -420h-59l-167 262l-177 -262h-156z" />
<glyph unicode="_" horiz-adv-x="500" d="M0 -91h500v-69h-500v69z" />
<glyph unicode="`" horiz-adv-x="500" d="M257 502l-123 54q-38 17 -52.5 29.5t-14.5 31.5q0 16 12.5 28.5t29.5 12.5q24 0 61 -33l123 -113z" />
<glyph unicode="a" horiz-adv-x="509" d="M33 106q0 89 119 140q43 19 158 41v45q0 47 -11 64t-41 17q-24 0 -39 -13.5t-26 -45.5q-23 -63 -68 -63q-26 0 -44.5 17t-18.5 42q0 46 55 74.5t141 28.5q104 0 149 -47q23 -24 23 -82v-169q0 -58 4.5 -74.5t20.5 -16.5q11 0 28 11l26 -28q-55 -60 -104 -60q-52 0 -90 60 q-75 -60 -144 -60q-59 0 -98.5 34t-39.5 85zM167 126q0 -34 15 -54t40 -20q44 0 88 44v150q-79 -20 -111 -47t-32 -73z" />
<glyph unicode="b" horiz-adv-x="535" d="M80 -2v508q0 38 -1.5 47.5t-10.5 19.5q-15 15 -51 15v36l183 56v-274q47 47 112 47q84 0 136.5 -60t52.5 -157q0 -110 -54.5 -179.5t-140.5 -69.5q-56 0 -129 59l-76 -59zM200 84q41 -38 80 -38q45 0 66 41.5t21 129.5q0 101 -18.5 139.5t-67.5 38.5q-47 0 -81 -39v-272z " />
<glyph unicode="c" horiz-adv-x="465" d="M33 200q0 101 72 177t169 76q65 0 112.5 -31t47.5 -74q0 -26 -17.5 -44.5t-42.5 -18.5q-37 0 -56 28q-11 16 -21 65q-7 34 -39 34q-42 0 -66.5 -41t-24.5 -112q0 -95 33 -148t92 -53q70 0 122 81l34 -23q-68 -129 -204 -129q-93 0 -152 59.5t-59 153.5z" />
<glyph unicode="d" horiz-adv-x="524" d="M205 -13q-75 0 -123.5 63.5t-48.5 162.5q0 102 53 171t131 69q68 0 109 -52v102q0 57 -12 71.5t-61 15.5v35l193 55v-565q0 -53 7 -65t41 -12h9v-37h-11q-111 0 -166 -10v58q-19 -28 -52 -45t-69 -17zM251 48q44 0 75 47v257q-35 42 -73 42q-41 0 -63.5 -45.5 t-22.5 -127.5q0 -173 84 -173z" />
<glyph unicode="e" horiz-adv-x="507" d="M33 208q0 104 67.5 174.5t166.5 70.5q87 0 147.5 -60t60.5 -146q0 -10 -1 -18h-306q1 -77 43.5 -126.5t106.5 -49.5q75 0 132 72l32 -24q-38 -55 -94 -85t-120 -30q-102 0 -168.5 63t-66.5 159zM166 278h184q2 138 -87 138q-43 0 -66 -33.5t-31 -104.5z" />
<glyph unicode="f" horiz-adv-x="338" d="M25 0v37h4q50 0 59.5 13.5t9.5 78.5v262h-75v49h75q2 110 51 175t128 65q42 0 68.5 -19.5t26.5 -50.5q0 -22 -16 -38.5t-37 -16.5q-43 0 -65 46q-10 20 -20 20q-16 0 -16 -53v-128h101v-49h-101v-262q0 -64 10.5 -78t59.5 -14h17v-37h-280z" />
<glyph unicode="g" horiz-adv-x="495" d="M12 -81q0 31 28.5 53.5t78.5 31.5q-78 17 -78 75q0 28 24.5 51.5t65.5 33.5q-42 20 -66.5 55.5t-24.5 76.5q0 68 57.5 112.5t145.5 44.5q42 0 83 -14q25 38 55.5 60.5t57.5 22.5q23 0 37 -14t14 -39q0 -20 -13.5 -33t-34.5 -13q-8 0 -35 9q-16 6 -30 6q-9 0 -20 -10 q86 -47 86 -130q0 -65 -56.5 -110.5t-138.5 -45.5q-48 0 -76 10q-26 -14 -26 -29q0 -16 35 -21l119 -15q95 -12 138 -42t43 -84q0 -62 -67 -95.5t-189 -33.5q-101 0 -157 23t-56 64zM245 177q36 0 55.5 31t19.5 87q0 58 -21 90t-59 32q-36 0 -56.5 -32t-20.5 -89 q0 -119 82 -119zM109 -69q0 -32 28 -47t89 -15q149 0 149 55q0 16 -11 25t-39 16l-14 3l-20 3q-39 6 -90 15q-31 5 -44 9q-48 -26 -48 -64z" />
<glyph unicode="h" horiz-adv-x="579" d="M32 0v37q47 2 55 12t8 65v400q0 48 -12.5 62.5t-54.5 15.5v35l187 53v-307q61 80 160 80q72 0 106 -58q12 -21 16 -41t4 -66v-174q0 -53 7 -65t41 -12h9v-37h-234v37h9q34 0 41 12t7 65v173q0 44 -15.5 63t-51.5 19q-47 0 -99 -46v-209q0 -53 7 -65t41 -12h9v-37h-240z " />
<glyph unicode="i" horiz-adv-x="295" d="M153 531q-29 0 -49.5 20.5t-20.5 49.5t20.5 49.5t49.5 20.5t49.5 -20.5t20.5 -49.5t-20.5 -49.5t-49.5 -20.5zM35 0v37q47 2 55 12t8 65v159q0 48 -3.5 61.5t-19.5 21.5q-17 9 -44 9v36l187 52v-339q0 -53 7 -65t41 -12h9v-37h-240z" />
<glyph unicode="j" horiz-adv-x="291" d="M151 531q-29 0 -49.5 20.5t-20.5 49.5t20.5 49.5t49.5 20.5t49.5 -20.5t20.5 -49.5t-20.5 -49.5t-49.5 -20.5zM15 -49q39 0 56 -47q6 -14 15 -14q12 0 12 35v25q0 10 -0.5 28t-0.5 26v281q0 49 -12.5 64t-54.5 16v36l187 52v-339q0 -102 -11 -141q-19 -63 -67 -104.5 t-102 -41.5q-35 0 -57.5 18t-22.5 46q0 24 17.5 42t40.5 18z" />
<glyph unicode="k" horiz-adv-x="559" d="M32 0v37q47 2 55 12t8 65v389q0 57 -11.5 71t-55.5 16v35l187 55v-457l113 114q26 27 26 38q0 14 -11.5 20t-42.5 8v37h233v-37q-80 -11 -139 -66l-50 -46l136 -193q27 -39 40 -48t45 -13v-37h-243v37q23 2 30.5 5t7.5 12q0 12 -16 34l-82 122l-47 -43v-53q0 -53 7 -65 t41 -12h9v-37h-240z" />
<glyph unicode="l" horiz-adv-x="293" d="M32 0v37q47 2 55 12t8 65v394q0 50 -11.5 63.5t-55.5 16.5v35l187 57v-566q0 -53 7 -65t41 -12h9v-37h-240z" />
<glyph unicode="m" horiz-adv-x="845" d="M35 0v37q47 2 55 12t8 65v169q0 52 -12 67t-55 15v36l187 52v-77q76 71 150 71q41 0 67.5 -17.5t46.5 -57.5q75 75 158 75q127 0 127 -156v-177q0 -53 7 -65t41 -12h9v-37h-234v37h9q34 0 41 12t7 65v169q0 87 -68 87q-41 0 -87 -36v-220q0 -53 7 -65t41 -12h9v-37h-234 v37h9q34 0 41 12t7 65v169q0 87 -60 87q-36 0 -94 -44v-212q0 -53 7 -65t41 -12h9v-37h-240z" />
<glyph unicode="n" horiz-adv-x="581" d="M35 0v37q47 2 55 12t8 65v171q0 50 -12.5 65t-54.5 15v36l187 52v-83q72 83 160 83q61 0 93.5 -39.5t32.5 -113.5v-186q0 -53 7 -65t41 -12h9v-37h-234v37h9q34 0 41 12t7 65v162q0 49 -16 71t-52 22q-53 0 -98 -47v-208q0 -53 7 -65t41 -12h9v-37h-240z" />
<glyph unicode="o" horiz-adv-x="526" d="M33 220q0 97 67.5 165t163.5 68q97 0 162.5 -67.5t65.5 -165.5t-65.5 -165.5t-162.5 -67.5t-164 67.5t-67 165.5zM263 32q49 0 69 42.5t20 145.5q0 102 -20 145t-69 43q-47 0 -68.5 -45t-21.5 -143t21.5 -143t68.5 -45z" />
<glyph unicode="p" horiz-adv-x="544" d="M98 -56v337q0 54 -12 69t-55 15v36l187 52v-65q45 59 118 59q76 0 125.5 -63t49.5 -159q0 -103 -56 -169q-58 -69 -129 -69q-28 0 -58 13.5t-50 34.5v-91q0 -55 8 -65t55 -12v-37h-246v37q47 2 55 12t8 65zM218 78q41 -32 68 -32q91 0 91 186q0 155 -80 155 q-46 0 -79 -49v-260z" />
<glyph unicode="q" horiz-adv-x="524" d="M209 -13q-75 0 -125.5 65t-50.5 161q0 98 56.5 169t133.5 71q66 0 123 -54l88 58l16 -7v-506q0 -53 7 -65t41 -12h9v-37h-240v37q47 2 55 12t8 65v97q-52 -54 -121 -54zM253 48q18 0 40.5 11.5t36.5 28.5v272q-45 34 -72 34q-43 0 -67 -47.5t-24 -131.5q0 -167 86 -167z " />
<glyph unicode="r" horiz-adv-x="417" d="M35 0v37q47 2 55 12t8 65v164q0 43 -4 56.5t-18 21.5q-14 9 -45 9v36l187 52v-108q28 51 63 79.5t69 28.5q28 0 47.5 -20t19.5 -49t-19 -49t-47 -20q-18 0 -45 17q-18 11 -28 11q-26 0 -60 -53v-176q0 -56 9 -66t61 -11v-37h-253z" />
<glyph unicode="s" horiz-adv-x="454" d="M76 -11l-43 154l36 19q41 -60 90 -95.5t92 -35.5q30 0 51 18t21 43q0 27 -20.5 39t-85.5 25q-89 18 -123 46q-49 39 -49 103q0 62 44.5 105t108.5 43q30 0 81 -16q13 -4 20 -4q16 0 43 17h24l37 -146l-37 -15q-79 119 -160 119q-31 0 -49.5 -14.5t-18.5 -39.5 q0 -27 19.5 -39.5t81.5 -22.5q55 -10 82.5 -19.5t49.5 -28.5q49 -40 49 -107q0 -65 -46 -108t-116 -43q-41 0 -94 20q-15 5 -19 5q-12 0 -47 -22h-22z" />
<glyph unicode="t" horiz-adv-x="341" d="M89 111v280h-63v39q65 23 92.5 55.5t38.5 101.5h52v-147h116v-49h-116v-245q0 -52 7 -68q14 -27 43 -27q27 0 66 34l25 -28q-57 -71 -148 -71q-113 0 -113 125z" />
<glyph unicode="u" horiz-adv-x="585" d="M118 38q-24 35 -24 118v114q0 50 -3.5 63.5t-18.5 22.5t-41 9v36l183 52v-297q0 -55 16.5 -75.5t59.5 -20.5q19 0 48 12t48 28v180q0 53 -11.5 68.5t-51.5 16.5v36l183 52v-339q0 -55 8 -65t55 -12v-37q-8 1 -16 1l-14 -1q-62 -4 -92.5 -5.5t-60.5 -3.5v65 q-74 -69 -159 -69q-74 0 -109 51z" />
<glyph unicode="v" horiz-adv-x="499" d="M221 -7l-153 353q-15 35 -25.5 44t-39.5 13v37h228v-38q-26 -1 -35.5 -5.5t-9.5 -15.5q0 -8 8 -27l96 -225l75 194q9 23 9 40q0 20 -13.5 29t-45.5 11v37h180v-37q-29 -5 -46 -22.5t-34 -57.5l-135 -330h-59z" />
<glyph unicode="w" horiz-adv-x="740" d="M202 -7l-129 340q-17 45 -29 57t-41 13v37h222v-37q-37 -1 -37 -20q0 -8 8 -32l74 -210l70 170l-16 52q-7 21 -19 29t-42 11v37h226v-37q-40 -1 -40 -22q0 -13 9 -37l73 -203l65 170q11 30 11 52q0 19 -13 28.5t-45 11.5v37h188v-37q-35 -2 -54 -21t-40 -71l-128 -318 h-51l-100 266l-110 -266h-52z" />
<glyph unicode="x" horiz-adv-x="500" d="M7 0v37q37 9 58.5 23t51.5 48l83 94l-113 145q-27 34 -41.5 44t-38.5 12v37h243v-37h-9q-29 0 -29 -15q0 -9 14 -28l51 -72l50 59q17 20 17 32q0 20 -37 23q-2 1 -9 1v37h189v-37q-38 -4 -61 -17.5t-55 -51.5l-67 -81l130 -167q24 -31 33.5 -38.5t29.5 -10.5v-37h-236v37 q40 3 40 19q0 9 -15 30l-59 83l-58 -69q-17 -20 -17 -33q0 -15 10 -21.5t40 -8.5v-37h-195z" />
<glyph unicode="y" horiz-adv-x="501" d="M67 -37q16 0 26 -6t27 -24t26 -18q16 0 33 20.5t42 68.5l-145 317q-24 53 -35.5 65.5t-37.5 16.5v37h227v-37q-27 -2 -36 -6t-9 -14q0 -8 16 -44l86 -193l70 158q16 35 16 59q0 19 -12 27.5t-46 12.5v37h182v-37q-35 -9 -48.5 -24t-41.5 -75l-142 -309 q-76 -165 -175 -165q-38 0 -63 20t-25 51q0 25 19.5 43.5t45.5 18.5z" />
<glyph unicode="z" horiz-adv-x="461" d="M29 0v32l247 370q-74 -2 -116.5 -27.5t-87.5 -96.5l-30 15l41 147h340v-31l-247 -368q84 1 122.5 23t106.5 109l28 -15l-45 -158h-359z" />
<glyph unicode="{" horiz-adv-x="391" d="M111 -23q0 3 0.5 21.5t0.5 32.5v26l1 27v27q0 15 0.5 29.5t0.5 23v10.5q0 35 -17.5 49.5t-63.5 16.5v45q48 3 65 18t17 53q0 30 -1 46q-1 34 -1 67q0 81 12.5 121t43.5 59q21 13 70 16q30 2 72 2h19v-45q-46 -2 -67.5 -11.5t-31.5 -34.5q-11 -25 -11 -73v-32v-58 q0 -63 -2.5 -78.5t-15.5 -31.5q-13 -15 -22.5 -20.5t-46.5 -16.5l-10 -3q6 -3 10 -3q48 -14 66.5 -34t20.5 -61q1 -9 1 -83v-103q0 -59 23.5 -80.5t85.5 -23.5v-45q-10 0 -16 0.5t-16 0.5q-73 2 -96.5 5.5t-42.5 16.5q-48 32 -48 124z" />
<glyph unicode="|" horiz-adv-x="500" d="M205 -167v834h91v-834h-91z" />
<glyph unicode="}" horiz-adv-x="391" d="M61 -125q48 1 70.5 13t31.5 41q7 25 7 71v103q0 63 2.5 80t14.5 34q12 18 24.5 25.5t46.5 17.5q4 0 10 3l-43 13q-23 7 -38.5 30t-15.5 51v56v58v48q0 57 -24 79t-86 24v45q7 0 62 -1q96 -1 125.5 -39t29.5 -158q0 -33 -1 -67q-1 -16 -1 -46q0 -38 17 -53t65 -18v-45 q-46 -2 -63.5 -16.5t-17.5 -49.5q0 -2 0.5 -10.5t0.5 -23v-29.5v-27l1 -27v-26q0 -14 0.5 -32.5t0.5 -21.5q0 -64 -21.5 -97.5t-68.5 -43.5q-27 -5 -80 -5h-17q-11 0 -16 -0.5t-16 -0.5v45z" />
<glyph unicode="~" horiz-adv-x="667" d="M155 605l-21 13q61 109 133 109q25 0 83 -20q54 -19 77 -19q47 0 84 46l21 -13q-26 -50 -61 -79t-72 -29q-24 0 -80 20q-59 20 -85 20q-22 0 -36.5 -8t-34.5 -30z" />
<glyph unicode="&#xa1;" horiz-adv-x="289" d="M145 300q-32 0 -54.5 22.5t-22.5 54.5t22.5 54t54.5 22q31 0 53.5 -22.5t22.5 -53.5q0 -32 -22 -54.5t-54 -22.5zM84 -63q28 97 34 147q3 29 4 69q0 6 0.5 18t0.5 18q1 23 1 36v13h42v-13q0 -97 7 -148t33 -140q17 -61 17 -90q0 -38 -22 -62.5t-56 -24.5t-56 24.5 t-22 62.5q0 29 17 90z" />
<glyph unicode="&#xa2;" d="M284 29v80q-89 4 -144 63t-55 149q0 89 57 160.5t142 88.5v75h40v-71h6q64 0 112 -31.5t48 -73.5q0 -26 -17.5 -44.5t-42.5 -18.5q-37 0 -56 28q-11 16 -22 65q-5 27 -28 33v-350q14 -3 24 -3q70 0 122 81l33 -23q-60 -116 -179 -127v-81h-40zM284 196v332 q-66 -28 -66 -148q0 -141 66 -184z" />
<glyph unicode="&#xa3;" d="M36 58q0 37 30.5 62t77.5 25q25 0 52 -9q8 15 8 33q0 47 -34 109h-93v46h79q-33 73 -33 147q0 95 64 161.5t156 66.5q67 0 113 -34.5t46 -84.5q0 -38 -21.5 -64.5t-53.5 -26.5q-24 0 -40 16t-16 40q0 21 13 34.5t34 13.5q9 0 13 -1q8 -2 10 -2q12 0 12 13q0 18 -32 34.5 t-67 16.5q-46 0 -76 -27.5t-30 -68.5q0 -43 23 -99l9 -22l9 -19l8 -18l8 -18q16 -36 21 -58h106v-46h-100v-13q0 -76 -46 -148q62 -19 97 -19q40 0 69.5 22t43.5 63l45 -5q-7 -87 -54 -141t-117 -54q-86 0 -135 63q-48 -61 -117 -61q-36 0 -59 20.5t-23 52.5zM85 62 q0 -10 8.5 -17t22.5 -7q35 0 57 43q-23 11 -46 11q-17 0 -29.5 -9t-12.5 -21z" />
<glyph unicode="&#xa4;" d="M104 94l-42 42l59 60q-41 58 -41 124q0 67 41 124l-59 60l42 42l60 -59q56 41 125 41q67 0 123 -41l60 59l42 -42l-59 -59q41 -57 41 -125t-41 -124l59 -60l-42 -42l-60 59q-56 -41 -123 -41q-68 0 -125 41zM289 172q59 0 101 43.5t42 104.5t-42 104.5t-101 43.5 q-61 0 -103 -43t-42 -105q0 -61 42.5 -104.5t102.5 -43.5z" />
<glyph unicode="&#xa5;" d="M138 0v40l17 1q50 3 60 16t10 75v113h-177v46h177v10l-44 75h-143v46h117l-72 125q-26 46 -65 47v40h261v-40q-5 -1 -12 -1q-43 -3 -43 -20q0 -9 15 -38l91 -173l77 139q17 31 17 52t-13 30t-46 11v40h193v-40q-35 -10 -48 -22t-41 -59l-55 -91h123v-46h-151l-31 -52v-33 h172v-46h-172v-113q0 -62 10 -75t60 -16l17 -1v-40h-304z" />
<glyph unicode="&#xa6;" horiz-adv-x="500" d="M205 316v351h91v-351h-91zM205 153h91v-320h-91v320z" />
<glyph unicode="&#xa7;" horiz-adv-x="449" d="M71 -74q0 30 19 50t47 20q24 0 41 -18t17 -44t-26 -46q-10 -7 -10 -12q-1 -11 18 -18.5t45 -7.5q30 0 51.5 19.5t21.5 46.5q0 29 -20 53t-93 82q-54 43 -75.5 64t-40.5 49q-33 50 -33 102q0 54 31.5 90.5t78.5 36.5q9 0 21 -3q-91 64 -91 152q0 59 42.5 98.5t105.5 39.5 q59 0 100 -31t41 -75q0 -31 -16.5 -50t-44.5 -19q-26 0 -43.5 17t-17.5 42q0 28 26 48q9 6 9 12q0 10 -14 16.5t-36 6.5q-30 0 -51.5 -19.5t-21.5 -47.5q0 -31 28 -61q21 -21 42 -38l20 -16l21 -15l20 -16q132 -104 132 -199q0 -55 -30.5 -93.5t-74.5 -38.5q-13 0 -30 4 q53 -34 75.5 -67.5t22.5 -80.5q0 -62 -44.5 -102t-113.5 -40q-64 0 -106.5 31t-42.5 78zM200 182q57 -47 84 -47q22 0 38.5 16.5t16.5 38.5q0 42 -75 109q-68 62 -104 62q-21 0 -37 -16t-16 -38q0 -50 93 -125z" />
<glyph unicode="&#xa8;" horiz-adv-x="500" d="M330 520q-25 0 -42.5 17.5t-17.5 42.5t17.5 42.5t42.5 17.5t42.5 -17.5t17.5 -42.5t-17.5 -42.5t-42.5 -17.5zM169 520q-25 0 -42.5 17.5t-17.5 42.5t17.5 42.5t42.5 17.5t42.5 -17.5t17.5 -42.5t-17.5 -42.5t-42.5 -17.5z" />
<glyph unicode="&#xa9;" horiz-adv-x="760" d="M30 334q0 145 102.5 247.5t247.5 102.5q146 0 248 -102t102 -248q0 -145 -102.5 -248t-247.5 -103t-247.5 103t-102.5 248zM80 334q0 -126 88 -215t212 -89t212 89t88 215q0 125 -88 214t-212 89t-212 -89t-88 -214zM202 325q0 88 53 149.5t129 61.5q26 0 60 -12 q6 -3 12 -3q2 0 16 6l17 8l14 -5l31 -111l-30 -12q-56 98 -117 98q-42 0 -66 -37.5t-24 -103.5q0 -79 31.5 -127t84.5 -48q63 0 105 76l27 -12q-54 -116 -165 -116q-79 0 -128.5 52.5t-49.5 135.5z" />
<glyph unicode="&#xaa;" horiz-adv-x="352" d="M124 368q-39 0 -65 21t-26 53q0 41 41.5 67t133.5 42v24q0 27 -6 36t-23 9q-26 0 -38 -33q-16 -40 -46 -40q-18 0 -30.5 11.5t-12.5 27.5q0 28 35.5 46t91.5 18q58 0 84.5 -19t26.5 -60v-100q0 -33 2 -42t10 -9q6 0 18 7l21 -20q-38 -39 -70 -39q-33 0 -57 34 q-49 -34 -90 -34zM155 413q27 0 53 24v83q-46 -11 -65 -26.5t-19 -40.5q0 -18 8.5 -29t22.5 -11zM33 282v53h292v-53h-292z" />
<glyph unicode="&#xab;" horiz-adv-x="376" d="M165 214v19q65 52 82 68l27 24l28 25l27 24l3 3l3 2l3 3l22 -18q-36 -61 -92 -140q57 -71 92 -140l-22 -19l-34 30l-23 21q-79 71 -116 98zM133 116q-79 71 -116 98v19q65 52 82 68l27 24l28 25l27 24l3 3l3 2l3 3l22 -18q-36 -61 -92 -140q57 -71 92 -140l-22 -19 l-34 30z" />
<glyph unicode="&#xac;" horiz-adv-x="500" d="M31 203v64h438v-267h-149v203h-289z" />
<glyph unicode="&#xad;" horiz-adv-x="222" d="M0 183v80h222v-80h-222z" />
<glyph unicode="&#xae;" horiz-adv-x="760" d="M30 334q0 145 102.5 247.5t247.5 102.5q146 0 248 -102t102 -248q0 -145 -102.5 -248t-247.5 -103t-247.5 103t-102.5 248zM80 334q0 -126 88 -215t212 -89t212 89t88 215q0 125 -88 214t-212 89t-212 -89t-88 -214zM203 147v29h11q27 0 32.5 7t5.5 41v225q0 34 -5 40 t-33 8l-11 1v29h175q168 0 168 -98q0 -80 -97 -91q20 -17 42 -62l20 -40q19 -38 30.5 -48t39.5 -14v-27h-122l-65 126q-19 36 -26.5 44t-24.5 8v-101q0 -34 5 -41t34 -7h9v-29h-188zM343 355h20q50 0 69 15.5t19 57.5q0 69 -64 69q-29 0 -36.5 -8.5t-7.5 -39.5v-94z" />
<glyph unicode="&#xaf;" horiz-adv-x="500" d="M123 546v67h253v-67h-253z" />
<glyph unicode="&#xb0;" horiz-adv-x="363" d="M182 380q-62 0 -105.5 43.5t-43.5 106.5t43.5 106.5t105.5 43.5t104.5 -43t42.5 -107t-42.5 -107t-104.5 -43zM181 420q32 0 45 25t13 85t-13 85t-45 25q-58 0 -58 -110t58 -110z" />
<glyph unicode="&#xb1;" d="M256 142v191h-203v60h203v192h64v-192h202v-60h-202v-191h-64zM53 55v60h469v-60h-469z" />
<glyph unicode="&#xb2;" horiz-adv-x="380" d="M22 253v33q56 64 126 124q49 43 68 74t19 68q0 28 -15 43.5t-42 15.5q-20 0 -33 -10t-13 -26q0 -5 3 -23v-8q0 -22 -13.5 -35.5t-34.5 -13.5t-35 15t-14 37q0 41 42 69t104 28q68 0 109.5 -29t41.5 -77q0 -51 -50 -92q-20 -18 -94 -59q-32 -19 -82 -55h113q44 0 57.5 9.5 t34.5 53.5l30 -7l-34 -135h-288z" />
<glyph unicode="&#xb3;" horiz-adv-x="380" d="M175 243q-66 0 -106 22.5t-40 59.5q0 18 14.5 31t34.5 13q46 0 48 -54q1 -23 12 -32t37 -9q32 0 51.5 22.5t19.5 59.5q0 36 -19.5 59t-48.5 23q-13 0 -27 -2q-5 -1 -12 -1q-22 -2 -22 20q0 19 22 19q5 0 9 -1q14 -1 22 -1q30 0 48.5 20.5t18.5 54.5q0 30 -14 47.5 t-38 17.5q-44 0 -44 -37q-1 -56 -46 -56q-20 0 -34 13t-14 32q0 34 40 56.5t100 22.5q62 0 103.5 -27.5t41.5 -67.5q0 -26 -19 -49t-50 -34q-2 -1 -25 -8q106 -25 106 -100q0 -51 -46.5 -82.5t-122.5 -31.5z" />
<glyph unicode="&#xb4;" horiz-adv-x="500" d="M207 512l123 113q37 33 61 33q17 0 29.5 -12.5t12.5 -28.5q0 -19 -14.5 -31.5t-52.5 -29.5l-123 -54z" />
<glyph unicode="&#xb5;" horiz-adv-x="474" d="M2 -75q31 152 31 324v191h121v-270q0 -68 15 -97t50 -29q42 0 88 58v338h120v-311q0 -49 8 -65.5t33 -16.5q10 0 28 6v-19l-120 -45q-1 -1 -5 -1q-21 0 -31.5 14t-24.5 58q-44 -46 -69.5 -60.5t-62.5 -14.5q-41 0 -65.5 19t-43.5 65v-18q0 -51 28 -140q10 -35 10 -53 q0 -23 -16.5 -38t-41.5 -15q-27 0 -43.5 15.5t-16.5 40.5q0 24 8 64z" />
<glyph unicode="&#xb6;" d="M146 -130l13 1q51 4 60.5 16t9.5 75v342q-79 0 -121 28q-34 22 -54.5 64t-20.5 91q0 105 79 151q29 17 65 23t104 6h264v-40l-13 -1q-51 -4 -60.5 -16t-9.5 -75v-573q0 -63 9.5 -75t60.5 -16l13 -1v-40h-170v791h-59v-791h-170v40z" />
<glyph unicode="&#xb7;" horiz-adv-x="247" d="M124 147q-32 0 -54.5 22.5t-22.5 54.5t22.5 54t54.5 22t54 -22t22 -54t-22 -54.5t-54 -22.5z" />
<glyph unicode="&#xb8;" horiz-adv-x="500" d="M161 -143q45 -20 74 -20q20 0 32 10.5t12 26.5q0 14 -10.5 23.5t-26.5 9.5q-7 0 -28 -4l-6 5l44 108h37l-28 -77q14 6 28 6q28 0 48.5 -19.5t20.5 -46.5q0 -36 -33.5 -59t-85.5 -23q-51 0 -96 24z" />
<glyph unicode="&#xb9;" horiz-adv-x="380" d="M71 253v32q59 0 70 8t11 49v191q0 27 -14 33.5t-71 6.5v29q102 17 176 49v-309q0 -32 1 -38.5t8 -10.5q13 -7 71 -8v-32h-252z" />
<glyph unicode="&#xba;" horiz-adv-x="363" d="M182 368q-62 0 -105.5 41t-43.5 100t43.5 100t105.5 41t104.5 -41t42.5 -100t-42.5 -100t-104.5 -41zM181 401q29 0 41 24.5t12 83.5t-12 83.5t-41 24.5q-28 0 -40.5 -25.5t-12.5 -82.5t12.5 -82.5t40.5 -25.5zM33 282v53h296v-53h-296z" />
<glyph unicode="&#xbb;" horiz-adv-x="376" d="M165 83q38 64 92 139q-61 78 -92 141l22 19l4 -3q4 -3 30 -27l23 -21q79 -71 116 -98v-19q-80 -66 -82 -68l-27 -25l-28 -24l-27 -24l-6 -6l-3 -2zM39 65l-22 18q38 64 92 139q-61 78 -92 141l22 19l34 -30l23 -21q79 -71 116 -98v-19q-80 -66 -82 -68l-27 -25l-28 -24 l-27 -24l-6 -6z" />
<glyph unicode="&#xbc;" horiz-adv-x="861" d="M71 253v32q59 0 70 8t11 49v191q0 26 -14 33t-71 7v29q102 18 176 49v-309q0 -33 1.5 -39.5t10.5 -10.5q13 -6 68 -7v-32h-252zM226 0l347 633h62l-347 -633h-62zM503 91v28l205 271h61v-265h71v-34h-71v-10q0 -35 5 -40.5t36 -9.5l9 -1v-30h-199v30l17 1q30 2 35.5 8.5 t5.5 41.5v10h-175zM548 125h130v172z" />
<glyph unicode="&#xbd;" horiz-adv-x="861" d="M71 253v32q59 0 70 8t11 49v191q0 26 -14 33t-71 7v29q102 18 176 49v-309q0 -33 1.5 -39.5t10.5 -10.5q13 -6 68 -7v-32h-252zM226 0l347 633h62l-347 -633h-62zM503 0v33q58 65 126 124q50 43 68.5 73.5t18.5 69.5q0 26 -15.5 41.5t-42.5 15.5q-20 0 -32.5 -10 t-12.5 -26q0 -3 3 -22v-8q0 -22 -13.5 -35t-36.5 -13q-20 0 -33.5 15t-13.5 38q0 38 42 66t100 28q73 0 114 -28.5t41 -78.5q0 -49 -52 -92q-26 -21 -91 -57q-35 -20 -83 -55h113q44 0 57.5 9.5t34.5 53.5l30 -7l-34 -135h-288z" />
<glyph unicode="&#xbe;" horiz-adv-x="861" d="M173 243q-64 0 -104 22.5t-40 57.5q0 19 14 32.5t34 13.5q47 0 49 -54q1 -22 11.5 -31.5t36.5 -9.5q34 0 53 22.5t19 60.5q0 36 -19 58.5t-50 22.5q-10 0 -26 -2q-5 -1 -12 -1q-22 0 -22 20q0 19 22 19q5 0 9 -1q14 -1 22 -1q30 0 48.5 20.5t18.5 54.5q0 30 -13.5 47.5 t-37.5 17.5q-45 0 -45 -37q-1 -56 -46 -56q-20 0 -34 13t-14 32q0 34 40 56.5t99 22.5q63 0 104.5 -27.5t41.5 -68.5q0 -30 -26 -56q-13 -13 -21.5 -17t-46.5 -17q106 -25 106 -101q0 -51 -47 -82t-124 -31zM226 0l347 633h62l-347 -633h-62zM503 91v28l204 271h61v-265h72 v-34h-72v-10q0 -35 5 -40.5t36 -9.5l9 -1v-30h-199v30l17 1q30 2 35.5 8.5t5.5 41.5v10h-174zM548 125h129v172z" />
<glyph unicode="&#xbf;" horiz-adv-x="435" d="M264 300q-32 0 -54.5 22.5t-22.5 54.5t22.5 54t54.5 22t54 -22.5t22 -53.5q0 -32 -22 -54.5t-54 -22.5zM40 -25q0 81 58 134t147 53v73h43v-189q-64 -3 -91 -23q-52 -38 -52 -109q0 -44 15 -73.5t38 -29.5q26 0 45 40q27 55 69 55q26 0 44.5 -19t18.5 -45 q0 -37 -32.5 -59.5t-85.5 -22.5q-92 0 -154.5 62t-62.5 153z" />
<glyph unicode="&#xc0;" horiz-adv-x="635" d="M220 773q-44 10 -60.5 22t-16.5 33q0 18 13 30.5t32 12.5q20 0 55 -23l141 -90l-33 -16zM-7 0v40q37 1 55.5 24.5t47.5 104.5l177 489l110 35l165 -565q17 -60 32 -74t61 -14v-40h-291v40q12 0 15 1q51 1 51 29q0 20 -10 51l-31 102h-213l-21 -60q-16 -47 -16 -71 q0 -27 16 -38t59 -14v-40h-207zM178 271h183l-78 302z" />
<glyph unicode="&#xc1;" horiz-adv-x="635" d="M309 742l-33 16l141 90q36 23 55 23t32 -12.5t13 -30.5q0 -21 -16.5 -33t-60.5 -22zM-7 0v40q37 1 55.5 24.5t47.5 104.5l177 489l110 35l165 -565q17 -60 32 -74t61 -14v-40h-291v40q12 0 15 1q51 1 51 29q0 20 -10 51l-31 102h-213l-21 -60q-16 -47 -16 -71 q0 -27 16 -38t59 -14v-40h-207zM178 271h183l-78 302z" />
<glyph unicode="&#xc2;" horiz-adv-x="635" d="M181 742l114 130h75l110 -130h-43l-108 65l-103 -65h-45zM-7 0v40q37 1 55.5 24.5t47.5 104.5l177 489l110 35l165 -565q17 -60 32 -74t61 -14v-40h-291v40q12 0 15 1q51 1 51 29q0 20 -10 51l-31 102h-213l-21 -60q-16 -47 -16 -71q0 -27 16 -38t59 -14v-40h-207z M178 271h183l-78 302z" />
<glyph unicode="&#xc3;" horiz-adv-x="635" d="M208 752l-30 11q13 44 37.5 71.5t50.5 27.5q16 0 78 -21q56 -19 71 -19q23 0 37 39l31 -12q-27 -96 -97 -96q-23 0 -68 18q-45 19 -69 19q-13 0 -21.5 -8t-19.5 -30zM-7 0v40q37 1 55.5 24.5t47.5 104.5l177 489l110 35l165 -565q17 -60 32 -74t61 -14v-40h-291v40 q12 0 15 1q51 1 51 29q0 20 -10 51l-31 102h-213l-21 -60q-16 -47 -16 -71q0 -27 16 -38t59 -14v-40h-207zM178 271h183l-78 302z" />
<glyph unicode="&#xc4;" horiz-adv-x="635" d="M444 747q-25 0 -42.5 17.5t-17.5 42.5t17.5 42.5t42.5 17.5t42.5 -17.5t17.5 -42.5t-17.5 -42.5t-42.5 -17.5zM216 747q-25 0 -42.5 17.5t-17.5 42.5t17.5 42.5t42.5 17.5t42.5 -17.5t17.5 -42.5t-17.5 -42.5t-42.5 -17.5zM-7 0v40q37 1 55.5 24.5t47.5 104.5l177 489 l110 35l165 -565q17 -60 32 -74t61 -14v-40h-291v40q12 0 15 1q51 1 51 29q0 20 -10 51l-31 102h-213l-21 -60q-16 -47 -16 -71q0 -27 16 -38t59 -14v-40h-207zM178 271h183l-78 302z" />
<glyph unicode="&#xc5;" horiz-adv-x="635" d="M324 747q-38 0 -64 26.5t-26 63.5t26 63.5t64 26.5t64 -26.5t26 -63.5t-26 -63.5t-64 -26.5zM324 799q16 0 27 11t11 27t-11 27.5t-27 11.5t-27 -11.5t-11 -27.5t11 -27t27 -11zM-7 0v40q37 1 55.5 24.5t47.5 104.5l177 489l110 35l165 -565q17 -60 32 -74t61 -14v-40 h-291v40q12 0 15 1q51 1 51 29q0 20 -10 51l-31 102h-213l-21 -60q-16 -47 -16 -71q0 -27 16 -38t59 -14v-40h-207zM178 271h183l-78 302z" />
<glyph unicode="&#xc6;" horiz-adv-x="1046" d="M-7 0v40q36 3 55 17q41 29 78 84l293 432q16 24 16 35q0 12 -11 15.5t-48 3.5h-19v40h589l51 -180l-38 -19q-60 84 -115 117t-134 33q-44 0 -57 -13.5t-13 -59.5v-180h29q64 0 92 21t46 82h41v-267h-41q-4 61 -37 88t-101 27h-29v-198q0 -50 11 -62.5t55 -12.5 q163 0 270 158l37 -25l-54 -176h-549v40l17 1q50 3 60 16t10 75v97h-257l-76 -123q-14 -23 -14 -32q0 -18 15.5 -24.5t65.5 -9.5v-40h-238zM272 277h225v336z" />
<glyph unicode="&#xc7;" horiz-adv-x="631" d="M217 -133q60 -30 94 -30q19 0 31 10.5t12 26.5q0 14 -10.5 24t-26.5 10q-9 0 -27 -5l-7 5l32 76q-124 8 -199.5 98.5t-75.5 230.5q0 170 106 280q88 91 197 91q41 0 99 -22q13 -5 22 -5q8 0 29 11l27 14l19 -8l50 -191l-42 -16q-93 173 -200 173q-74 0 -116 -68.5 t-42 -189.5q0 -145 55 -232t147 -87q109 0 180 136l37 -17q-82 -188 -255 -198l-17 -45q14 7 29 7q28 0 48 -19.5t20 -47.5q0 -35 -33.5 -58.5t-84.5 -23.5q-59 0 -118 34z" />
<glyph unicode="&#xc8;" horiz-adv-x="664" d="M208 773q-44 10 -60.5 22t-16.5 33q0 18 13 30.5t32 12.5q20 0 55 -23l141 -90l-33 -16zM33 0v40l13 1q51 4 60.5 16t9.5 75v403q0 63 -9.5 75t-60.5 16l-13 1v40h528l52 -181l-36 -22q-102 155 -248 155q-47 0 -58.5 -15.5t-11.5 -76.5v-163h19q70 0 100.5 22.5 t46.5 84.5h41v-270h-41q-6 62 -40 89t-106 27h-20v-187q0 -57 11.5 -72t55.5 -15q152 0 268 158l36 -21l-53 -180h-544z" />
<glyph unicode="&#xc9;" horiz-adv-x="664" d="M304 742l-33 16l141 90q36 23 55 23t32 -12.5t13 -30.5q0 -21 -16.5 -33t-60.5 -22zM33 0v40l13 1q51 4 60.5 16t9.5 75v403q0 63 -9.5 75t-60.5 16l-13 1v40h528l52 -181l-36 -22q-102 155 -248 155q-47 0 -58.5 -15.5t-11.5 -76.5v-163h19q70 0 100.5 22.5t46.5 84.5 h41v-270h-41q-6 62 -40 89t-106 27h-20v-187q0 -57 11.5 -72t55.5 -15q152 0 268 158l36 -21l-53 -180h-544z" />
<glyph unicode="&#xca;" horiz-adv-x="664" d="M169 742l114 130h75l110 -130h-43l-108 65l-103 -65h-45zM33 0v40l13 1q51 4 60.5 16t9.5 75v403q0 63 -9.5 75t-60.5 16l-13 1v40h528l52 -181l-36 -22q-102 155 -248 155q-47 0 -58.5 -15.5t-11.5 -76.5v-163h19q70 0 100.5 22.5t46.5 84.5h41v-270h-41q-6 62 -40 89 t-106 27h-20v-187q0 -57 11.5 -72t55.5 -15q152 0 268 158l36 -21l-53 -180h-544z" />
<glyph unicode="&#xcb;" horiz-adv-x="664" d="M432 747q-25 0 -42.5 17.5t-17.5 42.5t17.5 42.5t42.5 17.5t42.5 -17.5t17.5 -42.5t-17.5 -42.5t-42.5 -17.5zM204 747q-25 0 -42.5 17.5t-17.5 42.5t17.5 42.5t42.5 17.5t42.5 -17.5t17.5 -42.5t-17.5 -42.5t-42.5 -17.5zM33 0v40l13 1q51 4 60.5 16t9.5 75v403 q0 63 -9.5 75t-60.5 16l-13 1v40h528l52 -181l-36 -22q-102 155 -248 155q-47 0 -58.5 -15.5t-11.5 -76.5v-163h19q70 0 100.5 22.5t46.5 84.5h41v-270h-41q-6 62 -40 89t-106 27h-20v-187q0 -57 11.5 -72t55.5 -15q152 0 268 158l36 -21l-53 -180h-544z" />
<glyph unicode="&#xcc;" horiz-adv-x="377" d="M196 742l-131 31q-44 10 -60.5 22t-16.5 33q0 18 13 30.5t32 12.5q21 0 55 -23l141 -90zM34 0v40l13 1q51 4 60.5 16t9.5 75v403q0 63 -9.5 75t-60.5 16l-13 1v40h309v-40l-13 -1q-51 -4 -60.5 -16t-9.5 -75v-403q0 -63 9.5 -75t60.5 -16l13 -1v-40h-309z" />
<glyph unicode="&#xcd;" horiz-adv-x="377" d="M180 742l-33 16l141 90q36 23 55 23t32 -12.5t13 -30.5q0 -21 -16.5 -33t-60.5 -22zM33 0v40l13 1q51 4 60.5 16t9.5 75v403q0 63 -9.5 75t-60.5 16l-13 1v40h309v-40l-13 -1q-51 -4 -60.5 -16t-9.5 -75v-403q0 -63 9.5 -75t60.5 -16l13 -1v-40h-309z" />
<glyph unicode="&#xce;" horiz-adv-x="377" d="M39 742l114 130h75l110 -130h-43l-108 65l-103 -65h-45zM33 0v40l13 1q51 4 60.5 16t9.5 75v403q0 63 -9.5 75t-60.5 16l-13 1v40h309v-40l-13 -1q-51 -4 -60.5 -16t-9.5 -75v-403q0 -63 9.5 -75t60.5 -16l13 -1v-40h-309z" />
<glyph unicode="&#xcf;" horiz-adv-x="377" d="M282 747q-25 0 -42.5 17.5t-17.5 42.5t17.5 42.5t42.5 17.5t42.5 -17.5t17.5 -42.5t-17.5 -42.5t-42.5 -17.5zM93 747q-25 0 -42.5 17.5t-17.5 42.5t17.5 42.5t42.5 17.5t42.5 -17.5t17.5 -42.5t-17.5 -42.5t-42.5 -17.5zM33 0v40l13 1q51 4 60.5 16t9.5 75v403 q0 63 -9.5 75t-60.5 16l-13 1v40h309v-40l-13 -1q-51 -4 -60.5 -16t-9.5 -75v-403q0 -63 9.5 -75t60.5 -16l13 -1v-40h-309z" />
<glyph unicode="&#xd0;" horiz-adv-x="721" d="M33 0v40l13 1q51 4 60.5 16t9.5 75v191h-83v40h83v172q0 63 -9.5 75t-60.5 16l-13 1v40h261q78 0 110.5 -3t64.5 -13q95 -30 153.5 -116.5t58.5 -197.5q0 -171 -114 -268q-47 -40 -101 -54.5t-156 -14.5h-277zM259 121q0 -58 10.5 -69t64.5 -11q104 0 147 65t43 220 q0 166 -41.5 231.5t-147.5 65.5q-50 0 -63 -14.5t-13 -72.5v-173h154v-40h-154v-202z" />
<glyph unicode="&#xd1;" horiz-adv-x="696" d="M225 752l-30 11q13 44 37.5 71.5t50.5 27.5q16 0 78 -21q56 -19 71 -19q24 0 37 39l31 -12q-27 -96 -97 -96q-23 0 -68 18q-45 19 -69 19q-13 0 -21.5 -8t-19.5 -30zM33 0v40q44 4 66 39q17 27 17 118v387q-25 35 -83 41v42h209l297 -472v275q0 88 -16.5 118.5 t-66.5 38.5v40h213v-40q-51 -8 -67 -38.5t-16 -118.5v-470h-87l-336 533v-336q0 -60 5.5 -87t21.5 -44q21 -22 56 -26v-40h-213z" />
<glyph unicode="&#xd2;" horiz-adv-x="708" d="M230 773q-44 10 -60.5 22t-16.5 33q0 18 13 30.5t32 12.5q20 0 55 -23l141 -90l-33 -16zM40 334q0 150 89.5 250t224.5 100t224.5 -99.5t89.5 -250.5t-89.5 -251t-224.5 -100t-224.5 100t-89.5 251zM354 24q77 0 117 79.5t40 230.5t-40 230t-117 79t-117 -79t-40 -230 t40 -230.5t117 -79.5z" />
<glyph unicode="&#xd3;" horiz-adv-x="708" d="M346 742l-33 16l141 90q36 23 55 23t32 -12.5t13 -30.5q0 -21 -16.5 -33t-60.5 -22zM40 334q0 150 89.5 250t224.5 100t224.5 -99.5t89.5 -250.5t-89.5 -251t-224.5 -100t-224.5 100t-89.5 251zM354 24q77 0 117 79.5t40 230.5t-40 230t-117 79t-117 -79t-40 -230 t40 -230.5t117 -79.5z" />
<glyph unicode="&#xd4;" horiz-adv-x="708" d="M205 742l114 130h75l110 -130h-43l-108 65l-103 -65h-45zM40 334q0 150 89.5 250t224.5 100t224.5 -99.5t89.5 -250.5t-89.5 -251t-224.5 -100t-224.5 100t-89.5 251zM354 24q77 0 117 79.5t40 230.5t-40 230t-117 79t-117 -79t-40 -230t40 -230.5t117 -79.5z" />
<glyph unicode="&#xd5;" horiz-adv-x="708" d="M231 752l-30 11q13 44 37.5 71.5t50.5 27.5q16 0 78 -21q56 -19 71 -19q24 0 37 39l31 -12q-27 -96 -97 -96q-23 0 -68 18q-45 19 -69 19q-13 0 -21.5 -8t-19.5 -30zM40 334q0 150 89.5 250t224.5 100t224.5 -99.5t89.5 -250.5t-89.5 -251t-224.5 -100t-224.5 100 t-89.5 251zM354 24q77 0 117 79.5t40 230.5t-40 230t-117 79t-117 -79t-40 -230t40 -230.5t117 -79.5z" />
<glyph unicode="&#xd6;" horiz-adv-x="708" d="M468 747q-25 0 -42.5 17.5t-17.5 42.5t17.5 42.5t42.5 17.5t42.5 -17.5t17.5 -42.5t-17.5 -42.5t-42.5 -17.5zM240 747q-25 0 -42.5 17.5t-17.5 42.5t17.5 42.5t42.5 17.5t42.5 -17.5t17.5 -42.5t-17.5 -42.5t-42.5 -17.5zM40 334q0 150 89.5 250t224.5 100t224.5 -99.5 t89.5 -250.5t-89.5 -251t-224.5 -100t-224.5 100t-89.5 251zM354 24q77 0 117 79.5t40 230.5t-40 230t-117 79t-117 -79t-40 -230t40 -230.5t117 -79.5z" />
<glyph unicode="&#xd7;" d="M138 128l-42 42l150 150l-150 150l42 42l150 -150l150 150l42 -42l-150 -150l150 -150l-42 -42l-150 150z" />
<glyph unicode="&#xd8;" horiz-adv-x="708" d="M152 -14l27 53q-139 103 -139 295q0 151 89.5 250.5t224.5 99.5q75 0 140 -34l25 47l36 -18l-26 -51q139 -103 139 -295q0 -151 -89.5 -250.5t-224.5 -99.5q-76 0 -140 34l-27 -51zM226 129l234 454q-41 60 -106 60q-77 0 -117 -79t-40 -230q0 -132 29 -205zM248 84 q39 -60 106 -60q77 0 117 79t40 230q0 132 -29 204z" />
<glyph unicode="&#xd9;" horiz-adv-x="695" d="M244 773q-44 10 -60.5 22t-16.5 33q0 18 13 30.5t32 12.5q20 0 55 -23l141 -90l-33 -16zM131 95q-11 26 -14.5 51t-3.5 89v300q0 63 -9.5 75t-60.5 16l-13 1v40h309v-40l-13 -1q-51 -4 -60.5 -16t-9.5 -75v-327q0 -57 4.5 -82t18.5 -46q33 -50 112 -50t115 49t36 156v235 q0 87 -16.5 118.5t-66.5 38.5v40h213v-40q-53 -12 -68 -40t-15 -117v-235q0 -133 -56 -193t-178 -60q-84 0 -142 29.5t-82 83.5z" />
<glyph unicode="&#xda;" horiz-adv-x="695" d="M360 742l-33 16l141 90q36 23 55 23t32 -12.5t13 -30.5q0 -21 -16.5 -33t-60.5 -22zM131 95q-11 26 -14.5 51t-3.5 89v300q0 63 -9.5 75t-60.5 16l-13 1v40h309v-40l-13 -1q-51 -4 -60.5 -16t-9.5 -75v-327q0 -57 4.5 -82t18.5 -46q33 -50 112 -50t115 49t36 156v235 q0 87 -16.5 118.5t-66.5 38.5v40h213v-40q-53 -12 -68 -40t-15 -117v-235q0 -133 -56 -193t-178 -60q-84 0 -142 29.5t-82 83.5z" />
<glyph unicode="&#xdb;" horiz-adv-x="695" d="M218 742l114 130h75l110 -130h-43l-108 65l-103 -65h-45zM131 95q-11 26 -14.5 51t-3.5 89v300q0 63 -9.5 75t-60.5 16l-13 1v40h309v-40l-13 -1q-51 -4 -60.5 -16t-9.5 -75v-327q0 -57 4.5 -82t18.5 -46q33 -50 112 -50t115 49t36 156v235q0 87 -16.5 118.5t-66.5 38.5 v40h213v-40q-53 -12 -68 -40t-15 -117v-235q0 -133 -56 -193t-178 -60q-84 0 -142 29.5t-82 83.5z" />
<glyph unicode="&#xdc;" horiz-adv-x="695" d="M482 747q-25 0 -42.5 17.5t-17.5 42.5t17.5 42.5t42.5 17.5t42.5 -17.5t17.5 -42.5t-17.5 -42.5t-42.5 -17.5zM254 747q-25 0 -42.5 17.5t-17.5 42.5t17.5 42.5t42.5 17.5t42.5 -17.5t17.5 -42.5t-17.5 -42.5t-42.5 -17.5zM131 95q-11 26 -14.5 51t-3.5 89v300 q0 63 -9.5 75t-60.5 16l-13 1v40h309v-40l-13 -1q-51 -4 -60.5 -16t-9.5 -75v-327q0 -57 4.5 -82t18.5 -46q33 -50 112 -50t115 49t36 156v235q0 87 -16.5 118.5t-66.5 38.5v40h213v-40q-53 -12 -68 -40t-15 -117v-235q0 -133 -56 -193t-178 -60q-84 0 -142 29.5t-82 83.5z " />
<glyph unicode="&#xdd;" horiz-adv-x="594" d="M290 742l-34 16l141 90q36 23 56 23q19 0 32 -12.5t13 -30.5q0 -21 -16.5 -33t-61.5 -22zM142 0v40l17 1q50 3 60 16t10 75v169l-160 279q-16 27 -29 36t-40 11v40h278v-40q-55 0 -55 -21q0 -9 15 -38l109 -206l96 173q17 31 17 51q0 21 -13 30.5t-46 10.5v40h193v-40 q-35 -10 -48.5 -22.5t-40.5 -57.5l-133 -223v-192q0 -62 10 -75t60 -16l17 -1v-40h-317z" />
<glyph unicode="&#xde;" horiz-adv-x="632" d="M33 0v40l13 1q51 4 60.5 16t9.5 75v403q0 63 -9.5 75t-60.5 16l-13 1v40h309v-40l-13 -1q-51 -4 -60.5 -16t-9.5 -75v-15h38q126 0 167 -12q63 -18 100 -63t37 -103q0 -47 -24.5 -89.5t-64.5 -64.5q-57 -31 -160 -31h-93v-25q0 -63 9.5 -75t60.5 -16l13 -1v-40h-309z M259 201h50q79 0 109 32t30 115q0 71 -27 102t-89 31q-45 0 -59 -17.5t-14 -72.5v-190z" />
<glyph unicode="&#xdf;" horiz-adv-x="562" d="M27 0v37h9q34 0 41 12t7 65v302q0 87 8 126.5t33 70.5q52 67 161 67q98 0 155 -43t57 -117q0 -60 -35 -97t-101 -45q44 -7 67.5 -17t43.5 -30q56 -54 56 -150q0 -91 -47 -142.5t-130 -51.5q-52 0 -86.5 24.5t-34.5 62.5q0 28 18 46t46 18q23 0 39 -16.5t16 -40.5 q0 -22 -16 -42q-3 -3 -3 -6q0 -10 15 -10q43 0 43 144q0 140 -32 172q-11 11 -20 13.5t-39 2.5q-16 0 -22.5 5t-6.5 19q0 13 8 17t32 4q38 0 54 25t16 85q0 129 -89 129q-50 0 -68 -30t-18 -112v-497h-177z" />
<glyph unicode="&#xe0;" horiz-adv-x="509" d="M261 502l-123 54q-38 17 -52.5 29.5t-14.5 31.5q0 16 12.5 28.5t29.5 12.5q24 0 61 -33l123 -113zM33 106q0 89 119 140q43 19 158 41v45q0 47 -11 64t-41 17q-24 0 -39 -13.5t-26 -45.5q-23 -63 -68 -63q-26 0 -44.5 17t-18.5 42q0 46 55 74.5t141 28.5q104 0 149 -47 q23 -24 23 -82v-169q0 -58 4.5 -74.5t20.5 -16.5q11 0 28 11l26 -28q-55 -60 -104 -60q-52 0 -90 60q-75 -60 -144 -60q-59 0 -98.5 34t-39.5 85zM167 126q0 -34 15 -54t40 -20q44 0 88 44v150q-79 -20 -111 -47t-32 -73z" />
<glyph unicode="&#xe1;" horiz-adv-x="509" d="M211 512l123 113q37 33 61 33q17 0 29.5 -12.5t12.5 -28.5q0 -19 -14.5 -31.5t-52.5 -29.5l-123 -54zM33 106q0 89 119 140q43 19 158 41v45q0 47 -11 64t-41 17q-24 0 -39 -13.5t-26 -45.5q-23 -63 -68 -63q-26 0 -44.5 17t-18.5 42q0 46 55 74.5t141 28.5 q104 0 149 -47q23 -24 23 -82v-169q0 -58 4.5 -74.5t20.5 -16.5q11 0 28 11l26 -28q-55 -60 -104 -60q-52 0 -90 60q-75 -60 -144 -60q-59 0 -98.5 34t-39.5 85zM167 126q0 -34 15 -54t40 -20q44 0 88 44v150q-79 -20 -111 -47t-32 -73z" />
<glyph unicode="&#xe2;" horiz-adv-x="509" d="M116 503l103 154h75l98 -154h-43l-96 90l-93 -90h-44zM33 106q0 89 119 140q43 19 158 41v45q0 47 -11 64t-41 17q-24 0 -39 -13.5t-26 -45.5q-23 -63 -68 -63q-26 0 -44.5 17t-18.5 42q0 46 55 74.5t141 28.5q104 0 149 -47q23 -24 23 -82v-169q0 -58 4.5 -74.5 t20.5 -16.5q11 0 28 11l26 -28q-55 -60 -104 -60q-52 0 -90 60q-75 -60 -144 -60q-59 0 -98.5 34t-39.5 85zM167 126q0 -34 15 -54t40 -20q44 0 88 44v150q-79 -20 -111 -47t-32 -73z" />
<glyph unicode="&#xe3;" horiz-adv-x="509" d="M142 517l-28 11q36 114 81 114q16 0 68 -24q48 -22 60 -22q25 0 42 47l29 -12q-26 -110 -85 -110q-20 0 -63 21q-41 20 -59 20q-13 0 -22 -8.5t-23 -36.5zM33 106q0 89 119 140q43 19 158 41v45q0 47 -11 64t-41 17q-24 0 -39 -13.5t-26 -45.5q-23 -63 -68 -63 q-26 0 -44.5 17t-18.5 42q0 46 55 74.5t141 28.5q104 0 149 -47q23 -24 23 -82v-169q0 -58 4.5 -74.5t20.5 -16.5q11 0 28 11l26 -28q-55 -60 -104 -60q-52 0 -90 60q-75 -60 -144 -60q-59 0 -98.5 34t-39.5 85zM167 126q0 -34 15 -54t40 -20q44 0 88 44v150 q-79 -20 -111 -47t-32 -73z" />
<glyph unicode="&#xe4;" horiz-adv-x="509" d="M334 520q-25 0 -42.5 17.5t-17.5 42.5t17.5 42.5t42.5 17.5t42.5 -17.5t17.5 -42.5t-17.5 -42.5t-42.5 -17.5zM173 520q-25 0 -42.5 17.5t-17.5 42.5t17.5 42.5t42.5 17.5t42.5 -17.5t17.5 -42.5t-17.5 -42.5t-42.5 -17.5zM33 106q0 89 119 140q43 19 158 41v45 q0 47 -11 64t-41 17q-24 0 -39 -13.5t-26 -45.5q-23 -63 -68 -63q-26 0 -44.5 17t-18.5 42q0 46 55 74.5t141 28.5q104 0 149 -47q23 -24 23 -82v-169q0 -58 4.5 -74.5t20.5 -16.5q11 0 28 11l26 -28q-55 -60 -104 -60q-52 0 -90 60q-75 -60 -144 -60q-59 0 -98.5 34 t-39.5 85zM167 126q0 -34 15 -54t40 -20q44 0 88 44v150q-79 -20 -111 -47t-32 -73z" />
<glyph unicode="&#xe5;" horiz-adv-x="509" d="M254 513q-38 0 -64 26.5t-26 63.5t26 63.5t64 26.5t64 -26.5t26 -63.5t-26 -63.5t-64 -26.5zM254 561q17 0 29.5 12.5t12.5 29.5q0 18 -12.5 30.5t-29.5 12.5t-29.5 -12.5t-12.5 -30.5q0 -17 12.5 -29.5t29.5 -12.5zM33 106q0 89 119 140q43 19 158 41v45q0 47 -11 64 t-41 17q-24 0 -39 -13.5t-26 -45.5q-23 -63 -68 -63q-26 0 -44.5 17t-18.5 42q0 46 55 74.5t141 28.5q104 0 149 -47q23 -24 23 -82v-169q0 -58 4.5 -74.5t20.5 -16.5q11 0 28 11l26 -28q-55 -60 -104 -60q-52 0 -90 60q-75 -60 -144 -60q-59 0 -98.5 34t-39.5 85zM167 126 q0 -34 15 -54t40 -20q44 0 88 44v150q-79 -20 -111 -47t-32 -73z" />
<glyph unicode="&#xe6;" horiz-adv-x="785" d="M33 105q0 66 71.5 113.5t206.5 70.5q2 20 2 43q0 41 -12.5 58.5t-41.5 17.5q-22 0 -34.5 -10.5t-23.5 -36.5q-16 -40 -34 -56.5t-44 -16.5q-24 0 -41.5 18.5t-17.5 44.5q0 45 58 73.5t149 28.5q97 0 140 -43q55 43 136 43q89 0 145 -58t56 -149v-14h-304q1 -78 44 -128.5 t109 -50.5q75 0 131 75l32 -23q-39 -57 -93.5 -88t-116.5 -31q-122 0 -195 94q-58 -50 -101.5 -72t-86.5 -22q-56 0 -95 34.5t-39 84.5zM446 281h183q1 6 1 14q0 58 -23.5 90.5t-64.5 32.5q-43 0 -70 -38.5t-26 -98.5zM170 125q0 -32 14.5 -51t38.5 -19q56 0 109 63 q-20 42 -21 125l-9 -3q-47 -11 -64.5 -18.5t-35.5 -23.5q-32 -29 -32 -73z" />
<glyph unicode="&#xe7;" horiz-adv-x="465" d="M143 -143q45 -20 73 -20q20 0 32 10.5t12 26.5q0 14 -10.5 23.5t-26.5 9.5q-6 0 -27 -4l-7 5l33 80q-85 7 -137 65.5t-52 146.5q0 101 72 177t169 76q65 0 112.5 -31t47.5 -74q0 -26 -17.5 -44.5t-42.5 -18.5q-37 0 -56 28q-11 16 -21 65q-7 34 -39 34q-42 0 -66.5 -41.5 t-24.5 -111.5q0 -96 33 -149t92 -53q70 0 122 82l34 -23q-61 -120 -188 -129l-18 -48q14 6 29 6q28 0 48 -19.5t20 -46.5q0 -36 -33.5 -59t-85.5 -23q-50 0 -95 24z" />
<glyph unicode="&#xe8;" horiz-adv-x="507" d="M273 502l-123 54q-38 17 -52.5 29.5t-14.5 31.5q0 16 12.5 28.5t29.5 12.5q24 0 61 -33l123 -113zM33 208q0 104 67.5 174.5t166.5 70.5q87 0 147.5 -60t60.5 -146q0 -10 -1 -18h-306q1 -77 43.5 -126.5t106.5 -49.5q75 0 132 72l32 -24q-38 -55 -94 -85t-120 -30 q-102 0 -168.5 63t-66.5 159zM166 278h184q2 138 -87 138q-43 0 -66 -33.5t-31 -104.5z" />
<glyph unicode="&#xe9;" horiz-adv-x="507" d="M224 512l123 113q37 33 61 33q17 0 29.5 -12.5t12.5 -28.5q0 -19 -14.5 -31.5t-52.5 -29.5l-123 -54zM33 208q0 104 67.5 174.5t166.5 70.5q87 0 147.5 -60t60.5 -146q0 -10 -1 -18h-306q1 -77 43.5 -126.5t106.5 -49.5q75 0 132 72l32 -24q-38 -55 -94 -85t-120 -30 q-102 0 -168.5 63t-66.5 159zM166 278h184q2 138 -87 138q-43 0 -66 -33.5t-31 -104.5z" />
<glyph unicode="&#xea;" horiz-adv-x="507" d="M129 503l103 154h75l98 -154h-43l-96 90l-93 -90h-44zM33 208q0 104 67.5 174.5t166.5 70.5q87 0 147.5 -60t60.5 -146q0 -10 -1 -18h-306q1 -77 43.5 -126.5t106.5 -49.5q75 0 132 72l32 -24q-38 -55 -94 -85t-120 -30q-102 0 -168.5 63t-66.5 159zM166 278h184 q2 138 -87 138q-43 0 -66 -33.5t-31 -104.5z" />
<glyph unicode="&#xeb;" horiz-adv-x="507" d="M347 520q-25 0 -42.5 17.5t-17.5 42.5t17.5 42.5t42.5 17.5t42.5 -17.5t17.5 -42.5t-17.5 -42.5t-42.5 -17.5zM186 520q-25 0 -42.5 17.5t-17.5 42.5t17.5 42.5t42.5 17.5t42.5 -17.5t17.5 -42.5t-17.5 -42.5t-42.5 -17.5zM33 208q0 104 67.5 174.5t166.5 70.5 q87 0 147.5 -60t60.5 -146q0 -10 -1 -18h-306q1 -77 43.5 -126.5t106.5 -49.5q75 0 132 72l32 -24q-38 -55 -94 -85t-120 -30q-102 0 -168.5 63t-66.5 159zM166 278h184q2 138 -87 138q-43 0 -66 -33.5t-31 -104.5z" />
<glyph unicode="&#xec;" horiz-adv-x="295" d="M154 502l-123 54q-38 17 -52.5 29.5t-14.5 31.5q0 16 12.5 28.5t29.5 12.5q24 0 61 -33l123 -113zM34 0v37q47 2 55 12t8 65v159q0 48 -3.5 61.5t-19.5 21.5q-16 9 -44 9v36l187 52v-339q0 -53 7 -65t41 -12h9v-37h-240z" />
<glyph unicode="&#xed;" horiz-adv-x="295" d="M141 502l-36 10l123 113q37 33 61 33q17 0 29.5 -12.5t12.5 -28.5q0 -19 -14.5 -31.5t-52.5 -29.5zM35 0v37q47 2 55 12t8 65v159q0 48 -3.5 61.5t-19.5 21.5q-17 9 -44 9v36l187 52v-339q0 -53 7 -65t41 -12h9v-37h-240z" />
<glyph unicode="&#xee;" horiz-adv-x="295" d="M10 503l103 154h75l98 -154h-43l-96 90l-93 -90h-44zM35 0v37q47 2 55 12t8 65v159q0 48 -3.5 61.5t-19.5 21.5q-17 9 -44 9v36l187 52v-339q0 -53 7 -65t41 -12h9v-37h-240z" />
<glyph unicode="&#xef;" horiz-adv-x="295" d="M219 520q-22 0 -38 17.5t-16 42.5t16 42.5t38 17.5t37.5 -17.5t15.5 -42.5t-15.5 -42.5t-37.5 -17.5zM78 520q-22 0 -38 17.5t-16 42.5t16 42.5t38 17.5t37.5 -17.5t15.5 -42.5t-15.5 -42.5t-37.5 -17.5zM35 0v37q47 2 55 12t8 65v159q0 48 -3.5 61.5t-19.5 21.5 q-17 9 -44 9v36l187 52v-339q0 -53 7 -65t41 -12h9v-37h-240z" />
<glyph unicode="&#xf0;" horiz-adv-x="526" d="M33 220q0 97 67.5 165t163.5 68h9l-52 79l-79 -60l-30 37l83 62l-54 82l35 27l63 -76l82 65l30 -38l-81 -62l146 -170q76 -87 76 -179q0 -98 -65.5 -165.5t-162.5 -67.5t-164 67.5t-67 165.5zM263 32q49 0 69 42.5t20 145.5q0 102 -20 145t-69 43q-47 0 -68.5 -45 t-21.5 -143t21.5 -143t68.5 -45z" />
<glyph unicode="&#xf1;" horiz-adv-x="581" d="M179 517l-28 11q36 114 81 114q16 0 68 -24q48 -22 60 -22q25 0 42 47l29 -12q-26 -110 -85 -110q-20 0 -63 21q-41 20 -59 20q-14 0 -22.5 -8.5t-22.5 -36.5zM35 0v37q47 2 55 12t8 65v171q0 50 -12.5 65t-54.5 15v36l187 52v-83q72 83 160 83q61 0 93.5 -39.5 t32.5 -113.5v-186q0 -53 7 -65t41 -12h9v-37h-234v37h9q34 0 41 12t7 65v162q0 49 -16 71t-52 22q-53 0 -98 -47v-208q0 -53 7 -65t41 -12h9v-37h-240z" />
<glyph unicode="&#xf2;" horiz-adv-x="526" d="M269 502l-123 54q-38 17 -52.5 29.5t-14.5 31.5q0 16 12.5 28.5t29.5 12.5q24 0 61 -33l123 -113zM33 220q0 97 67.5 165t163.5 68q97 0 162.5 -67.5t65.5 -165.5t-65.5 -165.5t-162.5 -67.5t-164 67.5t-67 165.5zM263 32q49 0 69 42.5t20 145.5q0 102 -20 145t-69 43 q-47 0 -68.5 -45t-21.5 -143t21.5 -143t68.5 -45z" />
<glyph unicode="&#xf3;" horiz-adv-x="526" d="M220 512l123 113q37 33 61 33q17 0 29.5 -12.5t12.5 -28.5q0 -19 -14.5 -31.5t-52.5 -29.5l-123 -54zM33 220q0 97 67.5 165t163.5 68q97 0 162.5 -67.5t65.5 -165.5t-65.5 -165.5t-162.5 -67.5t-164 67.5t-67 165.5zM263 32q49 0 69 42.5t20 145.5q0 102 -20 145t-69 43 q-47 0 -68.5 -45t-21.5 -143t21.5 -143t68.5 -45z" />
<glyph unicode="&#xf4;" horiz-adv-x="526" d="M125 503l103 154h75l98 -154h-43l-96 90l-93 -90h-44zM33 220q0 97 67.5 165t163.5 68q97 0 162.5 -67.5t65.5 -165.5t-65.5 -165.5t-162.5 -67.5t-164 67.5t-67 165.5zM263 32q49 0 69 42.5t20 145.5q0 102 -20 145t-69 43q-47 0 -68.5 -45t-21.5 -143t21.5 -143 t68.5 -45z" />
<glyph unicode="&#xf5;" horiz-adv-x="526" d="M151 517l-28 11q36 114 81 114q16 0 68 -24q48 -22 60 -22q25 0 42 47l29 -12q-26 -110 -85 -110q-20 0 -63 21q-41 20 -59 20q-14 0 -22.5 -8.5t-22.5 -36.5zM33 220q0 97 67.5 165t163.5 68q97 0 162.5 -67.5t65.5 -165.5t-65.5 -165.5t-162.5 -67.5t-164 67.5 t-67 165.5zM263 32q49 0 69 42.5t20 145.5q0 102 -20 145t-69 43q-47 0 -68.5 -45t-21.5 -143t21.5 -143t68.5 -45z" />
<glyph unicode="&#xf6;" horiz-adv-x="526" d="M343 520q-25 0 -42.5 17.5t-17.5 42.5t17.5 42.5t42.5 17.5t42.5 -17.5t17.5 -42.5t-17.5 -42.5t-42.5 -17.5zM182 520q-25 0 -42.5 17.5t-17.5 42.5t17.5 42.5t42.5 17.5t42.5 -17.5t17.5 -42.5t-17.5 -42.5t-42.5 -17.5zM33 220q0 97 67.5 165t163.5 68 q97 0 162.5 -67.5t65.5 -165.5t-65.5 -165.5t-162.5 -67.5t-164 67.5t-67 165.5zM263 32q49 0 69 42.5t20 145.5q0 102 -20 145t-69 43q-47 0 -68.5 -45t-21.5 -143t21.5 -143t68.5 -45z" />
<glyph unicode="&#xf7;" d="M288 447q-22 0 -38 15.5t-16 38.5t16 38.5t38 15.5t38 -15.5t16 -38.5t-16 -38.5t-38 -15.5zM53 290v60h469v-60h-469zM234 139q0 23 16 38.5t38 15.5t38 -15.5t16 -38.5t-16 -38.5t-38 -15.5t-38 15.5t-16 38.5z" />
<glyph unicode="&#xf8;" horiz-adv-x="526" d="M111 -31l28 54q-50 34 -78 85.5t-28 111.5q0 98 67.5 165.5t164.5 67.5q49 0 90 -17l26 51l33 -16l-27 -52q49 -32 77 -85t28 -114q0 -98 -65.5 -165.5t-162.5 -67.5q-46 0 -93 19l-29 -55zM182 105l142 272q-20 31 -62 31q-47 0 -68 -45t-21 -143q0 -69 9 -115zM201 63 q23 -31 61 -31q48 0 69 42t21 139q0 74 -10 120z" />
<glyph unicode="&#xf9;" horiz-adv-x="585" d="M176 556q-38 17 -52.5 29.5t-14.5 31.5q0 16 12.5 28.5t29.5 12.5q24 0 61 -33l123 -113l-36 -10zM118 38q-24 35 -24 118v114q0 50 -3.5 63.5t-18.5 22.5t-41 9v36l183 52v-297q0 -55 16.5 -75.5t59.5 -20.5q19 0 48 12t48 28v180q0 53 -11.5 68.5t-51.5 16.5v36l183 52 v-339q0 -55 8 -65t55 -12v-37q-8 1 -16 1l-14 -1q-62 -4 -92.5 -5.5t-60.5 -3.5v65q-74 -69 -159 -69q-74 0 -109 51z" />
<glyph unicode="&#xfa;" horiz-adv-x="585" d="M249 512l123 113q37 33 61 33q17 0 29.5 -12.5t12.5 -28.5q0 -19 -14.5 -31.5t-52.5 -29.5l-123 -54zM118 38q-24 35 -24 118v114q0 50 -3.5 63.5t-18.5 22.5t-41 9v36l183 52v-297q0 -55 16.5 -75.5t59.5 -20.5q19 0 48 12t48 28v180q0 53 -11.5 68.5t-51.5 16.5v36 l183 52v-339q0 -55 8 -65t55 -12v-37q-8 1 -16 1l-14 -1q-62 -4 -92.5 -5.5t-60.5 -3.5v65q-74 -69 -159 -69q-74 0 -109 51z" />
<glyph unicode="&#xfb;" horiz-adv-x="585" d="M154 503l103 154h75l98 -154h-43l-96 90l-93 -90h-44zM118 38q-24 35 -24 118v114q0 50 -3.5 63.5t-18.5 22.5t-41 9v36l183 52v-297q0 -55 16.5 -75.5t59.5 -20.5q19 0 48 12t48 28v180q0 53 -11.5 68.5t-51.5 16.5v36l183 52v-339q0 -55 8 -65t55 -12v-37q-8 1 -16 1 l-14 -1q-62 -4 -92.5 -5.5t-60.5 -3.5v65q-74 -69 -159 -69q-74 0 -109 51z" />
<glyph unicode="&#xfc;" horiz-adv-x="585" d="M372 520q-25 0 -42.5 17.5t-17.5 42.5t17.5 42.5t42.5 17.5t42.5 -17.5t17.5 -42.5t-17.5 -42.5t-42.5 -17.5zM211 520q-25 0 -42.5 17.5t-17.5 42.5t17.5 42.5t42.5 17.5t42.5 -17.5t17.5 -42.5t-17.5 -42.5t-42.5 -17.5zM118 38q-24 35 -24 118v114q0 50 -3.5 63.5 t-18.5 22.5t-41 9v36l183 52v-297q0 -55 16.5 -75.5t59.5 -20.5q19 0 48 12t48 28v180q0 53 -11.5 68.5t-51.5 16.5v36l183 52v-339q0 -55 8 -65t55 -12v-37q-8 1 -16 1l-14 -1q-62 -4 -92.5 -5.5t-60.5 -3.5v65q-74 -69 -159 -69q-74 0 -109 51z" />
<glyph unicode="&#xfd;" horiz-adv-x="501" d="M208 512l123 113q36 33 61 33q17 0 29.5 -12.5t12.5 -28.5q0 -19 -14 -31.5t-53 -29.5l-124 -54zM67 -37q16 0 26 -6t27 -24t26 -18q16 0 33 20.5t42 68.5l-145 317q-24 53 -35.5 65.5t-37.5 16.5v37h227v-37q-27 -2 -36 -6t-9 -14q0 -8 16 -44l86 -193l70 158 q16 35 16 59q0 19 -12 27.5t-46 12.5v37h182v-37q-35 -9 -48.5 -24t-41.5 -75l-142 -309q-76 -165 -175 -165q-38 0 -63 20t-25 51q0 25 19.5 43.5t45.5 18.5z" />
<glyph unicode="&#xfe;" horiz-adv-x="544" d="M98 -56v564q0 54 -12 69t-55 15v36l187 52v-292q45 59 118 59q76 0 125.5 -63t49.5 -159q0 -103 -56 -169q-58 -69 -129 -69q-28 0 -58 13.5t-50 34.5v-91q0 -55 8 -65t55 -12v-37h-246v37q47 2 55 12t8 65zM218 78q41 -32 68 -32q91 0 91 186q0 155 -80 155 q-46 0 -79 -49v-260z" />
<glyph unicode="&#xff;" horiz-adv-x="501" d="M331 520q-25 0 -42.5 17.5t-17.5 42.5t17.5 42.5t42.5 17.5t42.5 -17.5t17.5 -42.5t-17.5 -42.5t-42.5 -17.5zM170 520q-25 0 -42.5 17.5t-17.5 42.5t17.5 42.5t42.5 17.5t42.5 -17.5t17.5 -42.5t-17.5 -42.5t-42.5 -17.5zM67 -37q16 0 26 -6t27 -24t26 -18q16 0 33 20.5 t42 68.5l-145 317q-24 53 -35.5 65.5t-37.5 16.5v37h227v-37q-27 -2 -36 -6t-9 -14q0 -8 16 -44l86 -193l70 158q16 35 16 59q0 19 -12 27.5t-46 12.5v37h182v-37q-35 -9 -48.5 -24t-41.5 -75l-142 -309q-76 -165 -175 -165q-38 0 -63 20t-25 51q0 25 19.5 43.5t45.5 18.5z " />
<glyph unicode="&#x152;" horiz-adv-x="970" d="M134 83q-94 96 -94 246q0 89 34.5 163t97.5 120q69 51 167 54q15 1 68 1h467l50 -176l-34 -21q-61 85 -111.5 118.5t-119.5 33.5q-56 0 -65 -18q-7 -11 -7 -64v-177h32q59 0 88 24t41 83h40v-265h-40q-11 66 -38 89t-96 23h-27v-190q0 -59 10 -72.5t56 -13.5q77 0 129 32 t122 123l32 -20l-52 -176h-516q-85 0 -136.5 18t-97.5 65zM216 108q34 -67 131 -67q69 0 90 38q13 25 13 101v261q0 82 -4 109t-17 43q-24 28 -80 28q-95 0 -127.5 -58.5t-32.5 -228.5q0 -171 27 -226z" />
<glyph unicode="&#x153;" horiz-adv-x="821" d="M33 220q0 97 66.5 165.5t161.5 68.5q94 0 162 -68q71 68 158 68q91 0 150 -59.5t59 -151.5q0 -7 -1 -13h-305q8 -83 48 -129.5t102 -46.5q74 0 132 71l30 -23q-34 -53 -90.5 -84t-120.5 -31q-103 0 -166 66q-60 -66 -159 -66q-95 0 -161 67.5t-66 165.5zM486 279h182 q-3 74 -23.5 106t-64.5 32q-26 0 -48.5 -17.5t-33.5 -46.5q-8 -22 -12 -74zM191 66q10 -17 29 -28.5t38 -11.5q50 0 72 45t22 145q0 104 -22 151.5t-70 47.5q-51 0 -72 -44t-21 -151q0 -113 24 -154z" />
<glyph unicode="&#x178;" horiz-adv-x="594" d="M431 747q-25 0 -42.5 17.5t-17.5 42.5t17.5 42.5t42.5 17.5t42.5 -17.5t17.5 -42.5t-17.5 -42.5t-42.5 -17.5zM203 747q-25 0 -42.5 17.5t-17.5 42.5t17.5 42.5t42.5 17.5t42.5 -17.5t17.5 -42.5t-17.5 -42.5t-42.5 -17.5zM142 0v40l17 1q50 3 60 16t10 75v169l-160 279 q-16 27 -29 36t-40 11v40h278v-40q-55 0 -55 -21q0 -9 15 -38l109 -206l96 173q17 31 17 51q0 21 -13 30.5t-46 10.5v40h193v-40q-35 -10 -48.5 -22.5t-40.5 -57.5l-133 -223v-192q0 -62 10 -75t60 -16l17 -1v-40h-317z" />
<glyph unicode="&#x2c6;" horiz-adv-x="500" d="M112 503l103 154h75l98 -154h-43l-96 90l-93 -90h-44z" />
<glyph unicode="&#x2dc;" horiz-adv-x="500" d="M138 517l-28 11q36 114 81 114q16 0 68 -24q48 -22 60 -22q25 0 42 47l29 -12q-26 -110 -85 -110q-20 0 -63 21q-41 20 -59 20q-13 0 -22 -8.5t-23 -36.5z" />
<glyph unicode="&#x2000;" horiz-adv-x="463" />
<glyph unicode="&#x2001;" horiz-adv-x="927" />
<glyph unicode="&#x2002;" horiz-adv-x="463" />
<glyph unicode="&#x2003;" horiz-adv-x="927" />
<glyph unicode="&#x2004;" horiz-adv-x="309" />
<glyph unicode="&#x2005;" horiz-adv-x="231" />
<glyph unicode="&#x2006;" horiz-adv-x="154" />
<glyph unicode="&#x2007;" horiz-adv-x="154" />
<glyph unicode="&#x2008;" horiz-adv-x="115" />
<glyph unicode="&#x2009;" horiz-adv-x="185" />
<glyph unicode="&#x200a;" horiz-adv-x="51" />
<glyph unicode="&#x2010;" horiz-adv-x="222" d="M0 183v80h222v-80h-222z" />
<glyph unicode="&#x2011;" horiz-adv-x="222" d="M0 183v80h222v-80h-222z" />
<glyph unicode="&#x2013;" d="M33 190v70h509v-70h-509z" />
<glyph unicode="&#x2014;" horiz-adv-x="668" d="M0 190v70h668v-70h-668z" />
<glyph unicode="&#x2018;" horiz-adv-x="239" d="M125 381q-37 0 -60.5 26.5t-23.5 68.5q0 59 42 114.5t113 89.5l20 -32q-85 -55 -85 -94q0 -10 4.5 -15t26.5 -17q38 -21 38 -66q0 -32 -22 -53.5t-53 -21.5z" />
<glyph unicode="&#x2019;" horiz-adv-x="239" d="M43 381l-20 32q85 55 85 95q0 10 -4 14t-27 17q-37 21 -37 66q0 31 21.5 53t52.5 22q37 0 60.5 -26.5t23.5 -68.5q0 -59 -42 -114.5t-113 -89.5z" />
<glyph unicode="&#x201a;" horiz-adv-x="239" d="M40 65q0 31 21.5 53t52.5 22q37 0 60.5 -26.5t23.5 -68.5q0 -59 -42 -114.5t-113 -89.5l-20 32q85 55 85 94q0 10 -4 14.5t-27 17.5q-37 21 -37 66z" />
<glyph unicode="&#x201c;" horiz-adv-x="424" d="M310 381q-37 0 -60.5 26.5t-23.5 68.5q0 60 42 115t113 89l21 -32q-86 -54 -86 -94q0 -10 4.5 -15t26.5 -17q38 -21 38 -66q0 -32 -21.5 -53.5t-53.5 -21.5zM125 381q-37 0 -60.5 26.5t-23.5 68.5q0 59 42 114.5t113 89.5l20 -32q-85 -55 -85 -94q0 -10 4.5 -15t26.5 -17 q38 -21 38 -66q0 -32 -22 -53.5t-53 -21.5z" />
<glyph unicode="&#x201d;" horiz-adv-x="424" d="M229 381l-21 32q86 55 86 95q0 10 -4 14t-27 17q-38 21 -38 66q0 31 21.5 53t53.5 22q37 0 60.5 -26.5t23.5 -68.5q0 -59 -42 -114.5t-113 -89.5zM43 381l-20 32q85 55 85 95q0 10 -4 14t-27 17q-37 21 -37 66q0 31 21.5 53t52.5 22q37 0 60.5 -26.5t23.5 -68.5 q0 -59 -42 -114.5t-113 -89.5z" />
<glyph unicode="&#x201e;" horiz-adv-x="424" d="M225 65q0 31 21.5 53t53.5 22q37 0 60.5 -26.5t23.5 -68.5q0 -60 -42 -115t-113 -89l-21 32q86 54 86 94q0 10 -4.5 15t-26.5 17q-38 21 -38 66zM40 65q0 31 21.5 53t52.5 22q37 0 60.5 -26.5t23.5 -68.5q0 -59 -42 -114.5t-113 -89.5l-20 32q85 55 85 94q0 10 -4 14.5 t-27 17.5q-37 21 -37 66z" />
<glyph unicode="&#x2022;" horiz-adv-x="667" d="M336 200q-58 0 -99 40.5t-41 98.5q0 57 41 97.5t99 40.5q56 0 96.5 -40.5t40.5 -97.5t-40.5 -98t-96.5 -41z" />
<glyph unicode="&#x2026;" horiz-adv-x="740" d="M540 64q0 32 22.5 54t54.5 22q31 0 53.5 -22t22.5 -54t-22 -54.5t-54 -22.5t-54.5 22.5t-22.5 54.5zM294 64q0 32 22.5 54t54.5 22q31 0 53.5 -22t22.5 -54t-22 -54.5t-54 -22.5t-54.5 22.5t-22.5 54.5zM47 64q0 32 22.5 54t54.5 22t54 -22t22 -54t-22 -54.5t-54 -22.5 t-54.5 22.5t-22.5 54.5z" />
<glyph unicode="&#x202f;" horiz-adv-x="185" />
<glyph unicode="&#x2039;" horiz-adv-x="228" d="M133 116q-79 71 -116 98v19q65 52 82 68l27 24l28 25l27 24l3 3l3 2l3 3l22 -18q-36 -61 -92 -140q57 -71 92 -140l-22 -19l-34 30z" />
<glyph unicode="&#x203a;" horiz-adv-x="228" d="M39 65l-22 18q38 64 92 139q-61 78 -92 141l22 19l34 -30l23 -21q79 -71 116 -98v-19q-80 -66 -82 -68l-27 -25l-28 -24l-27 -24l-6 -6z" />
<glyph unicode="&#x205f;" horiz-adv-x="231" />
<glyph unicode="&#x20ac;" horiz-adv-x="700" d="M33 261l20 46h45v14q0 17 1 32h-66l20 46h52q14 86 65 154q95 131 231 131q43 0 99 -22q13 -5 22 -5q7 0 29 11l27 14l19 -8l50 -191l-42 -16q-44 84 -96 128.5t-105 44.5q-70 0 -110.5 -62.5t-45.5 -178.5h261l-20 -46h-241l4 -46h218l-20 -46h-190q21 -95 70 -146.5 t119 -51.5q110 0 180 135l37 -17q-87 -198 -273 -198q-118 0 -195.5 74t-95.5 204h-69z" />
<glyph unicode="&#x2122;" horiz-adv-x="878" d="M378 287v29q29 2 39 19t10 66v189q0 34 -5.5 41t-32.5 7h-11v29h154l78 -233l85 233h149v-29h-11q-27 0 -32.5 -7t-5.5 -41v-226q0 -34 5.5 -41t32.5 -7h11v-29h-190v29h11q28 0 33.5 7t5.5 41v229l-111 -306h-26l-106 312v-198q0 -49 10 -66t40 -19v-29h-133zM88 287v29 h11q27 0 32.5 7t5.5 41v269q-60 -12 -106 -86l-28 11l31 109h303l27 -108l-30 -8q-28 41 -51.5 60t-54.5 23v-270q0 -34 5.5 -41t33.5 -7h11v-29h-190z" />
</font>
</defs>
</svg>
