<?xml version="1.0" standalone="no"?>
<!DOCTYPE svg PUBLIC "-//W3C//DTD SVG 1.1//EN" "http://www.w3.org/Graphics/SVG/1.1/DTD/svg11.dtd" >
<svg xmlns="http://www.w3.org/2000/svg">
<metadata>
This is a custom SVG font generated by IcoMoon.
<iconset grid="14"></iconset>
</metadata>
<defs>
<font id="stjohn" horiz-adv-x="448" >
<font-face units-per-em="448" ascent="384" descent="-64" />
<missing-glyph horiz-adv-x="448" />
<glyph class="hidden" unicode="&#xf000;" d="M0,384L 448 -64L0 -64 z" horiz-adv-x="0" />
<glyph unicode="&#xe000;" d="M 448,118L 364,202L 364,328L 308,328L 308,258L 224,342L0,118L0,104L 56,104L 56-36L 196-36L 196,48L 252,48L 252-36L 392-36L 392,104L 448,104 z"  />
<glyph unicode="&#xe001;" d="M 308,104c-28-28-28-56-56-56s-56,28-84,56s-56,56-56,84s 28,28, 56,56S 112,356, 84,356S0,272,0,272c0-56, 57.531-169.531, 112-224
	s 168-112, 224-112c0,0, 84,56, 84,84S 336,132, 308,104z"  />
<glyph unicode="&#xe002;" d="M 223.944,167.602L 448,273.148L 448,328L0,328L0,273.316 		zM 224.056,105.694L0,211.52L0-8L 448-8L 448,211.184 		z"  />
<glyph unicode="&#xe003;" d="M 112,356L 336,356L 336,300L 112,300zM 420,272L 28,272 C 12.6,272,0,259.4,0,244l0-140 c0-15.4, 12.598-28, 28-28l 84,0 l0-112 l 224,0 L 336,76 l 84,0 c 15.4,0, 28,12.6, 28,28L 448,244 
		C 448,259.4, 435.4,272, 420,272z M 308-8L 140-8 L 140,132 l 168,0 L 308-8 z M 426.3,230c0-11.211-9.089-20.3-20.299-20.3
		c-11.211,0-20.301,9.089-20.301,20.3s 9.089,20.3, 20.301,20.3C 417.212,250.3, 426.3,241.211, 426.3,230z"  />
<glyph unicode="&#xe004;" d="M 224,384C 146.68,384, 84,321.32, 84,244c0-140, 140-308, 140-308s 140,168, 140,308C 364,321.32, 301.319,384, 224,384z M 224,160
	c-46.393,0-84,37.607-84,84s 37.607,84, 84,84s 84-37.607, 84-84S 270.392,160, 224,160z"  />
<glyph unicode="&#xe005;" d="M 373.338,384L 74.674,384 C 33.605,384,0,350.394,0,309.324l0-298.649 C0-30.423, 33.605-64, 74.674-64l 298.664,0.001
	c 41.071,0, 74.662,33.576, 74.662,74.676L 448,309.324 C 448,350.394, 414.408,384, 373.338,384z M 380.884,160L 308,160 l0-196 l-84,0 L 224,160 l-40.48,0 l0,64.122 L 224,224.122 
	l0,41.644 C 224,322.353, 248.409,356, 314.943,356l 76.669,0 l0-69.374 l-62.619,0 c-18.586,0.031-20.892-9.692-20.892-27.787L 308,224.122l 84,0 
	L 380.884,160z"  />
<glyph unicode="&#xe006;" d="M 448,298.942c-16.483-7.31-34.197-12.251-52.789-14.473c 18.975,11.375, 33.55,29.387, 40.413,50.851
	c-17.761-10.534-37.431-18.183-58.367-22.304c-16.765,17.863-40.653,29.024-67.089,29.024c-50.76,0-91.913-41.15-91.913-91.909
	c0-7.204, 0.813-14.219, 2.38-20.947c-76.388,3.834-144.113,40.425-189.445,96.034c-7.912-13.575-12.445-29.363-12.445-46.208
	c0-31.889, 16.226-60.022, 40.889-76.504c-15.067,0.478-29.239,4.612-41.63,11.497c-0.009-0.383-0.009-0.768-0.009-1.156
	c0-44.532, 31.683-81.68, 73.728-90.125c-7.711-2.1-15.832-3.225-24.215-3.225c-5.923,0-11.68,0.578-17.293,1.65
	c 11.697-36.514, 45.64-63.090, 85.86-63.829c-31.456-24.653-71.088-39.346-114.151-39.346c-7.419,0-14.735,0.435-21.926,1.286
	c 40.675-26.079, 88.988-41.297, 140.893-41.297c 169.060,0, 261.51,140.054, 261.51,261.513c0,3.985-0.090,7.948-0.267,11.891
	C 420.096,264.324, 435.678,280.511, 448,298.942z"  />
<glyph unicode="&#xe007;" d="M 364,328L 84,328 c-46.2,0-84-37.8-84-84l0-168 c0-46.2, 37.8-84, 84-84l 280,0 c 46.2,0, 84,37.8, 84,84L 448,244 C 448,290.2, 410.2,328, 364,328z
	 M 168,48L 168,272 l 140-112L 168,48z"  />
<glyph unicode="&#xe008;" d="M 417.111,351.344l-1.762,1.768c-41.19,41.184-108.585,41.184-149.768,0L 170.159,257.678
		c-41.184-41.183-41.184-108.577,0-149.761l 1.761-1.761c 3.426-3.433, 7.064-6.529, 10.822-9.388l 34.934,34.934
		c-4.070,2.404-7.93,5.281-11.426,8.776l-1.768,1.768c-22.362,22.355-22.362,58.744,0,81.108L 299.913,318.779
		c 22.363,22.364, 58.745,22.364, 81.106,0l 1.768-1.76c 22.356-22.363, 22.356-58.753,0-81.108l-43.175-43.175
		c 7.495-18.51, 11.046-38.238, 10.735-57.919l 66.764,66.764C 458.296,242.765, 458.296,310.159, 417.111,351.344zM 276.081,213.841c-3.426,3.426-7.064,6.528-10.822,9.38l-34.934-34.926c 4.071-2.405, 7.93-5.282, 11.426-8.777l 1.768-1.768
		c 22.363-22.363, 22.363-58.744,0-81.107L 148.088,1.209c-22.364-22.357-58.746-22.357-81.107,0l-1.768,1.768
		c-22.355,22.365-22.355,58.746,0,81.107l 43.176,43.175c-7.496,18.509-11.045,38.238-10.735,57.919l-66.763-66.762
		c-41.184-41.183-41.184-108.578,0-149.767l 1.761-1.764c 41.191-41.181, 108.584-41.181, 149.768,0l 95.423,95.427
		c 41.184,41.183, 41.184,108.585,0,149.768L 276.081,213.841z"  />
<glyph unicode="&#xf11a;" d="M 392-64l-336,0 q-23.188,0 -39.594,16.406t-16.406,39.594l0,42 q0,11.375 8.094,19.688t 19.688,8.313t 19.906-8.313t 8.313-19.688l0-14 q0-11.813 8.094-19.906t 19.906-8.094l 280,0 q 11.375,0 19.688,8.094t 8.313,19.906l0,14 q0,11.375 8.094,19.688t 19.688,8.313t 19.906-8.313t 8.313-19.688l0-42 q0-23.188 -16.406-39.594t-39.594-16.406zM 238.438,54.125q-6.125-6.125 -14.438-6.125t-14.438,6.125l-149.188,150.938
q-5.25,5.688 -3.719,8.313t 8.094,2.625l 103.25,0 l0,140 q0,11.813 8.094,19.906t 19.906,8.094l 56,0 q 11.813,0 19.906-8.094t 8.094-19.906l0-140 l 102.813,0 q 6.563,0 8.313-2.625t-3.5-8.313z"  />
<glyph unicode="&#xe00b;" d="M0,216L 448,216L 448-64L0-64zM 252,272L 448,272L 392,384L 252,384 		zM 196,384L 56,384L0,272L 196,272 		z"  />
<glyph unicode="&#xe00c;" d="M 405.918,384L 279.672,384 c-23.146,0-55.473-13.39-71.839-29.756L 12.274,158.686c-16.366-16.366-16.366-43.148,0-59.514
	l 150.898-150.896c 16.366-16.367, 43.147-16.367, 59.513,0l 195.558,195.557C 434.61,160.2, 448,192.527, 448,215.672L 448,341.918 
	C 448,365.063, 429.062,384, 405.918,384z M 350,244c-23.196,0-42,18.804-42,42s 18.804,42, 42,42s 42-18.804, 42-42S 373.196,244, 350,244z"  />
<glyph unicode="&#xf0fe;" d="M 320,144l0,32 q0,6.5 -4.75,11.25t-11.25,4.75l-80,0 l0,80 q0,6.5 -4.75,11.25t-11.25,4.75l-32,0 q-6.5,0 -11.25-4.75t-4.75-11.25l0-80 l-80,0 q-6.5,0 -11.25-4.75t-4.75-11.25l0-32 q0-6.5 4.75-11.25t 11.25-4.75l 80,0 l0-80 q0-6.5 4.75-11.25t 11.25-4.75l 32,0 q 6.5,0 11.25,4.75t 4.75,11.25l0,80 l 80,0 q 6.5,0 11.25,4.75t 4.75,11.25zM 384,280l0-240  q0-29.75 -21.125-50.875t-50.875-21.125l-240,0 q-29.75,0 -50.875,21.125t-21.125,50.875l0,240 q0,29.75 21.125,50.875t 50.875,21.125l 240,0 q 29.75,0 50.875-21.125t 21.125-50.875z" horiz-adv-x="384"  />
<glyph unicode="&#xf146;" d="M 320,144l0,32 q0,6.5 -4.75,11.25t-11.25,4.75l-224,0 q-6.5,0 -11.25-4.75t-4.75-11.25l0-32 q0-6.5 4.75-11.25t 11.25-4.75l 224,0 q 6.5,0 11.25,4.75t 4.75,11.25zM 384,280l0-240 q0-29.75 -21.125-50.875t-50.875-21.125l-240,0 q-29.75,0 -50.875,21.125t-21.125,50.875l0,240 q0,29.75 21.125,50.875t 50.875,21.125l 240,0 q 29.75,0 50.875-21.125 t 21.125-50.875z" horiz-adv-x="384"  />
<glyph unicode="&#xf0c9;" d="M 384,48l0-32 q0-6.5 -4.75-11.25t-11.25-4.75l-352,0 q-6.5,0 -11.25,4.75t-4.75,11.25l0,32 q0,6.5 4.75,11.25t 11.25,4.75l 352,0 q 6.5,0 11.25-4.75t 4.75-11.25zM 384,176l0-32 q0-6.5 -4.75-11.25t-11.25-4.75l-352,0 q-6.5,0 -11.25,4.75t-4.75,11.25l0,32 q0,6.5 4.75,11.25t 11.25,4.75l 352,0 q 6.5,0 11.25-4.75t 4.75-11.25zM 384,304l0-32 q0-6.5 -4.75-11.25 t-11.25-4.75l-352,0 q-6.5,0 -11.25,4.75t-4.75,11.25l0,32 q0,6.5 4.75,11.25t 11.25,4.75l 352,0 q 6.5,0 11.25-4.75t 4.75-11.25z" horiz-adv-x="384"  />
<glyph unicode="&#xe009;" d="M0,216l 308,0 l0-56 L0,160 L0,216 z M0,300l 308,0 l0-56 L0,244 L0,300 z M0,132l 308,0 l0-56 L0,76 L0,132 z M0,48l 308,0 l0-56 L0-8 L0,48 z M 336,132l 56-84l 56,84L 336,132 z M 448,160
	l-56,84l-56-84L 448,160 z"  />
<glyph unicode="&#xe00a;" d="M 98.438,188 C 152.561,188 196.438,144.123 196.438,90 C 196.438,35.876 152.561-8 98.438-8 C 44.313-8 0.438,35.876 0.438,90 L 0,104 C 0,212.248 87.752,300 196,300 L 196,244 C 158.605,244 123.448,229.437 97.005,202.995 C 91.915,197.904 87.27,192.488 83.079,186.799 C 88.084,187.586 93.212,188 98.438,188 ZM 350.438,188 C 404.561,188 448.438,144.123 448.438,90 C 448.438,35.876 404.561-8 350.438-8 C 296.314-8 252.438,35.876 252.438,90 L 252,104 C 252,212.248 339.752,300 448,300 L 448,244 C 410.605,244 375.448,229.437 349.005,202.995 C 343.914,197.904 339.269,192.488 335.079,186.799 C 340.084,187.586 345.211,188 350.438,188 Z"  />
<glyph unicode="&#xf256;" d="M 420-64l-392,0 q-11.813,0 -19.906,8.313t-8.094,19.688l0,392 q0,11.813 8.094,19.906t 19.906,8.094l 392,0 q 11.813,0 19.906-8.094t 8.094-19.906l0-392 q0-11.813 -8.094-19.906t-19.906-8.094zM 182-8l 112,0 q 5.688,0 9.844,4.156t 4.156,9.844t-4.156,9.844t-9.844,4.156l-112,0 q-5.688,0 -9.844-4.156t-4.156-9.844t 4.156-9.844t 9.844-4.156zM 70-8
l 56,0 q 5.688,0 9.844,4.156t 4.156,9.844t-4.156,9.844t-9.844,4.156l-56,0 q-5.688,0 -9.844-4.156t-4.156-9.844t 4.156-9.844t 9.844-4.156zM 70,76l 56,0 q 5.688,0 9.844,4.156t 4.156,9.844t-4.156,9.844t-9.844,4.156l-56,0 q-5.688,0 -9.844-4.156t-4.156-9.844t 4.156-9.844t 9.844-4.156zM 224,314q0,6.125 -4.156,10.063t-9.844,3.938l-140,0 
q-5.688,0 -9.844-3.938t-4.156-10.063l0-140 q0-5.688 4.156-9.844t 9.844-4.156l 140,0 q 5.688,0 9.844,4.156t 4.156,9.844l0,140 zM 238,104l-56,0 q-5.688,0 -9.844-4.156t-4.156-9.844t 4.156-9.844t 9.844-4.156l 56,0 q 5.688,0 9.844,4.156t 4.156,9.844t-4.156,9.844t-9.844,4.156zM 378,272l-14,0 l0,14 q0,6.125 -4.156,10.063t-9.844,3.938t-9.844-3.938t-4.156-10.063l0-14 
l-56,0 l0,14 q0,6.125 -4.156,10.063t-9.844,3.938t-9.844-3.938t-4.156-10.063l0-28 q0-5.688 4.156-9.844t 9.844-4.156l 112,0 q 5.688,0 9.844,4.156t 4.156,10.063t-4.156,9.844t-9.844,3.938zM 378,188l-112,0 q-5.688,0 -9.844-3.938t-4.156-9.844t 4.156-10.063t 9.844-4.156l 112,0 q 5.688,0 9.844,4.156t 4.156,10.063t-4.156,9.844t-9.844,3.938zM 378,104l-84,0 q-5.688,0 -9.844-4.156
t-4.156-9.844t 4.156-9.844t 9.844-4.156l 84,0 q 5.688,0 9.844,4.156t 4.156,9.844t-4.156,9.844t-9.844,4.156zM 378,20l-28,0 q-5.688,0 -9.844-4.156t-4.156-9.844t 4.156-9.844t 9.844-4.156l 28,0 q 5.688,0 9.844,4.156t 4.156,9.844t-4.156,9.844t-9.844,4.156z"  />
<glyph unicode="&#x20;" horiz-adv-x="224" />
</font>
</defs>
</svg>
